osu file format v14

[General]
AudioFilename: audio.mp3
AudioLeadIn: 0
PreviewTime: 360133
Countdown: 0
SampleSet: Soft
StackLeniency: 0.7
Mode: 0
LetterboxInBreaks: 0
WidescreenStoryboard: 0
SamplesMatchPlaybackRate: 1

[Editor]
DistanceSpacing: 1.6
BeatDivisor: 4
GridSize: 4
TimelineZoom: 1.7

[Metadata]
Title:Winteright
TitleUnicode:Winteright
Artist:Kumagai Eri (cv.Seto Asami)
ArtistUnicode:熊谷絵里(cv.瀬戸麻沙美)
Creator:Itasha_S13
Version:Winter
Source:音楽少女
Tags:Music Girl ongaku shoujo Justability Electro.Muster Kato Yoshihal Taishi cosmic record drum and bass dnb
BeatmapID:1147263
BeatmapSetID:466254

[Difficulty]
HPDrainRate:6
CircleSize:4
OverallDifficulty:8.9
ApproachRate:9.3
SliderMultiplier:1.8
SliderTickRate:1

[Events]
//Background and Video events
0,0,"BG.jpg",0,0
//Break Periods
2,144676,154877
2,352447,354420
//Storyboard Layer 0 (Background)
//Storyboard Layer 1 (Fail)
//Storyboard Layer 2 (Pass)
//Storyboard Layer 3 (Foreground)
//Storyboard Sound Samples

[TimingPoints]
476,342.857142857143,4,2,1,40,1,0
6990,-166.666666666667,4,2,1,5,0,0
7333,-285.714285714286,4,2,1,25,0,0
29276,-200,4,1,1,35,0,0
51218,-200,4,1,1,30,0,0
53961,-200,4,1,1,25,0,0
56704,-200,4,1,1,20,0,0
59448,-200,4,1,1,15,0,0
67676,-100,4,2,1,70,0,0
73161,-76.9230769230769,4,2,1,70,0,0
74876,-100,4,2,1,70,0,0
77961,-76.9230769230769,4,2,1,70,0,0
78647,-66.6666666666667,4,2,1,70,0,0
80704,-100,4,2,1,70,0,0
81390,-76.9230769230769,4,2,1,70,0,0
81733,-100,4,2,1,70,0,0
83447,-71.4285714285714,4,2,1,70,0,0
83790,-111.111111111111,4,2,1,70,0,0
84133,-66.6666666666667,4,2,1,70,0,0
86190,-100,4,2,1,70,0,0
86876,-66.6666666666667,4,2,1,70,0,0
87647,-100,4,2,1,70,0,0
88076,-100,4,2,1,70,0,0
88933,-142.857142857143,4,2,1,70,0,0
89618,-166.666666666667,4,1,1,55,0,0
111561,-300,4,1,1,45,0,0
114647,-200,4,1,1,35,0,0
114904,-166.666666666667,4,2,1,5,0,0
114990,-142.857142857143,4,1,1,45,0,0
115247,-166.666666666667,4,2,1,5,0,0
115333,-125,4,1,1,55,0,0
115590,-166.666666666667,4,2,1,5,0,0
115676,-58.8235294117647,4,2,1,85,0,1
118418,-66.6666666666667,4,2,1,85,0,1
120133,-66.6666666666667,4,2,1,85,0,1
120476,-100,4,2,1,85,0,1
121161,-58.8235294117647,4,2,1,85,0,1
123905,-66.6666666666667,4,2,1,85,0,1
125961,-100,4,2,1,85,0,1
126647,-58.8235294117647,4,2,1,85,0,1
129390,-66.6666666666667,4,2,1,85,0,1
130761,-83.3333333333333,4,2,1,85,0,1
131104,-66.6666666666667,4,2,1,85,0,1
131447,-100,4,2,1,85,0,1
132818,-58.8235294117647,4,2,1,85,0,1
133504,-66.6666666666667,4,2,1,85,0,1
133847,-100,4,2,1,85,0,1
134876,-76.9230769230769,4,2,1,85,0,1
136076,-100,4,2,1,85,0,1
137618,-200,4,1,1,55,0,0
160933,-200,4,1,1,30,0,0
166418,-166.666666666667,4,1,1,55,0,0
188362,-100,4,2,1,65,0,0
210304,-200,4,1,1,65,0,0
211676,-100,4,2,1,10,0,0
213390,-200,4,1,1,35,0,0
213647,-166.666666666667,4,2,1,5,0,0
213733,-142.857142857143,4,1,1,45,0,0
213990,-166.666666666667,4,2,1,5,0,0
214076,-111.111111111111,4,1,1,55,0,0
214333,-166.666666666667,4,2,1,5,0,0
214418,-58.8235294117647,4,2,1,85,0,1
217161,-66.6666666666667,4,2,1,85,0,1
218533,-76.9230769230769,4,2,1,85,0,1
219218,-100,4,2,1,85,0,1
219904,-58.8235294117647,4,2,1,85,0,1
222647,-66.6666666666667,4,2,1,85,0,1
225390,-58.8235294117647,4,2,1,85,0,1
228133,-66.6666666666667,4,2,1,85,0,1
229504,-83.3333333333333,4,2,1,85,0,1
229847,-66.6666666666667,4,2,1,85,0,1
230361,-100,4,2,1,85,0,1
230704,-66.6666666666667,4,2,1,85,0,1
231561,-58.8235294117647,4,2,1,85,0,1
232590,-100,4,2,1,85,0,1
233618,-76.9230769230769,4,2,1,85,0,1
234304,-100,4,2,1,85,0,1
236361,-200,4,1,1,55,0,0
246647,-142.857142857143,4,1,1,55,0,0
248018,-166.666666666667,4,1,1,55,0,0
252133,-142.857142857143,4,1,1,55,0,0
253504,-200,4,1,1,55,0,0
257618,-142.857142857143,4,1,1,55,0,0
258990,-166.666666666667,4,1,1,55,0,0
262333,-100,4,1,1,55,0,0
263104,-142.857142857143,4,1,1,85,0,0
265161,-58.8235294117647,4,1,1,75,0,1
265847,-125,4,1,1,75,0,0
267904,-300,4,1,1,75,0,0
269447,-125,4,1,1,75,0,0
270647,-222.222222222222,4,1,1,75,0,0
271333,-142.857142857143,4,1,1,75,0,0
273390,-300,4,1,1,75,0,0
274933,-100,4,1,1,75,0,0
276133,-58.8235294117647,4,1,1,75,0,1
276818,-111.111111111111,4,1,1,75,0,0
278533,-400,4,1,1,75,0,0
278876,-125,4,1,1,75,0,0
279561,-200,4,1,1,75,0,0
280761,-76.9230769230769,4,1,1,75,0,0
281618,-100,4,1,1,75,0,0
282304,-142.857142857143,4,1,1,75,0,0
284018,-400,4,1,1,75,0,0
284361,-125,4,1,1,75,0,0
285048,-142.857142857143,4,1,1,75,0,0
285648,-142.857142857143,4,1,1,5,0,0
286418,-166.666666666667,4,1,1,75,0,0
287104,-58.8235294117647,4,2,1,75,0,1
288304,-100,4,2,1,75,0,0
297390,-71.4285714285715,4,2,1,70,0,0
298076,-58.8235294117647,4,2,1,75,0,1
298761,-100,4,2,1,75,0,0
299790,-100,4,2,1,75,0,0
309047,-200,4,1,1,45,0,0
330990,-400,4,1,1,55,0,0
332361,-166.666666666667,4,2,1,5,0,0
332704,-400,4,2,1,15,0,0
343333,-166.666666666667,4,2,1,5,0,0
343676,-400,4,2,1,15,0,0
360133,-200,4,1,1,35,0,0
360390,-166.666666666667,4,2,1,5,0,0
360476,-142.857142857143,4,1,1,45,0,0
360733,-166.666666666667,4,2,1,5,0,0
360818,-111.111111111111,4,1,1,55,0,0
361076,-166.666666666667,4,2,1,5,0,0
361161,-58.8235294117647,4,2,1,85,0,1
362533,-66.6666666666667,4,2,1,85,0,1
365447,-100,4,2,1,85,0,1
366647,-58.8235294117647,4,2,1,85,0,1
368019,-66.6666666666667,4,2,1,85,0,1
370076,-100,4,2,1,85,0,1
371104,-66.6666666666667,4,2,1,85,0,1
372133,-58.8235294117647,4,2,1,85,0,1
374876,-66.6666666666667,4,2,1,85,0,1
376247,-100,4,2,1,85,0,1
377447,-66.6666666666667,4,2,1,85,0,1
381561,-100,4,2,1,85,0,0
383104,-58.8235294117647,4,2,1,85,0,1
384476,-66.6666666666667,4,2,1,85,0,1
388590,-58.8235294117647,4,2,1,85,0,1
389962,-66.6666666666667,4,2,1,85,0,1
390133,-100,4,2,1,85,0,1
390990,-66.6666666666667,4,2,1,85,0,1
391333,-58.8235294117647,4,2,1,85,0,1
392019,-100,4,2,1,85,0,1
394076,-58.8235294117647,4,2,1,85,0,1
396818,-66.6666666666667,4,2,1,85,0,1
398361,-100,4,2,1,85,0,1
398533,-66.6666666666667,4,2,1,85,0,1
399390,-58.8235294117647,4,2,1,85,0,1
402305,-58.8235294117647,4,2,1,85,0,1
403676,-100,4,2,1,85,0,1
405047,-200,4,1,1,55,0,0
414990,-285.714285714286,4,2,1,70,0,0
416018,-50,4,2,1,85,0,1
418762,-52.6315789473684,4,2,1,85,0,1
420818,-66.6666666666667,4,2,1,85,0,1
421504,-54.054054054054,4,2,1,85,0,1
423561,-66.6666666666667,4,2,1,85,0,1
424247,-55.5555555555556,4,2,1,85,0,1
424933,-66.6666666666667,4,2,1,85,0,1
425790,-100,4,2,1,85,0,1
426990,-50,4,2,1,85,0,1
429733,-55.5555555555556,4,2,1,85,0,1
430590,-66.6666666666667,4,2,1,85,0,1
430761,-55.5555555555556,4,2,1,85,0,1
432476,-51.2820512820513,4,2,1,85,0,1
433162,-100,4,2,1,85,0,1
435218,-52.6315789473684,4,2,1,85,0,1
435905,-100,4,2,1,85,0,1
437961,-76.9230769230769,4,2,1,65,0,0
438476,-100,4,2,1,65,0,0
438990,-76.923076923077,4,2,1,65,0,0
440876,-100,4,2,1,65,0,0
441733,-76.923076923077,4,2,1,65,0,0
442761,-100,4,2,1,65,0,0
445847,-76.923076923077,4,2,1,65,0,0
449276,-100,4,2,1,65,0,0
450647,-76.9230769230769,4,2,1,65,0,0
450990,-100,4,2,1,65,0,0
452704,-76.9230769230769,4,2,1,65,0,0
453733,-100,4,2,1,65,0,0
459904,-200,4,1,1,40,0,0
461962,-200,4,1,1,30,0,0
465304,-166.666666666667,4,1,1,5,0,0
465390,-200,4,1,1,15,0,0
466161,-200,4,1,1,10,0,0
466933,-200,4,1,1,10,0,0
479018,-100,4,1,99,5,0,0

[Colours]
Combo1 : 255,17,232
Combo2 : 0,255,242
Combo3 : 157,111,255
Combo4 : 0,255,179

[HitObjects]
256,192,1161,12,0,6990,2:0:0:0:
268,48,7333,6,0,L|304:108,1,62.9999980773926
384,108,7847,2,0,L|352:164,1,62.9999980773926
436,168,8361,2,0,L|472:228,1,62.9999980773926
400,256,8876,2,0,L|348:344,1,94.499997116089
351,337,9733,1,0,0:0:0:0:
212,342,10076,6,0,L|200:298,1,31.4999990386963
65,295,10590,1,0,0:0:0:0:
56,264,10761,1,0,0:0:0:0:
180,212,11104,2,0,L|172:180,1,31.4999990386963
16,148,11618,1,0,0:0:0:0:
7,117,11790,1,0,0:0:0:0:
148,84,12133,2,0,L|140:52,1,31.4999990386963
297,57,12476,1,0,0:0:0:0:
297,57,12818,6,0,L|304:87,1,31.4999990386963
354,253,13333,1,0,0:0:0:0:
347,223,13504,1,0,0:0:0:0:
220,224,13847,2,0,L|212:254,1,31.4999990386963
84,252,14361,1,0,0:0:0:0:
76,222,14533,1,0,0:0:0:0:
204,320,14876,2,0,L|211:350,1,31.4999990386963
356,356,15218,1,0,0:0:0:0:
356,356,15561,6,0,L|363:326,1,31.4999990386963
412,136,16076,1,0,0:0:0:0:
420,106,16247,1,0,0:0:0:0:
272,96,16590,2,0,L|264:126,1,31.4999990386963
224,244,17104,1,0,0:0:0:0:
216,274,17276,1,0,0:0:0:0:
320,348,17618,2,0,P|356:356|388:349,1,62.9999980773926
420,232,18133,1,0,0:0:0:0:
420,232,18304,22,0,P|388:224|355:232,1,62.9999980773926
300,276,18818,2,0,L|264:336,1,62.9999980773926
204,296,19333,2,0,L|168:356,1,62.9999980773926
92,360,19847,2,0,P|48:324|36:280,1,94.499997116089
36,116,20704,1,0,0:0:0:0:
210,183,21047,6,0,B|226:247,1,62.9999980773926
139,315,21561,1,0,0:0:0:0:
146,345,21733,1,0,0:0:0:0:
24,276,22076,1,0,0:0:0:0:
15,245,22247,1,0,0:0:0:0:
114,183,22590,2,0,B|90:83,1,94.499997116089
292,88,23447,1,0,0:0:0:0:
292,88,23790,6,0,L|298:118,1,31.4999990386963
200,224,24304,1,0,0:0:0:0:
206,254,24476,1,0,0:0:0:0:
308,360,24818,2,0,L|346:354,1,31.4999990386963
400,228,25333,1,0,0:0:0:0:
429,219,25504,1,0,0:0:0:0:
484,86,25847,2,0,L|468:48,1,31.4999990386963
344,112,26190,1,0,0:0:0:0:
344,112,26533,6,0,B|304:128,1,31.4999990386963
194,165,27047,1,0,0:0:0:0:
164,176,27218,1,0,0:0:0:0:
29,225,27561,2,0,B|18:195,1,31.4999990386963
49,58,28076,1,0,0:0:0:0:
79,47,28247,1,0,0:0:0:0:
214,0,28590,2,0,B|228:38,1,31.4999990386963
32,232,29276,6,0,B|80:224|112:268,1,90
168,360,29790,1,0,0:0:0:0:
228,264,29961,2,0,B|264:232|264:232|312:232,1,90,4|0,3:0|0:0,0:0:0:0:
412,228,30476,2,0,L|412:172,1,45
412,72,30818,1,0,0:0:0:0:
412,72,30989,1,0,0:0:0:0:
280,256,31333,2,0,P|236:268|180:248,1,90,4|0,3:0|0:0,0:0:0:0:
236,144,31847,1,0,0:0:0:0:
280,32,32018,6,0,P|227:20|184:32,1,90
152,148,32533,1,0,0:0:0:0:
40,112,32704,2,0,P|16:156|16:212,1,90,4|0,3:0|0:0,0:0:0:0:
72,284,33218,2,0,L|120:296,1,45
216,252,33561,1,0,0:0:0:0:
216,252,33733,1,0,0:0:0:0:
436,172,34076,2,0,B|480:172,2,45,4|0|0,3:0|0:0|0:0,0:0:0:0:
340,172,34590,1,0,0:0:0:0:
304,76,34761,6,0,P|260:100|240:152,1,90
264,256,35276,1,0,0:3:0:0:
144,248,35447,2,0,P|103:226|83:185,1,90,4|0,3:3|0:3,0:3:0:0:
120,88,35961,2,0,L|176:88,1,45
288,92,36304,1,0,0:0:0:0:
288,92,36476,1,0,0:0:0:0:
224,308,36818,2,0,L|225:360,2,45,4|0|0,3:0|0:0|0:0,0:0:0:0:
116,260,37333,1,0,0:0:0:0:
180,160,37504,6,0,P|228:148|268:160,1,90
368,296,38018,1,0,0:0:0:0:
364,121,38190,2,0,P|378:71|420:40,1,90,4|0,3:0|0:0,0:0:0:0:
460,128,38704,2,0,L|460:184,1,45
464,292,39047,1,0,0:0:0:0:
464,292,39218,1,0,0:0:0:0:
240,324,39561,6,0,P|204:292|192:252,1,90,4|0,3:0|0:0,0:0:0:0:
316,224,40076,1,0,0:0:0:0:
272,112,40247,2,0,P|316:100|372:120,1,90
316,224,40761,1,0,0:0:0:0:
360,332,40933,6,0,B|313:347|313:347|265:329,1,90,4|0,3:0|0:0,0:0:0:0:
168,296,41447,2,0,L|168:248,1,45
172,140,41790,1,0,0:0:0:0:
172,140,41961,1,0,0:0:0:0:
388,80,42304,2,0,L|448:80,2,45,4|0|0,3:0|0:0|0:0,0:0:0:0:
304,156,42818,1,0,0:0:0:0:
220,78,42990,6,0,P|173:62|127:79,1,90
60,168,43504,1,0,0:0:0:0:
128,260,43676,2,0,P|175:276|221:259,1,90,4|0,3:0|0:0,0:0:0:0:
308,208,44190,2,0,L|308:268,1,45
312,368,44533,1,0,0:0:0:0:
312,368,44704,1,0,0:0:0:0:
468,200,45047,2,0,L|468:155,2,45,4|0|0,3:0|0:0|0:0,0:0:0:0:
396,280,45561,1,0,0:0:0:0:
312,212,45733,6,0,P|283:178|278:121,1,90
380,72,46247,1,0,0:0:0:0:
264,39,46418,2,0,P|216:29|172:46,1,90,4|0,3:0|0:0,0:0:0:0:
213,163,46933,2,0,B|265:163,1,45
381,161,47276,1,0,0:0:0:0:
381,161,47447,1,0,0:0:0:0:
112,164,47790,2,0,L|68:164,2,45,4|0|0,3:0|0:0|0:0,0:0:0:0:
213,163,48304,1,0,0:0:0:0:
176,272,48476,6,0,P|216:284|264:268,1,90
368,204,48990,1,0,0:0:0:0:
332,92,49161,2,0,P|304:56|264:37,1,90,4|0,3:0|0:0,0:0:0:0:
148,40,49676,2,0,L|156:103,1,45
176,205,50018,1,0,0:0:0:0:
176,205,50190,1,0,0:0:0:0:
388,200,50533,1,4,3:0:0:0:
384,64,50704,1,0,0:0:0:0:
280,136,50876,1,0,0:0:0:0:
388,200,51047,1,0,0:0:0:0:
296,304,51218,6,0,P|260:336|204:340,1,90
104,344,51733,1,0,0:0:0:0:
114,228,51904,2,0,P|134:180|166:156,1,90,4|0,3:0|0:0,0:0:0:0:
276,158,52418,1,0,0:0:0:0:
225,52,52590,5,0,0:0:0:0:
164,158,52761,1,0,0:0:0:0:
276,158,52933,1,0,0:0:0:0:
225,260,53104,1,0,0:0:0:0:
357,287,53276,5,4,3:0:0:0:
276,158,53447,1,0,0:0:0:0:
385,158,53618,1,0,0:0:0:0:
336,52,53790,1,0,0:0:0:0:
225,52,53961,6,0,L|141:92,1,90
64,172,54476,1,0,0:0:0:0:
132,264,54647,2,0,L|214:303,1,90,4|0,3:0|0:0,0:0:0:0:
279,237,55161,1,0,0:0:0:0:
194,172,55333,5,0,0:0:0:0:
132,264,55504,1,0,0:0:0:0:
224,325,55676,1,0,0:0:0:0:
279,237,55847,1,0,0:0:0:0:
376,132,56018,5,4,3:0:0:0:
425,264,56189,1,0,0:0:0:0:
333,325,56361,1,0,0:0:0:0:
279,237,56532,1,0,0:0:0:0:
364,172,56704,6,0,P|380:124|372:84,1,90
264,20,57218,1,0,0:0:0:0:
160,80,57390,2,0,P|153:124|168:165,1,90,4|0,3:0|0:0,0:0:0:0:
269,196,57904,1,0,0:0:0:0:
173,219,58076,1,0,0:0:0:0:
204,315,58247,1,0,0:0:0:0:
303,291,58418,1,0,0:0:0:0:
269,196,58590,1,0,0:0:0:0:
269,74,58761,5,4,3:0:0:0:
388,132,58932,1,0,0:0:0:0:
365,231,59103,1,0,0:0:0:0:
269,196,59275,1,0,0:0:0:0:
156,152,59447,6,0,B|156:200|156:200|188:240,1,90
268,304,59961,1,0,0:0:0:0:
365,231,60133,2,0,B|392:196|392:196|392:148,1,90,4|0,3:0|0:0,0:0:0:0:
269,196,60647,1,0,0:0:0:0:
196,136,60818,1,0,0:0:0:0:
128,200,60990,1,0,0:0:0:0:
56,136,61161,1,0,0:0:0:0:
128,200,61333,5,0,0:0:0:0:
32,264,61504,2,0,B|61:280|61:280|92:264|92:264|128:284|164:264|164:264|193:280|193:280|218:266|257:275|257:275|216:216|239:164,1,360,4|0,3:0|0:0,0:0:0:0:
256,192,63047,12,0,67333,0:0:0:0:
280,304,67676,5,0,1:0:0:0:
324,302,67761,1,0,0:0:0:0:
363,280,67847,1,0,0:0:0:0:
388,243,67933,1,0,0:0:0:0:
400,204,68018,2,0,P|376:196|352:204,1,45
216,148,68190,2,0,P|240:156|260:148,1,45,0|0,1:0|0:0,0:0:0:0:
344,68,68361,2,0,B|312:36|312:36|264:36,1,90,8|0,1:0|0:0,0:0:0:0:
124,36,68704,1,0,0:0:0:0:
216,148,68876,1,0,1:0:0:0:
85,201,69047,5,0,1:0:0:0:
85,244,69133,1,0,0:0:0:0:
106,283,69218,1,0,0:0:0:0:
141,311,69304,1,0,0:0:0:0:
184,324,69390,2,0,P|208:328|244:308,1,45
324,176,69561,2,0,P|308:196|304:220,1,45,0|0,1:0|0:0,0:0:0:0:
312,352,69733,2,0,P|344:328|360:280,1,90,8|0,1:0|0:0,0:0:0:0:
188,212,70076,1,0,1:0:0:0:
324,176,70247,2,0,P|328:152|324:132,1,45
264,40,70418,5,0,1:0:0:0:
298,12,70504,1,0,0:0:0:0:
340,0,70590,1,0,0:0:0:0:
385,14,70676,1,0,0:0:0:0:
424,40,70761,2,0,P|432:64|432:88,1,45
324,220,70933,2,0,P|320:195|324:175,1,45,0|0,1:0|0:0,0:0:0:0:
396,312,71104,2,0,B|328:360|264:316,1,135,8|0,1:0|0:3,0:3:0:0:
176,272,71447,2,0,P|156:276|128:272,1,45
72,176,71618,2,0,P|68:152|72:132,1,45,0|0,1:0|0:0,0:0:0:0:
194,105,71790,5,0,1:0:0:0:
238,93,71875,1,0,0:0:0:0:
282,104,71961,1,0,0:0:0:0:
315,134,72047,1,0,0:0:0:0:
330,176,72132,1,0,0:0:0:0:
324,220,72218,1,0,0:0:0:0:
327,267,72304,1,0,1:0:0:0:
353,303,72389,1,0,0:0:0:0:
396,312,72476,6,0,P|419:312|451:296,1,45,8|0,1:0|0:0,0:0:0:0:
235,195,72647,2,0,P|231:235|243:267,1,45
405,159,72818,1,0,1:0:0:0:
422,117,72904,1,0,0:0:0:0:
416,74,72990,1,0,0:0:0:0:
388,39,73076,1,0,0:0:0:0:
347,26,73161,6,0,B|297:47|297:47|250:39|250:39|281:63|281:107,1,175.499991966248,0|0,1:0|0:0,0:0:0:0:
184,112,73504,1,0,0:0:0:0:
108,284,73676,1,0,1:0:0:0:
36,108,73847,2,0,B|96:80|96:80|152:112,1,116.999994644165,8|0,1:0|0:0,0:0:0:0:
216,264,74190,1,0,0:0:0:0:
252,274,74275,1,0,0:0:0:0:
288,260,74361,1,0,1:0:0:0:
309,228,74447,1,0,0:0:0:0:
312,188,74533,6,0,P|324:128|400:180,1,175.499991966248,0|0,1:3|0:3,0:3:0:0:
408,260,74876,1,0,0:0:0:0:
408,260,74961,1,0,0:0:0:0:
408,260,75047,2,0,P|388:284|364:292,1,45,0|0,1:0|0:0,0:0:0:0:
176,352,75218,1,8,1:0:0:0:
164,196,75390,2,0,P|164:168|176:144,1,45
336,112,75561,2,0,P|356:132|364:164,1,45
288,260,75733,2,0,L|272:212,1,45
211,84,75904,5,0,1:0:0:0:
184,47,75990,1,0,0:0:0:0:
145,42,76076,1,0,0:0:0:0:
116,76,76161,1,0,0:0:0:0:
117,120,76247,1,0,0:0:0:0:
141,158,76333,1,0,0:0:0:0:
164,196,76418,1,0,1:0:0:0:
151,238,76504,1,0,0:0:0:0:
120,268,76590,2,0,P|128:328|172:348,1,90,8|0,1:0|0:0,0:0:0:0:
352,336,76933,1,0,0:0:0:0:
273,217,77104,1,0,1:0:0:0:
416,164,77276,6,0,P|404:112|368:88,1,90,0|0,1:0|0:0,0:0:0:0:
164,80,77618,1,0,0:0:0:0:
156,84,77704,1,0,0:0:0:0:
148,88,77790,2,0,P|125:104|114:127,1,45,0|0,1:0|0:0,0:0:0:0:
136,308,77961,6,0,B|184:332|184:332|164:260|216:220,1,175.499991966248,8|0,1:0|0:0,0:0:0:0:
267,295,78304,2,0,B|323:323|323:323|387:291,1,116.999994644165,0|0,1:0|0:0,0:0:0:0:
388,84,78647,6,0,P|343:56|300:120,1,135.000005149842,0|0,1:0|0:0,0:0:0:0:
304,196,78904,1,0,0:0:0:0:
308,228,78990,2,0,B|321:270|308:316|308:316|268:296,1,135.000005149842,0|0,0:0|1:0,0:0:0:0:
132,92,79333,2,0,P|87:64|44:128,1,135.000005149842,8|0,1:0|0:0,0:0:0:0:
40,208,79590,1,0,0:0:0:0:
36,240,79676,2,0,B|22:282|36:328|36:328|76:308,1,135.000005149842,0|0,0:0|1:0,0:0:0:0:
209,92,80018,5,0,1:0:0:0:
245,63,80104,1,0,0:0:0:0:
290,71,80190,1,0,0:0:0:0:
319,103,80276,1,0,0:0:0:0:
327,146,80361,1,0,0:0:0:0:
337,191,80447,1,0,0:0:0:0:
367,222,80533,1,0,1:0:0:0:
416,224,80618,1,0,0:0:0:0:
464,208,80704,6,0,L|476:160,1,45,8|0,1:0|0:0,0:0:0:0:
264,224,80876,2,0,L|252:276,1,45
384,320,81047,2,0,L|440:300,1,45,0|0,1:0|0:0,0:0:0:0:
360,120,81218,2,0,L|319:103,1,45
140,60,81390,6,0,B|114:74|69:57|69:57|56:84|64:116,1,116.999994644165,0|0,1:0|0:0,0:0:0:0:
96,248,81733,1,0,0:0:0:0:
96,248,81818,1,0,0:0:0:0:
96,248,81904,1,0,1:0:0:0:
271,103,82076,2,0,L|271:155,1,45,8|0,1:0|0:0,0:0:0:0:
304,300,82247,2,0,L|247:267,1,45
376,140,82418,2,0,L|400:100,1,45
496,264,82590,2,0,L|452:300,1,45,0|0,1:0|0:0,0:0:0:0:
371,231,82761,5,0,1:0:0:0:
327,220,82847,1,0,0:0:0:0:
293,192,82933,1,0,0:0:0:0:
276,151,83018,1,0,0:0:0:0:
271,103,83104,2,0,L|296:64,1,45
371,231,83276,1,0,1:0:0:0:
197,335,83447,2,0,B|135:346|116:296|116:296|124:268|124:268|112:236|124:208,1,188.999994232178,8|0,1:0|0:0,0:0:0:0:
202,236,83790,2,0,B|216:224|244:228|244:228|268:188|268:188|288:196|324:188,1,121.499996292114,0|0,1:0|0:0,0:0:0:0:
368,144,84133,6,0,P|404:116|440:180,1,135.000005149842,0|0,1:0|0:0,0:0:0:0:
416,248,84390,1,0,0:0:0:0:
404,276,84476,2,0,B|385:311|385:311|324:312|324:312|300:272,1,135.000005149842,0|0,0:0|1:0,0:0:0:0:
212,160,84818,2,0,P|173:118|128:167,1,135.000005149842,8|0,1:0|0:0,0:0:0:0:
124,248,85076,1,0,0:0:0:0:
134,276,85161,2,0,B|156:312|156:312|212:312|212:312|228:276,1,135.000005149842,0|0,0:0|1:0,0:0:0:0:
256,64,85504,5,0,1:0:0:0:
290,35,85590,1,0,0:0:0:0:
334,30,85676,1,0,0:0:0:0:
375,48,85761,1,0,0:0:0:0:
400,84,85847,1,0,0:0:0:0:
402,129,85933,1,0,0:0:0:0:
380,168,86018,1,0,1:0:0:0:
341,189,86104,1,0,0:0:0:0:
296,192,86190,2,0,B|247:207|231:253|231:253|264:284,1,135,8|0,1:0|0:0,0:0:0:0:
344,328,86533,2,0,L|392:328,1,45,0|0,1:0|0:0,0:0:0:0:
492,256,86704,2,0,L|492:208,1,45
400,84,86876,6,0,P|364:48|284:76,1,135.000005149842,0|0,1:0|0:0,0:0:0:0:
224,156,87133,1,0,0:0:0:0:
220,184,87218,2,0,P|228:248|288:296,1,135.000005149842,0|0,0:0|1:0,0:0:0:0:
398,206,87561,1,8,1:0:0:0:
432,200,87647,6,0,B|460:188|504:200|504:200|456:232|464:308,1,180
372,296,88076,6,0,L|328:296,1,45,0|0,1:0|0:0,0:0:0:0:
220,184,88247,1,0,1:0:0:0:
221,138,88333,1,0,0:0:0:0:
242,99,88418,1,0,0:0:0:0:
280,74,88504,1,0,0:0:0:0:
325,70,88590,1,0,0:0:0:0:
366,85,88676,1,0,0:0:0:0:
396,117,88761,1,0,1:0:0:0:
409,160,88847,1,0,0:0:0:0:
398,206,88933,6,0,B|380:236|380:236|352:252|352:252|331:280,1,94.499997116089,8|0,1:0|0:0,0:0:0:0:
364,344,89276,2,0,P|308:348|268:316,1,94.499997116089,0|0,1:0|0:0,0:0:0:0:
256,256,89618,6,0,P|264:196|228:152,1,107.999996704102,0|0,1:0|0:0,0:0:0:0:
136,84,90133,1,0,1:0:0:0:
264,191,90304,2,0,P|316:204|365:188,1,107.999996704102,8|0,1:0|0:0,0:0:0:0:
465,82,90818,1,0,0:0:0:0:
204,160,91161,5,0,0:0:0:0:
204,160,91247,1,0,0:0:0:0:
204,160,91333,2,0,P|178:179|160:212,1,53.9999983520508
164,320,91676,1,8,1:0:0:0:
256,236,91847,1,0,0:0:0:0:
348,320,92018,1,0,0:0:0:0:
256,236,92190,1,0,0:0:0:0:
380,236,92361,6,0,P|406:217|424:184,1,53.9999983520508,0|0,1:0|0:0,0:0:0:0:
423,185,92618,1,0,0:0:0:0:
425,171,92704,1,0,0:0:0:0:
388,48,92876,1,0,0:0:0:0:
264,48,93047,2,0,P|212:60|176:104,1,107.999996704102,8|0,1:0|0:0,0:0:0:0:
176,224,93561,1,0,0:0:0:0:
425,171,93904,5,0,0:0:0:0:
367,283,94076,2,0,P|345:310|312:317,1,53.9999983520508
191,273,94418,2,0,P|174:235|185:202,1,53.9999983520508
304,144,94761,1,0,2:0:0:0:
304,144,94847,1,0,2:0:0:0:
304,144,94933,1,0,2:0:0:0:
304,144,95018,1,0,2:0:0:0:
304,144,95104,6,0,P|312:188|283:244,1,107.999996704102
188,324,95618,1,0,0:0:0:0:
112,228,95790,2,0,P|84:206|76:182,1,53.9999983520508,8|0,1:0|0:0,0:0:0:0:
188,132,96133,1,0,0:0:0:0:
268,228,96304,6,0,P|296:206|316:132,1,107.999996704102,0|0,1:0|0:0,0:0:0:0:
380,60,96733,1,0,0:0:0:0:
408,60,96818,2,0,P|440:64|464:85,1,53.9999983520508
472,192,97161,2,0,P|477:228|473:248,1,53.9999983520508,8|0,1:0|0:0,0:0:0:0:
348,244,97504,2,0,P|324:277|307:288,1,53.9999983520508
188,284,97847,6,0,P|141:272|110:218,1,107.999996704102
108,200,98276,1,0,0:0:0:0:
108,176,98361,1,0,0:0:0:0:
108,52,98533,2,0,P|120:28|143:11,1,53.9999983520508,8|0,0:0|0:0,0:0:0:0:
236,96,98876,1,0,0:0:0:0:
236,220,99047,6,0,P|261:261|324:280,1,107.999996704102
416,280,99476,1,0,0:0:0:0:
436,268,99561,2,0,P|456:256|473:224,1,53.9999983520508
472,104,99904,1,8,1:0:0:0:
348,104,100076,1,0,0:0:0:0:
312,224,100247,2,0,P|292:249|264:259,1,53.9999983520508
184,252,100504,1,0,0:0:0:0:
161,252,100590,6,0,P|108:223|87:174,1,107.999996704102
204,136,101104,1,0,0:0:0:0:
204,136,101190,1,0,0:0:0:0:
204,136,101276,2,0,P|244:108|257:45,1,107.999996704102,8|0,1:0|0:0,0:0:0:0:
132,56,101790,1,0,0:0:0:0:
392,60,102133,5,0,0:0:0:0:
392,60,102218,1,0,0:0:0:0:
392,60,102304,2,0,P|376:80|345:92,1,53.9999983520508
224,144,102647,2,0,P|248:152|272:174,1,53.9999983520508,8|0,1:0|0:0,0:0:0:0:
268,296,102990,1,0,0:0:0:0:
368,360,103161,1,0,0:0:0:0:
476,296,103333,6,0,P|492:270|492:237,1,53.9999983520508
488,229,103590,1,0,0:0:0:0:
482,213,103676,1,0,0:0:0:0:
368,164,103847,1,0,0:0:0:0:
420,52,104018,2,0,P|368:36|312:52,1,107.999996704102,8|0,1:0|0:0,0:0:0:0:
368,164,104533,1,0,0:0:0:0:
116,168,104876,5,0,0:0:0:0:
116,292,105047,2,0,P|118:317|139:344,1,53.9999983520508
260,340,105390,2,0,P|275:318|278:291,1,53.9999983520508,8|0,1:0|0:0,0:0:0:0:
264,184,105733,1,0,0:0:0:0:
252,159,105818,1,0,0:0:0:0:
247,133,105904,1,0,0:0:0:0:
249,106,105990,1,0,0:0:0:0:
260,80,106076,6,0,P|308:56|380:80,1,107.999996704102
456,144,106590,1,0,0:0:0:0:
456,144,106676,1,0,0:0:0:0:
456,144,106761,2,0,P|468:192|460:256,1,107.999996704102,8|0,1:0|0:0,0:0:0:0:
396,324,107276,1,0,0:0:0:0:
144,236,107618,5,0,0:0:0:0:
140,232,107704,1,0,0:0:0:0:
136,228,107790,2,0,P|132:204|136:172,1,53.9999983520508
196,64,108133,2,0,P|204:92|196:128,1,53.9999983520508,8|0,1:0|0:0,0:0:0:0:
256,180,108476,2,0,P|254:206|268:244,1,53.9999983520508
328,340,108818,6,0,P|380:360|428:340,1,107.999996704102
496,240,109333,1,0,0:0:0:0:
496,116,109504,2,0,P|476:60|426:31,1,107.999996704102,8|0,1:0|0:0,0:0:0:0:
312,36,110018,1,0,0:0:0:0:
88,148,110361,5,0,0:0:0:0:
212,148,110533,2,0,P|240:172|248:200,1,53.9999983520508
151,269,110876,2,0,P|215:333|287:325,1,161.999995056153,8|0,1:0|0:0,0:0:0:0:
296,224,111561,6,0,B|340:223|370:194|390:162|381:117|341:66|284:77|241:108|245:159|245:159|223:161|223:161|218:178|218:178|199:183|199:183|197:197|197:197|177:203|177:203|176:217|176:217|178:257|178:257|149:271,1,480
92,216,114647,6,0,P|84:241|92:280,1,67.5
172,243,114990,6,0,B|126:207|126:207|91:216,1,94.499997116089
108,304,115333,6,0,P|176:332|216:320,1,108
382,239,115676,6,0,B|426:219|486:243|486:243|502:199,1,153.000002918243,0|0,1:0|0:0,0:0:0:0:
512,101,115933,1,0,0:0:0:0:
501,67,116018,2,0,B|485:23|485:23|428:48|428:48|380:48,1,153.000002918243,8|0,1:0|0:0,0:0:0:0:
144,48,116361,2,0,B|100:48|100:48|43:23|43:23|27:67,1,153.000002918243,0|0,0:0|1:0,0:0:0:0:
20,168,116618,1,0,0:0:0:0:
22,204,116704,2,0,B|33:249|33:249|80:218|151:237,1,153.000002918243,8|0,1:0|0:0,0:0:0:0:
364,308,117047,5,0,0:0:0:0:
404,313,117133,1,0,0:0:0:0:
447,299,117218,1,0,1:0:0:0:
474,261,117304,1,0,0:0:0:0:
472,216,117390,1,8,1:0:0:0:
454,176,117476,1,0,0:0:0:0:
415,154,117561,1,0,0:0:0:0:
367,154,117647,1,0,0:0:0:0:
323,164,117733,5,0,0:0:0:0:
318,212,117818,1,0,0:0:0:0:
291,248,117904,1,0,1:0:0:0:
251,267,117990,1,0,0:0:0:0:
204,266,118076,1,8,1:0:0:0:
166,241,118161,1,0,0:0:0:0:
143,200,118247,1,0,0:0:0:0:
144,153,118333,1,0,0:0:0:0:
163,109,118418,6,0,B|207:51|207:51|279:51,1,135.000005149842,0|0,1:0|0:0,0:0:0:0:
371,51,118676,1,0,0:0:0:0:
403,63,118761,2,0,B|448:114|448:114|446:187,1,135.000005149842,8|0,1:0|0:0,0:0:0:0:
348,352,119104,1,0,0:0:0:0:
256,120,119276,1,0,1:0:0:0:
40,208,119447,2,0,B|20:252|40:300|40:300|76:316,1,135.000005149842,8|0,1:0|0:0,0:0:0:0:
179,151,119790,6,0,B|243:127|243:127|307:155,1,135.000005149842,0|0,1:0|0:0,0:0:0:0:
436,316,120133,2,0,B|472:300|472:300|492:252|472:208,1,135.000005149842,8|0,1:0|0:0,0:0:0:0:
332,152,120476,2,0,L|349:203,1,45,0|0,1:0|0:0,0:0:0:0:
296,356,120647,2,0,L|279:305,1,45,0|0,1:0|0:0,0:0:0:0:
179,151,120818,2,0,L|193:193,1,45,8|0,1:0|0:0,0:0:0:0:
150,359,120990,2,0,L|133:308,1,45,0|0,1:0|0:0,0:0:0:0:
80,128,121161,6,0,B|112:104|116:76|116:76|152:68|152:68|166:39|196:24,1,153.000002918243,0|0,1:0|0:0,0:0:0:0:
295,23,121418,1,0,0:0:0:0:
340,23,121504,2,0,B|392:35|444:23|444:23|400:67,1,153.000002918243,8|0,1:0|0:0,0:0:0:0:
168,216,121847,2,0,B|172:248|200:270|200:270|193:306|193:306|200:332|221:351,1,153.000002918243,0|0,1:0|0:0,0:0:0:0:
320,352,122104,1,0,0:0:0:0:
364,352,122190,2,0,B|416:336|464:356|464:356|424:304,1,153.000002918243,8|0,1:0|0:0,0:0:0:0:
484,172,122533,5,0,1:0:0:0:
493,125,122618,1,0,0:0:0:0:
480,82,122704,1,0,1:0:0:0:
443,52,122790,1,0,0:0:0:0:
400,48,122876,1,8,1:0:0:0:
357,67,122961,1,0,0:0:0:0:
334,108,123047,1,0,0:0:0:0:
331,152,123133,1,0,0:0:0:0:
348,196,123218,5,0,0:0:0:0:
391,201,123304,1,0,0:0:0:0:
428,230,123390,1,0,1:0:0:0:
440,273,123476,1,0,0:0:0:0:
429,318,123561,1,8,1:0:0:0:
393,348,123647,1,0,0:0:0:0:
347,355,123733,1,0,0:0:0:0:
306,334,123818,1,0,0:0:0:0:
276,296,123904,6,0,B|204:296|204:296|152:252,1,135.000005149842,0|0,1:0|0:0,0:0:0:0:
156,152,124161,1,0,0:0:0:0:
180,128,124247,2,0,B|208:120|228:80|228:80|248:112|284:132,1,135.000005149842,8|0,1:0|0:0,0:0:0:0:
359,275,124590,1,0,1:0:0:0:
112,316,124761,1,0,1:0:0:0:
147,60,124933,2,0,B|199:12|199:12|267:12,1,135.000005149842,8|0,1:0|0:0,0:0:0:0:
460,152,125276,5,0,1:0:0:0:
232,192,125447,1,0,1:0:0:0:
356,12,125618,1,8,1:0:0:0:
359,275,125790,1,0,1:0:0:0:
252,120,125961,2,0,P|220:116|200:124,1,45,0|0,3:0|3:0,3:0:0:0:
88,320,126133,2,0,P|120:324|140:316,1,45,0|0,3:0|3:0,3:0:0:0:
92,124,126304,2,0,P|124:120|144:128,1,45,0|0,3:0|3:0,3:0:0:0:
252,324,126476,2,0,P|220:328|200:320,1,45,0|0,3:0|3:0,3:0:0:0:
252,120,126647,6,0,B|287:115|308:84|308:84|364:82|396:118,1,153.000002918243,0|0,3:0|0:0,3:0:0:0:
412,208,126904,1,0,0:0:0:0:
420,248,126990,2,0,B|430:292|417:329|417:329|372:320|328:352,1,153.000002918243,8|0,1:0|0:0,0:0:0:0:
156,140,127333,6,0,B|120:147|91:125|91:125|37:140|18:185,1,153.000002918243,0|0,0:0|3:0,3:0:0:0:
56,296,127590,1,0,0:0:0:0:
76,332,127676,2,0,B|100:370|135:387|135:387|168:360|216:368,1,153.000002918243,8|0,1:0|0:0,0:0:0:0:
193,222,128018,5,0,0:0:0:0:
166,185,128103,1,0,0:0:0:0:
156,140,128189,1,0,1:0:0:0:
166,96,128275,1,0,0:0:0:0:
192,60,128360,1,8,1:0:0:0:
234,39,128446,1,0,0:0:0:0:
279,36,128532,1,0,0:0:0:0:
322,52,128618,1,0,0:0:0:0:
352,88,128704,1,0,0:0:0:0:
319,123,128789,1,0,0:0:0:0:
310,171,128875,1,0,1:0:0:0:
330,215,128961,1,0,0:0:0:0:
370,242,129047,1,8,1:0:0:0:
419,243,129132,1,0,0:0:0:0:
459,216,129218,1,0,0:0:0:0:
479,172,129304,1,0,0:0:0:0:
472,124,129390,6,0,B|472:44|472:44|432:0,1,135.000005149842,0|0,1:0|0:0,0:0:0:0:
322,52,129647,1,0,0:0:0:0:
278,48,129733,2,0,B|219:48|219:48|165:102,1,135.000005149842,8|0,1:0|0:0,0:0:0:0:
148,312,130076,2,0,B|190:378|266:366,1,135.000005149842,0|0,0:0|1:0,0:0:0:0:
460,320,130418,2,0,B|523:271|507:201,1,135.000005149842,8|0,1:0|0:0,0:0:0:0:
269,137,130761,6,0,P|236:195|204:135,1,161.999995056153,0|0,1:0|0:0,0:0:0:0:
172,52,131104,2,0,P|244:36|303:53,1,135.000005149842,8|0,1:0|0:0,0:0:0:0:
344,256,131447,2,0,L|284:268,1,45,0|0,1:0|0:0,0:0:0:0:
96,304,131618,2,0,L|108:248,1,45,0|0,1:0|0:0,0:0:0:0:
172,52,131790,2,0,L|212:96,1,45,8|0,1:0|0:0,0:0:0:0:
344,256,131961,2,0,B|352:308|308:344|308:344|252:328,1,135,0|0,1:0|0:0,1:0:0:0:
235,325,132304,5,0,1:0:0:0:
296,96,132476,1,8,1:0:0:0:
92,136,132647,1,0,0:0:0:0:
96,350,132818,6,0,B|136:362|180:314|180:314|236:326,1,153.000002918243,0|0,1:0|0:0,0:0:0:0:
352,320,133076,1,0,0:0:0:0:
392,300,133161,2,0,B|444:284|450:219|450:219|496:188,1,153.000002918243,8|0,1:0|0:0,0:0:0:0:
440,60,133504,5,0,0:0:0:0:
433,100,133590,1,0,0:0:0:0:
407,131,133676,1,0,1:0:0:0:
370,146,133761,1,0,0:0:0:0:
330,154,133847,2,0,P|296:160|272:154,1,45,8|0,1:0|0:0,0:0:0:0:
110,150,134018,2,0,P|108:184|120:208,1,45
228,324,134190,1,0,0:0:0:0:
276,80,134361,1,0,1:0:0:0:
3,283,134533,1,8,1:0:0:0:
47,52,134704,1,0,0:0:0:0:
204,239,134876,6,0,B|264:256|264:256|288:236|327:231,1,116.999994644165,0|0,1:0|0:0,0:0:0:0:
400,188,135133,1,0,0:0:0:0:
420,156,135218,2,0,B|440:96|440:96|416:68|412:35,1,116.999994644165,8|0,1:0|0:0,0:0:0:0:
194,0,135561,5,0,1:0:0:0:
60,235,135733,1,0,1:0:0:0:
314,124,135904,1,8,1:0:0:0:
41,73,136076,1,0,1:0:0:0:
240,260,136247,5,0,0:0:0:0:
251,269,136333,1,0,0:0:0:0:
259,281,136418,1,0,0:0:0:0:
266,297,136504,1,0,0:0:0:0:
269,314,136590,1,8,1:0:0:0:
267,330,136676,1,0,0:0:0:0:
262,344,136761,1,0,0:0:0:0:
252,357,136847,1,0,0:0:0:0:
239,366,136933,5,0,3:0:0:0:
195,360,137018,1,0,3:0:0:0:
157,338,137104,1,0,3:0:0:0:
134,301,137190,1,0,3:0:0:0:
129,257,137276,1,0,3:0:0:0:
145,218,137361,1,0,3:0:0:0:
177,188,137447,1,0,3:0:0:0:
220,176,137533,1,0,3:0:0:0:
266,179,137618,6,0,B|364:200|304:284|395:305,1,180,0|8,3:0|1:0,0:0:0:0:
383,301,138647,1,0,0:0:0:0:
468,244,138818,2,0,P|385:202|304:248,1,180
184,236,139676,2,0,P|132:216|120:168,1,90,8|0,0:0|0:0,0:0:0:0:
343,38,140361,6,0,P|371:50|387:70,1,45
423,138,140704,1,0,0:0:0:0:
383,218,140876,1,0,0:0:0:0:
303,178,141047,2,0,P|292:223|309:269,1,90,8|0,0:0|0:0,0:0:0:0:
387,306,141561,2,0,P|451:274|470:215,1,135
387,42,142418,2,0,P|340:29|295:45,1,90,0|0,1:0|0:0,0:0:0:0:
256,192,143104,5,0,0:0:0:0:
256,192,143190,12,4,144476,3:0:0:0:
256,192,155447,12,4,160933,3:0:0:0:
60,168,161618,6,0,B|84:144|144:160|156:212|140:248|140:248|132:304|192:308|208:256|172:252,1,270,4|0,3:0|0:0,0:0:0:0:
228,168,162990,2,0,B|260:144|256:100|256:100|288:88|288:88|292:56|292:56|324:36,1,180,4|0,3:0|0:0,0:0:0:0:
464,176,164018,2,0,L|464:131,1,45
464,264,164361,2,0,B|476:314|446:353|446:353|408:365|363:324,1,180,4|0,3:0|0:0,0:0:0:0:
300,252,165218,2,0,L|264:212,1,45
128,48,165733,1,4,3:0:0:0:
220,64,165904,2,0,B|204:78|204:78|192:108|166:122|166:122|160:144,1,90
268,236,166418,6,0,B|308:196|308:196|308:144,1,107.999996704102
220,64,166933,1,0,0:0:0:0:
128,136,167104,2,0,B|128:188|128:188|168:228,1,107.999996704102,4|0,3:0|0:0,0:0:0:0:
256,164,167618,2,0,P|303:139|326:92,1,107.999996704102
220,64,168133,2,0,B|168:48|168:48|112:64,1,107.999996704102,0|4,0:0|3:0,0:0:0:0:
40,152,168647,1,0,0:0:0:0:
164,152,168818,2,0,L|164:216,1,53.9999983520508
300,296,169161,6,0,B|329:248|392:264|392:264|348:216|380:148,1,215.999993408203,0|4,0:0|3:0,0:0:0:0:
462,288,170018,2,0,P|449:318|417:334,2,53.9999983520508
424,168,170533,1,0,0:0:0:0:
352,268,170704,1,0,0:0:0:0:
280,168,170876,1,0,0:0:0:0:
32,168,171218,1,4,3:0:0:0:
92,56,171390,1,0,0:0:0:0:
144,168,171561,2,0,P|173:169|205:149,1,53.9999983520508
88,224,171904,2,0,P|84:248|92:280,1,53.9999983520508
212,304,172247,5,0,0:0:0:0:
268,192,172418,1,0,0:0:0:0:
144,168,172590,2,0,P|91:137|80:84,1,107.999996704102,4|0,3:0|0:0,0:0:0:0:
176,16,173104,2,0,P|223:39|240:88,1,107.999996704102
268,192,173618,2,0,L|328:192,1,53.9999983520508
448,188,173961,1,4,3:0:0:0:
352,264,174133,5,0,0:0:0:0:
352,116,174304,1,0,0:0:0:0:
276,12,174476,1,0,0:0:0:0:
212,116,174647,2,0,B|199:163|226:187|212:228,1,107.999996704102
212,348,175161,1,0,0:0:0:0:
320,284,175333,1,4,3:0:0:0:
104,284,175504,6,0,P|88:268|76:236,2,53.9999983520508
192,196,176018,2,0,P|212:176|220:148,1,53.9999983520508
152,48,176361,2,0,P|124:40|92:48,1,53.9999983520508
20,128,176704,2,0,P|20:188|52:228,1,107.999996704102,4|0,3:0|0:0,0:0:0:0:
184,308,177218,1,0,0:0:0:0:
224,104,177390,6,0,L|188:158,1,53.9999983520508
136,232,177733,1,0,0:0:0:0:
64,132,177904,1,0,0:0:0:0:
140,36,178076,2,0,B|180:8|180:8|208:28|248:20,1,107.999996704102,4|0,3:0|0:0,0:0:0:0:
324,116,178590,2,0,P|321:166|272:208,1,107.999996704102
200,136,179104,2,0,L|264:136,1,53.9999983520508
408,136,179447,1,4,3:0:0:0:
408,308,179618,5,0,0:0:0:0:
320,224,179790,1,0,0:0:0:0:
408,136,179961,1,0,0:0:0:0:
328,36,180133,2,0,P|274:21|222:38,1,107.999996704102
200,136,180647,1,0,0:0:0:0:
408,136,180818,1,4,3:0:0:0:
440,304,180990,5,0,0:0:0:0:
360,216,181161,1,0,0:0:0:0:
248,216,181333,1,0,0:0:0:0:
176,308,181504,2,0,P|148:320|124:308,1,53.9999983520508
132,124,181847,2,0,P|160:112|184:124,1,53.9999983520508
96,216,182190,2,0,L|32:216,1,53.9999983520508,4|0,3:0|0:0,0:0:0:0:
132,124,182533,2,0,P|156:108|189:108,1,53.9999983520508
462,167,182876,6,0,P|461:220|428:262,1,107.999996704102
352,180,183390,1,0,0:0:0:0:
277,264,183561,2,0,P|244:221|242:168,1,107.999996704102,4|0,3:0|0:0,0:0:0:0:
352,180,184076,1,0,0:0:0:0:
302,77,184247,2,0,P|354:62|404:76,1,107.999996704102
406,277,184933,2,0,P|354:292|303:277,1,107.999996704102,4|0,3:0|0:0,0:0:0:0:
352,180,185447,1,0,0:0:0:0:
286,84,185618,2,0,B|244:113|210:174|243:246|279:270|279:270|243:246|205:229|156:266|119:351|25:294|-4:235|12:124|109:114|157:151,1,647.99998022461,0|4,0:0|3:0,0:0:0:0:
42,211,188361,5,0,0:0:0:0:
52,169,188447,1,0,0:0:0:0:
84,141,188533,1,0,0:0:0:0:
127,137,188618,1,0,0:0:0:0:
164,157,188704,2,0,P|169:182|188:206,1,45
241,342,188876,2,0,L|241:294,1,45,0|0,1:0|0:0,0:0:0:0:
300,198,189047,2,0,B|332:158|316:102|316:102|356:126|400:110,1,180,8|0,1:0|0:0,0:0:0:0:
428,232,189561,1,0,1:0:0:0:
364,42,189733,5,0,1:0:0:0:
326,18,189818,1,0,0:0:0:0:
281,15,189904,1,0,0:0:0:0:
241,33,189990,1,0,0:0:0:0:
212,64,190076,2,0,L|212:122,1,45
292,208,190247,2,0,L|216:192,1,45,0|0,1:0|0:0,0:0:0:0:
96,168,190418,1,8,1:0:0:0:
160,348,190590,1,0,0:0:0:0:
292,208,190761,1,0,1:0:0:0:
128,256,190933,1,0,0:0:0:0:
308,304,191104,5,0,1:0:0:0:
350,295,191190,1,0,0:0:0:0:
385,267,191276,1,0,0:0:0:0:
403,226,191361,1,0,0:0:0:0:
408,184,191447,2,0,B|384:136|384:136|348:116,1,90,0|0,0:0|1:0,0:0:0:0:
180,184,191790,2,0,B|204:136|204:136|236:119,1,90,8|0,1:0|0:0,0:0:0:0:
308,304,192133,1,0,0:0:0:0:
308,304,192304,1,0,1:0:0:0:
332,101,192476,5,0,1:0:0:0:
370,77,192561,1,0,0:0:0:0:
414,72,192647,1,0,0:0:0:0:
456,85,192733,1,0,0:0:0:0:
486,111,192818,2,0,P|501:167|492:206,1,90,0|0,0:0|1:0,0:0:0:0:
422,333,193161,2,0,P|362:331|328:311,1,90,8|0,1:0|0:0,0:0:0:0:
302,182,193504,2,0,P|307:137|331:100,1,90,0|0,1:0|0:0,0:0:0:0:
196,32,193847,5,0,1:0:0:0:
172,71,193933,1,0,0:0:0:0:
136,97,194018,1,0,0:0:0:0:
92,107,194104,1,0,0:0:0:0:
45,100,194190,6,0,P|32:124|28:144,1,45
51,257,194361,2,0,P|64:280|96:292,1,45,0|0,1:0|0:0,0:0:0:0:
168,168,194533,2,0,P|188:178|204:200,1,45,8|0,1:0|0:0,0:0:0:0:
192,312,194704,2,0,P|208:328|232:336,1,45
300,200,194876,2,0,P|324:216|336:232,1,45
436,284,195047,1,0,1:0:0:0:
464,160,195218,5,0,1:0:0:0:
463,115,195304,1,0,0:0:0:0:
436,78,195390,1,0,0:0:0:0:
393,60,195476,1,0,0:0:0:0:
344,56,195561,6,0,P|320:52|296:56,1,45
200,88,195733,2,0,P|188:112|188:140,1,45,0|0,1:0|0:0,0:0:0:0:
300,199,195904,2,0,P|316:184|326:164,1,45,8|0,1:0|0:0,0:0:0:0:
152,216,196076,2,0,P|141:239|141:263,1,45
287,312,196247,2,0,P|303:295|311:275,1,45,0|0,1:0|0:0,0:0:0:0:
152,352,196418,1,0,0:0:0:0:
44,232,196590,5,0,1:0:0:0:
33,189,196676,1,0,0:0:0:0:
44,145,196761,1,0,0:0:0:0:
72,110,196847,1,0,0:0:0:0:
114,93,196933,6,0,P|136:87|163:99,1,45
152,216,197104,2,0,P|182:187|188:165,1,45
234,53,197276,2,8,P|236:23|255:2,1,45,8|0,1:0|0:0,1:0:0:0:
278,175,197447,2,0,P|298:189|327:191,1,45
334,86,197618,1,0,0:0:0:0:
366,256,197790,1,0,1:0:0:0:
366,256,197876,1,0,0:0:0:0:
366,256,197961,6,0,P|342:260|318:256,1,45,0|0,1:0|0:0,0:0:0:0:
152,216,198133,2,0,P|174:211|196:215,1,45
236,348,198304,1,0,0:0:0:0:
278,175,198476,1,0,1:0:0:0:
97,284,198647,5,8,1:0:0:0:
65,251,198733,1,0,0:0:0:0:
58,206,198819,1,0,0:0:0:0:
76,163,198905,1,0,0:0:0:0:
108,135,198990,6,0,P|129:127|160:130,1,45,0|0,1:0|0:0,0:0:0:0:
253,265,199161,1,0,0:0:0:0:
295,87,199333,5,0,0:0:0:0:
437,200,199504,1,0,0:0:0:0:
325,62,199676,1,0,0:0:0:0:
406,224,199847,2,0,P|398:247|380:264,1,45,0|0,1:0|0:0,1:0:0:0:
268,187,200018,1,8,1:0:0:0:
458,117,200190,1,0,0:0:0:0:
262,143,200361,1,0,0:0:0:0:
464,160,200533,1,0,1:0:0:0:
408,308,200704,5,0,1:0:0:0:
373,334,200790,1,0,0:0:0:0:
328,338,200876,1,0,0:0:0:0:
291,315,200961,1,0,0:0:0:0:
271,276,201047,2,0,L|267:182,1,90,0|0,0:0|1:0,0:0:0:0:
265,33,201390,2,0,P|309:41|341:73,1,90,8|0,1:0|0:0,0:0:0:0:
162,179,201733,1,0,1:0:0:0:
162,179,201904,1,0,0:0:0:0:
374,144,202076,5,0,1:0:0:0:
418,136,202161,1,0,0:0:0:0:
459,152,202247,1,0,0:0:0:0:
480,190,202333,1,0,0:0:0:0:
476,232,202418,1,0,0:0:0:0:
431,236,202504,1,0,0:0:0:0:
389,253,202590,1,0,1:0:0:0:
358,286,202676,1,0,0:0:0:0:
338,326,202761,6,0,P|298:346|242:342,1,90,8|0,1:0|0:0,0:0:0:0:
128,216,203104,2,0,P|132:168|156:132,1,90,0|0,0:0|1:0,0:0:0:0:
288,72,203447,5,0,1:0:0:0:
301,114,203533,1,0,0:0:0:0:
337,139,203618,1,0,0:0:0:0:
381,137,203704,1,0,0:0:0:0:
420,116,203790,2,0,P|456:160|460:196,1,90,0|0,0:0|1:0,0:0:0:0:
352,292,204133,2,0,P|321:259|316:215,1,90,8|0,1:0|0:0,0:0:0:0:
288,72,204476,2,0,P|231:62|198:77,1,90,0|0,1:0|0:0,0:0:0:0:
79,173,204818,5,0,1:0:0:0:
123,170,204904,1,0,0:0:0:0:
166,186,204990,1,0,1:0:0:0:
200,216,205076,1,0,0:0:0:0:
229,250,205161,1,0,0:0:0:0:
273,257,205247,1,0,0:0:0:0:
317,250,205333,1,0,1:0:0:0:
355,226,205418,1,0,0:0:0:0:
378,187,205504,6,0,P|426:184|465:203,1,90,8|0,1:0|0:0,0:0:0:0:
440,380,205847,1,0,0:0:0:0:
272,332,206018,1,0,1:0:0:0:
280,160,206190,6,0,P|236:140|192:144,1,90,0|0,1:0|1:0,0:0:0:0:
88,284,206533,1,0,0:0:0:0:
272,332,206704,1,0,1:0:0:0:
280,160,206876,2,0,P|284:136|280:112,1,45,8|0,1:0|0:0,0:0:0:0:
140,76,207047,2,0,P|136:104|140:128,1,45
176,251,207218,1,0,1:0:0:0:
195,291,207304,1,0,0:0:0:0:
229,319,207390,1,0,0:0:0:0:
272,332,207476,1,0,0:0:0:0:
316,333,207561,6,0,P|372:317|400:289,1,90,0|0,1:0|0:0,0:0:0:0:
396,128,207904,1,0,0:0:0:0:
292,208,208076,1,0,1:0:0:0:
488,212,208247,1,8,1:0:0:0:
252,104,208418,2,0,P|228:116|216:136,1,45
348,300,208590,2,0,P|370:288|384:268,1,45
184,288,208761,1,0,1:0:0:0:
292,208,208933,5,0,1:0:0:0:
80,208,209104,1,0,0:0:0:0:
184,288,209276,1,0,0:0:0:0:
184,112,209447,1,0,1:0:0:0:
288,308,209618,1,8,1:0:0:0:
315,335,209704,1,0,0:0:0:0:
350,348,209790,1,0,0:0:0:0:
388,346,209876,1,0,0:0:0:0:
423,329,209961,1,0,1:0:0:0:
446,299,210047,1,0,0:0:0:0:
456,262,210133,1,0,0:0:0:0:
450,224,210218,1,0,0:0:0:0:
436,188,210304,6,0,B|420:120|344:92|344:92|328:176|252:124|252:192|252:192|208:200|216:244,1,360,0|0,1:0|0:0,0:0:0:0:
256,192,211847,12,0,213047,0:0:0:0:
232,232,213390,6,0,P|227:267|198:298,1,67.5
135,312,213733,6,0,B|174:272|174:272|216:296,1,94.499997116089
234,359,214076,6,0,P|161:347|129:284,1,121.499996292114
44,212,214418,6,0,B|9:160|28:103|28:103|59:68,1,153.000002918243,0|0,1:0|0:0,0:0:0:0:
152,72,214676,1,0,0:0:0:0:
156,116,214761,2,0,B|156:148|156:148|180:180|180:180|184:228|184:228|208:260,1,153.000002918243,8|0,1:0|0:0,0:0:0:0:
472,212,215104,2,0,B|506:160|487:103|487:103|456:68,1,153.000002918243,0|0,0:0|1:0,0:0:0:0:
360,72,215361,1,0,0:0:0:0:
356,116,215447,2,0,B|356:148|356:148|332:180|332:180|328:228|328:228|304:260,1,153.000002918243,8|0,1:0|0:0,0:0:0:0:
184,48,215790,5,0,0:0:0:0:
140,42,215875,1,0,0:0:0:0:
99,57,215961,1,0,1:0:0:0:
69,87,216047,1,0,0:0:0:0:
55,125,216132,1,8,1:0:0:0:
59,169,216218,1,0,0:0:0:0:
79,206,216304,1,0,0:0:0:0:
114,231,216390,1,0,0:0:0:0:
153,243,216476,5,0,0:0:0:0:
162,201,216561,1,0,0:0:0:0:
189,167,216647,1,0,1:0:0:0:
228,149,216733,1,0,0:0:0:0:
269,147,216818,1,8,1:0:0:0:
308,165,216904,1,0,0:0:0:0:
337,197,216990,1,0,0:0:0:0:
349,238,217076,1,0,0:0:0:0:
340,276,217161,6,0,B|296:336|296:336|222:337,1,135.000005149842,0|0,1:0|0:0,0:0:0:0:
154,280,217418,1,0,0:0:0:0:
153,243,217504,2,0,B|153:163|153:163|198:109,1,135.000005149842,8|0,1:0|0:0,0:0:0:0:
340,276,217847,1,0,0:0:0:0:
452,68,218018,1,0,1:0:0:0:
456,332,218190,1,8,1:0:0:0:
336,128,218361,1,0,0:0:0:0:
214,333,218533,6,0,B|192:320|152:332|152:332|104:288,1,116.999994644165,0|0,1:0|0:0,0:0:0:0:
108,73,218876,2,0,B|157:40|157:40|192:48|228:40,1,116.999994644165,8|0,1:0|0:0,0:0:0:0:
403,265,219218,1,0,1:0:0:0:
403,265,219304,1,0,0:0:0:0:
403,265,219390,2,0,P|400:236|379:209,1,45,0|0,1:0|0:0,0:0:0:0:
309,56,219561,2,0,P|290:80|284:104,1,45,8|0,1:0|0:0,0:0:0:0:
212,269,219733,2,0,P|232:256|244:236,1,45,0|0,1:0|0:0,0:0:0:0:
440,64,219904,6,0,B|441:125|501:145|501:145|469:193,1,153.000002918243,0|0,1:0|0:0,0:0:0:0:
403,265,220161,1,0,0:0:0:0:
359,265,220247,2,0,B|304:265|304:265|296:200|236:184,1,153.000002918243,8|0,1:0|0:0,0:0:0:0:
104,36,220590,2,0,B|84:81|24:105|24:105|32:172,1,153.000002918243,0|0,1:0|1:0,0:0:0:0:
52,240,220847,1,0,0:0:0:0:
80,268,220933,2,0,B|115:302|115:302|159:258|223:270,1,153.000002918243,8|0,1:0|0:0,0:0:0:0:
364,66,221276,5,0,0:0:0:0:
397,31,221361,1,0,0:0:0:0:
444,23,221447,1,0,1:0:0:0:
486,43,221533,1,0,0:0:0:0:
512,84,221618,1,8,1:0:0:0:
508,132,221704,1,0,0:0:0:0:
474,167,221790,1,0,0:0:0:0:
433,184,221876,1,0,0:0:0:0:
389,184,221961,5,0,0:0:0:0:
379,229,222046,1,0,0:0:0:0:
353,267,222132,1,0,1:0:0:0:
314,293,222218,1,0,0:0:0:0:
268,302,222303,1,8,1:0:0:0:
223,293,222389,1,0,0:0:0:0:
184,267,222475,1,0,0:0:0:0:
158,229,222561,1,0,0:0:0:0:
148,184,222647,6,0,B|148:119|148:119|199:68,1,135.000005149842,0|0,1:0|0:0,0:0:0:0:
288,20,222904,1,0,0:0:0:0:
330,19,222990,2,0,B|400:19|400:19|445:66,1,135.000005149842,8|0,1:0|0:0,0:0:0:0:
492,268,223333,2,0,B|467:329|467:329|403:357,1,135.000005149842,0|0,0:0|1:3,0:0:0:0:
221,197,223676,1,8,1:0:0:0:
408,24,223847,1,0,0:0:0:0:
383,274,224018,1,0,1:0:0:0:
212,28,224190,5,0,1:0:0:0:
186,273,224361,1,8,1:0:0:0:
412,188,224533,1,0,0:0:0:0:
196,125,224704,1,0,3:0:0:0:
157,152,224790,1,0,3:0:0:0:
139,197,224876,1,0,3:0:0:0:
152,243,224961,1,0,3:0:0:0:
186,273,225047,5,8,1:0:0:0:
210,235,225133,1,0,0:0:0:0:
252,215,225218,1,0,1:0:0:0:
299,223,225304,1,0,0:0:0:0:
344,239,225390,6,0,B|376:238|376:238|406:209|406:209|444:238|484:229,1,153.000002918243,0|0,1:0|0:0,0:0:0:0:
472,132,225647,1,0,0:0:0:0:
468,96,225733,2,0,B|468:64|448:20|448:20|412:28|380:64,1,153.000002918243,8|0,1:0|0:0,0:0:0:0:
210,235,226076,2,0,B|174:243|136:214|136:214|105:243|105:243|68:236,1,153.000002918243,0|0,1:0|0:0,0:0:0:0:
86,125,226333,1,0,0:0:0:0:
88,86,226418,2,0,B|88:54|108:10|108:10|152:22|184:58,1,153.000002918243,8|0,1:0|0:0,0:0:0:0:
281,269,226761,5,0,2:0:0:0:
291,311,226847,1,0,2:0:0:0:
324,344,226933,1,0,1:0:0:0:
367,358,227018,1,0,2:0:0:0:
411,348,227104,1,8,1:0:0:0:
446,319,227190,1,0,2:0:0:0:
463,277,227276,1,0,2:0:0:0:
458,231,227361,1,0,2:0:0:0:
442,190,227447,5,0,0:0:0:0:
399,190,227533,1,0,0:0:0:0:
355,174,227618,1,0,1:0:0:0:
326,139,227704,1,0,0:0:0:0:
317,96,227790,1,8,1:0:0:0:
331,54,227876,1,0,0:0:0:0:
364,22,227961,1,0,0:0:0:0:
405,10,228047,1,0,0:0:0:0:
449,10,228133,6,0,B|497:48|497:48|515:130,1,135.000005149842,0|0,1:0|0:0,0:0:0:0:
442,190,228390,1,0,0:0:0:0:
404,216,228476,2,0,B|340:249|340:249|313:226|272:226,1,135.000005149842,8|0,1:0|0:0,0:0:0:0:
73,152,228818,1,0,0:0:0:0:
260,58,228990,1,0,1:0:0:0:
153,327,229161,1,8,1:0:0:0:
339,245,229333,1,0,0:0:0:0:
179,198,229504,6,0,P|183:274|263:330,1,161.999995056153,0|0,1:0|0:0,0:0:0:0:
348,329,229847,2,0,B|360:285|388:269|388:269|376:209,1,135.000005149842,8|0,1:0|0:0,0:0:0:0:
264,64,230190,1,0,1:0:0:0:
264,64,230276,1,0,0:0:0:0:
264,64,230361,2,0,L|245:139,1,45,0|0,1:0|0:0,0:0:0:0:
192,328,230533,1,8,1:0:0:0:
64,192,230704,6,0,B|72:128|16:80|16:80|60:76|88:92,1,202.500007724762,0|0,1:0|0:0,0:0:0:0:
112,108,231047,1,0,1:0:0:0:
248,276,231218,1,8,1:0:0:0:
384,108,231390,1,0,0:0:0:0:
168,40,231561,6,0,B|128:60|113:108|113:108|135:146|176:152,1,153.000002918243,0|0,1:0|1:0,1:0:0:0:
248,176,231818,1,0,0:0:0:0:
288,180,231904,2,0,B|325:194|364:176|364:176|396:212|384:256,1,153.000002918243,8|0,1:0|0:0,0:0:0:0:
260,368,232247,5,0,0:0:0:0:
269,329,232333,1,0,0:0:0:0:
264,291,232418,1,0,1:0:0:0:
243,258,232504,1,0,0:0:0:0:
208,232,232590,2,0,L|164:248,1,45,8|0,1:0|0:0,0:0:0:0:
48,312,232761,2,0,L|48:248,1,45
208,152,232933,1,0,0:0:0:0:
376,288,233104,1,0,1:0:0:0:
388,32,233276,1,8,1:0:0:0:
288,180,233447,1,0,0:0:0:0:
152,84,233618,6,0,B|96:108|96:108|72:164,1,116.999994644165,0|0,1:0|0:0,0:0:0:0:
68,256,233876,1,0,0:0:0:0:
80,296,233961,2,0,B|114:347|114:347|168:360,1,116.999994644165,8|0,1:0|0:0,0:0:0:0:
380,212,234304,5,0,1:0:0:0:
308,364,234476,1,0,1:0:0:0:
240,100,234647,1,8,1:0:0:0:
164,280,234818,1,0,1:0:0:0:
328,156,234990,5,0,0:0:0:0:
343,144,235076,1,0,0:0:0:0:
360,136,235161,1,0,0:0:0:0:
379,132,235247,1,0,0:0:0:0:
398,132,235333,1,0,0:0:0:0:
417,137,235418,1,0,0:0:0:0:
434,145,235504,1,0,0:0:0:0:
449,157,235590,1,0,0:0:0:0:
460,169,235676,5,0,3:0:0:0:
460,213,235761,1,0,3:0:0:0:
438,252,235847,1,0,3:0:0:0:
400,274,235933,1,0,3:0:0:0:
355,273,236018,1,0,3:0:0:0:
317,250,236104,1,0,3:0:0:0:
296,211,236190,1,0,3:0:0:0:
298,167,236276,1,0,3:0:0:0:
316,127,236361,6,0,P|310:71|204:28,1,180,0|8,0:0|1:0,0:0:0:0:
91,214,237390,1,0,0:0:0:0:
84,72,237561,2,0,P|41:145|91:214,1,180
200,216,238418,2,0,P|220:176|204:124,1,90,8|0,1:0|0:0,0:0:0:0:
200,364,239104,2,0,L|248:364,1,45
298,262,239447,5,0,0:0:0:0:
389,359,239618,1,0,0:0:0:0:
460,252,239790,2,0,B|476:208|476:208|460:163,1,90,8|0,1:0|0:0,0:0:0:0:
349,51,240304,2,0,B|336:92|336:92|352:136,1,90,0|0,1:0|1:0,1:0:0:0:
240,36,240818,2,0,L|188:24,1,45
104,156,241161,2,0,L|128:216,1,45
220,276,241504,2,0,L|264:288,1,45
393,281,241847,6,0,B|393:225|393:225|413:193,1,90
409,82,242361,1,0,0:0:0:0:
321,10,242533,2,0,B|291:36|291:36|238:37,1,90,4|0,3:0|0:0,0:0:0:0:
140,36,243047,1,0,0:0:0:0:
154,206,243390,1,0,0:0:0:0:
168,376,243733,1,0,0:0:0:0:
60,320,243904,2,0,B|68:274|68:274|46:237,1,90,4|0,3:0|0:0,0:0:0:0:
291,360,244590,6,0,B|307:320|307:320|351:292,1,90
452,248,245104,1,0,0:0:0:0:
475,127,245276,2,0,B|447:99|447:99|447:38,1,90,4|0,3:0|0:0,0:0:0:0:
322,48,245790,1,0,0:0:0:0:
257,205,246133,1,0,0:0:0:0:
191,362,246476,1,0,0:0:0:0:
320,356,246647,6,0,B|340:316|340:316|376:320|376:320|400:304|400:304|408:312|408:312|416:304|416:304|424:312|424:312|432:304|432:304|440:312|440:312|448:304|448:304|456:312|456:312|464:304|464:304|472:312|472:312|480:304|480:304|488:312|488:312|496:304|496:304|504:316,1,251.999992309571,4|0,0:3|0:3,0:3:0:0:
340,316,247847,5,0,0:0:0:0:
408,232,248018,2,0,B|456:192|433:132|433:132|372:96,1,161.999995056153,4|0,3:0|0:0,0:0:0:0:
188,0,248876,1,0,0:0:0:0:
120,216,249218,1,0,0:0:0:0:
24,166,249390,2,0,B|4:140|4:108,2,53.9999983520508,4|0|0,3:0|0:0|0:0,0:0:0:0:
60,278,249904,1,0,0:0:0:0:
176,308,250076,6,0,B|196:280|236:280|236:280|252:252|252:252|288:256|312:232,1,161.999995056153
400,180,250761,1,4,3:0:0:0:
172,373,251276,1,0,0:0:0:0:
120,210,251618,1,0,0:0:0:0:
68,48,251961,1,0,0:0:0:0:
200,43,252133,6,0,B|241:33|280:69|263:119|263:119|276:127|276:127|264:135|264:135|276:143|276:143|264:151|264:151|276:155|276:155|264:163|264:163|276:167|276:167|264:175|264:175|276:179|276:179|276:199,1,251.999992309571,4|0,0:3|0:0,0:0:0:0:
355,48,253333,5,0,0:0:0:0:
388,148,253504,2,0,P|408:172|468:188,1,90,4|0,3:0|0:0,0:0:0:0:
476,300,254018,1,0,0:0:0:0:
288,300,254361,1,0,0:0:0:0:
108,300,254704,1,0,0:0:0:0:
48,200,254876,2,0,P|34:173|36:152,2,45,4|0|0,3:0|0:0|0:0,0:0:0:0:
272,288,255561,6,0,B|236:268|236:216|236:216|216:244|188:248,1,135
320,220,256247,1,4,3:0:0:0:
180,8,256761,1,0,0:0:0:0:
332,118,257104,1,0,0:0:0:0:
477,224,257447,1,0,0:0:0:0:
320,220,257618,6,0,B|244:216|216:160|216:160|208:168|208:168|204:160|204:160|196:168|196:168|192:160|192:160|184:168|184:168|180:160|180:160|172:168|172:168|168:160|168:160|160:168|160:168|156:160|156:160|148:168|148:168|144:160|144:160|136:168|136:168|128:160,1,251.999992309571,4|0,3:0|0:0,0:0:0:0:
139,284,258818,5,0,0:0:0:0:
248,285,258990,2,0,P|304:261|320:217,1,107.999996704102,4|0,3:0|0:0,0:0:0:0:
312,107,259504,2,0,L|260:152,1,53.9999983520508
240,20,259847,2,0,L|196:52,1,53.9999983520508
116,104,260190,1,0,0:0:0:0:
52,28,260361,2,0,P|16:100|52:180,1,161.999995056153,4|0,3:0|0:0,0:0:0:0:
112,240,261047,6,0,B|136:244|164:232|164:232|140:252|136:288,1,107.999996704102
228,300,261561,1,0,0:0:0:0:
287,384,261733,2,0,P|324:340|331:288,1,107.999996704102,4|0,3:0|0:0,0:0:0:0:
140,84,262247,5,0,0:0:0:0:
140,112,262333,2,0,B|140:160|140:160|184:188,1,90
272,184,262590,2,0,B|307:161|307:161|307:113,1,90
308,80,262847,1,0,0:0:0:0:
308,56,262933,1,0,0:0:0:0:
175,182,263104,2,0,B|175:234|146:264|146:264|158:252|158:252|170:264|170:264|186:252|186:252|198:264|198:264|210:252|210:252|222:264|222:264|234:252|234:252|246:264|246:264|258:252|258:252|270:264|270:264|286:264,1,251.999992309571
256,192,263876,12,0,264990,0:0:0:0:
168,272,265161,6,0,B|111:192|111:192|101:161|115:129,1,153.000002918243,4|0,0:2|0:0,0:0:0:0:
260,140,265418,2,0,B|316:221|316:221|326:255|310:286,1,153.000002918243
232,232,265676,2,0,B|189:168,1,76.5000014591217
184,92,265847,38,0,B|208:20|304:-31|408:40|412:108|412:108|368:148|368:148|416:208|416:208|404:212|404:212|416:220|416:220|404:224|404:224|416:232|416:232|404:236|404:236|416:244|416:244|404:248|404:248|416:256|416:256|404:260|404:260|416:268|416:268|404:272|404:272|416:280|416:280|404:284|404:284|416:292|416:292|404:296|404:296|416:304|416:304|404:308|404:308|416:316|416:316|404:320|404:320|416:328|416:328|416:340,1,720,4|0,0:2|0:0,0:0:0:0:
416,334,267904,22,0,B|348:354|328:290|328:290|284:298|284:298|264:258|264:258|242:264|223:258,1,240
44,264,269447,6,0,B|46:185|120:179|120:179|142:184|142:184|136:167|136:167|136:123|136:123|209:97|252:139|234:207,1,360
237,184,270647,6,0,B|277:184|277:184|297:168|297:168|317:184|317:184|349:184,1,121.499996292114
352,108,271333,6,0,B|408:108|408:108|432:124|491:180|440:236|412:260|412:260|356:260|356:260|332:276|332:276|308:260|308:260|300:268|300:268|292:260|292:260|288:272|288:272|280:260|280:260|276:272|276:272|268:260|268:260|264:272|264:272|256:260|256:260|252:272|252:272|244:260|244:260|240:272|240:272|232:260|232:260|228:272|228:272|220:260|220:260|216:272|216:272|208:260|208:260|204:272|204:272|196:260|196:260|192:272|192:272|184:260|184:260|164:260,1,629.999980773926,4|0,0:2|0:0,0:0:0:0:
171,260,273390,6,0,B|170:228|170:228|119:211|114:157|114:157|56:140|57:72,1,240
197,148,274933,6,0,B|209:140|209:140|221:148|221:148|233:140|233:140|245:148|245:148|257:140|257:140|269:148|269:148|281:140|281:140|293:148|293:148|305:140|305:140|353:192|349:288|239:292|239:292|217:344|157:335,1,450
47,255,276133,6,0,B|21:224|21:224|38:194|38:194|14:152|39:109,1,153.000002918243,4|0,0:2|0:0,0:0:0:0:
175,119,276390,2,0,B|201:150|201:150|184:180|184:180|208:222|183:265,1,153.000002918243,4|0,0:2|0:0,0:0:0:0:
88,328,276647,2,0,P|128:312|163:336,1,76.5000014591217
240,332,276818,6,0,B|312:332|312:332|344:376|344:376|380:280|436:316|452:240|452:240|408:288|348:264|348:264|336:256|336:256|332:264|332:264|324:256|324:256|320:264|320:264|312:256|312:256|308:264|308:264|300:256|300:256|296:264|296:264|288:256|288:256|284:264|284:264|276:256|276:256|272:264|272:264|264:256|264:256|260:264|260:264|252:256|252:256|248:264|248:264|240:256|240:256|232:264|232:264|224:256|224:256|220:264|220:264|212:256|212:256|204:256,1,647.99998022461,4|8,0:2|1:0,0:0:0:0:
88,256,278533,6,0,L|122:256,1,33.75
40,320,278876,6,0,B|12:284|12:284|12:224|12:224|40:196,1,144
168,84,279390,1,0,0:0:0:0:
372,172,279561,6,0,B|380:200|356:232|356:232|384:240|384:240|372:264|372:264|364:296|372:324,1,180,8|0,0:0|0:0,0:0:0:0:
448,296,280418,2,0,P|456:324|448:348,1,45
220,340,280761,6,0,P|212:308|220:276,1,58.4999973220826
262,88,280933,1,8,0:0:0:0:
396,160,281618,6,0,B|355:217|272:217|235:161|235:161|270:130|261:82,1,270
180,100,282304,38,0,B|144:100|144:100|96:96|49:151|76:224|136:232|136:232|124:236|124:236|136:244|136:244|124:248|124:248|136:256|136:256|124:260|124:260|136:268|136:268|124:272|124:272|136:276|136:276|124:280|124:280|136:284|136:284|124:288|124:288|136:292|136:292|124:296|124:296|136:300|136:300|124:304|124:304|136:308|136:308|124:312|124:312|136:316|136:316|124:320|124:320|136:340,1,503.999984619141,12|8,0:2|0:0,0:0:0:0:
240,332,284018,6,0,L|206:332,1,33.75
240,332,284361,22,0,B|285:301|285:301|261:217|261:217|297:185|293:129,1,216
76,68,285047,6,0,B|112:56|164:84|164:84|212:56|212:56|268:72|268:72|221:86|212:139,1,288,8|0,0:0|0:0,0:0:0:0:
296,152,286418,5,8,0:0:0:0:
296,152,287104,6,0,B|356:146|356:146|396:104|396:104|436:128,1,153.000002918243,0|0,1:0|0:0,0:0:0:0:
468,184,287361,2,0,B|456:232|456:232|400:246|400:246|369:293,1,153.000002918243,0|0,1:0|0:0,0:0:0:0:
324,224,287618,2,0,L|256:264,1,76.5000014591217,0|0,1:0|0:0,0:0:0:0:
193,297,287790,2,0,B|161:317|161:317|135:349|135:349|87:345|87:345|62:368,2,153.000002918243,8|0|0,1:0|0:0|0:0,0:0:0:0:
364,300,288304,1,0,1:0:0:0:
392,284,288390,1,0,0:0:0:0:
424,268,288476,6,0,B|464:252|448:212|448:212|512:180|476:84|396:100|380:144,1,270,0|0,1:0|1:0,0:0:0:0:
252,348,289161,1,8,1:0:0:0:
148,196,289333,1,0,0:0:0:0:
159,166,289418,1,0,0:0:0:0:
170,136,289504,2,0,B|191:79|191:79|217:58,1,90,0|0,1:0|0:0,0:0:0:0:
424,84,289847,5,0,1:0:0:0:
426,128,289933,1,0,0:0:0:0:
401,166,290018,1,0,0:0:0:0:
360,181,290104,1,0,0:0:0:0:
312,176,290190,2,0,B|300:212|300:212|304:240|304:240|293:270,1,90,0|0,0:0|1:0,0:0:0:0:
158,355,290533,2,0,B|169:322|169:322|166:291|166:291|174:263,1,90,8|0,1:0|0:0,0:0:0:0:
224,72,290876,1,0,0:0:0:0:
224,72,290961,1,0,0:0:0:0:
224,72,291047,2,0,B|274:72,1,45,0|0,1:0|0:0,0:0:0:0:
469,153,291218,5,0,1:0:0:0:
481,181,291304,1,0,0:0:0:0:
493,213,291390,2,0,P|489:237|476:258,1,45
360,324,291561,1,0,0:0:0:0:
312,316,291647,1,0,0:0:0:0:
268,272,291733,1,0,1:0:0:0:
263,196,291818,1,0,0:0:0:0:
308,128,291904,5,8,1:0:0:0:
277,118,291990,1,0,0:0:0:0:
248,108,292075,1,0,0:0:0:0:
219,99,292161,1,0,0:0:0:0:
191,90,292247,1,0,0:0:0:0:
162,81,292332,1,0,0:0:0:0:
134,72,292418,1,0,0:0:0:0:
105,63,292504,1,0,0:0:0:0:
80,56,292590,6,0,L|81:103,1,45,0|0,1:0|0:0,0:0:0:0:
140,216,292761,2,0,L|152:168,1,45
217,54,292933,2,0,L|218:101,1,45
301,240,293104,2,0,L|313:192,1,45,0|0,1:0|0:0,0:0:0:0:
349,28,293276,1,8,1:0:0:0:
140,216,293447,5,0,0:0:0:0:
225,349,293618,1,0,0:0:0:0:
257,349,293704,1,0,0:0:0:0:
297,349,293790,2,0,P|323:333|336:309,1,45,0|0,1:0|0:0,0:0:0:0:
396,183,293961,5,0,1:0:0:0:
409,140,294047,1,0,0:0:0:0:
405,95,294133,1,0,0:0:0:0:
384,56,294218,1,0,0:0:0:0:
349,28,294304,1,0,0:0:0:0:
306,16,294390,1,0,0:0:0:0:
261,22,294476,1,0,1:0:0:0:
223,45,294561,1,0,0:0:0:0:
196,83,294647,6,0,B|190:109|204:139|204:139|203:164|188:191|188:191|196:223|196:223|196:267,1,180,8|0,1:0|1:0,0:0:0:0:
195,289,295076,1,0,0:0:0:0:
195,313,295161,1,0,0:0:0:0:
408,240,295333,2,0,B|460:220|460:220|500:220,2,90,0|0|0,1:0|0:0|0:0,0:0:0:0:
204,152,295847,5,0,1:0:0:0:
188,136,295933,1,0,0:0:0:0:
172,120,296018,2,0,B|128:96|128:96|84:96,1,90,8|0,1:0|0:0,0:0:0:0:
232,48,296361,1,0,0:0:0:0:
248,32,296447,1,0,0:0:0:0:
268,16,296533,2,0,L|312:16,1,45,0|0,1:0|0:0,0:0:0:0:
400,20,296704,5,0,1:0:0:0:
433,24,296789,1,0,0:0:0:0:
462,41,296875,1,0,0:0:0:0:
481,68,296961,1,0,0:0:0:0:
488,101,297046,1,0,0:0:0:0:
440,100,297133,1,0,0:0:0:0:
387,123,297218,1,0,1:0:0:0:
353,190,297304,1,0,0:0:0:0:
363,263,297390,6,0,B|323:267|299:279|299:279|275:267|231:259,1,125.999996154785,8|0,1:0|0:0,0:0:0:0:
32,192,297733,1,0,1:0:0:0:
32,192,297818,1,0,0:0:0:0:
32,192,297904,1,0,0:0:0:0:
286,331,298076,6,0,B|322:319|350:327|350:327|366:287|366:287|394:295|414:287,1,153.000002918243,0|0,1:0|0:0,0:0:0:0:
420,174,298333,2,0,B|384:162|356:170|356:170|340:130|340:130|316:134|292:130,1,153.000002918243,0|0,1:0|0:0,0:0:0:0:
220,236,298590,2,0,B|248:232|248:232|280:240|280:240|308:232,1,76.5000014591217,0|0,1:0|0:0,0:0:0:0:
432,80,298761,1,8,1:0:0:0:
408,260,298933,1,0,0:0:0:0:
220,128,299104,1,0,0:0:0:0:
80,256,299276,1,0,1:0:0:0:
200,352,299447,5,0,1:0:0:0:
241,359,299533,1,0,0:0:0:0:
283,346,299618,1,0,0:0:0:0:
312,314,299704,1,0,0:0:0:0:
324,271,299790,2,0,P|320:224|272:184,1,90,0|0,0:0|1:0,0:0:0:0:
8,104,300133,1,8,1:0:0:0:
80,256,300304,1,0,0:0:0:0:
144,104,300476,1,0,1:0:0:0:
212,300,300647,1,0,0:0:0:0:
228,332,300733,1,0,0:0:0:0:
241,359,300818,6,0,L|337:359,1,90,0|0,1:0|0:0,0:0:0:0:
440,216,301161,1,0,0:0:0:0:
440,188,301247,1,0,0:0:0:0:
440,156,301333,1,0,1:0:0:0:
280,24,301504,1,8,1:0:0:0:
292,192,301676,1,0,0:0:0:0:
120,152,301847,1,0,0:0:0:0:
120,180,301933,1,0,0:0:0:0:
120,212,302019,1,0,1:0:0:0:
192,356,302190,1,0,1:0:0:0:
292,192,302361,5,0,0:0:0:0:
292,192,302447,1,0,0:0:0:0:
292,192,302533,1,0,0:0:0:0:
288,144,302618,1,0,0:0:0:0:
307,95,302704,1,0,1:0:0:0:
375,63,302790,1,0,0:0:0:0:
448,76,302876,2,0,P|480:112|480:165,1,90,8|0,1:0|0:0,0:0:0:0:
319,292,303218,1,0,1:0:0:0:
295,292,303304,1,0,0:0:0:0:
267,292,303390,2,0,L|219:292,1,45
88,184,303561,6,0,P|80:112|172:80,1,180,0|0,1:0|0:0,0:0:0:0:
222,292,304076,1,0,1:0:0:0:
264,76,304247,2,0,P|344:98|343:181,1,180,8|0,1:0|0:0,0:0:0:0:
222,292,304761,1,0,1:0:0:0:
222,292,304933,6,0,P|109:290|109:150,1,270,0|0,1:0|1:0,0:0:0:0:
232,20,305618,1,8,1:0:0:0:
388,288,305961,1,0,1:0:0:0:
75,184,306304,6,0,P|74:307|197:318,1,270,0|0,1:0|1:0,0:0:0:0:
335,213,306990,1,8,1:0:0:0:
80,128,307504,5,0,1:0:0:0:
80,128,307676,2,0,B|80:220|80:220|24:236|-8:316|64:376|148:356|152:280,1,360,0|0,1:0|1:0,0:0:0:0:
240,80,309047,6,0,B|280:52|280:52|324:52,1,90
424,56,309561,1,0,0:0:0:0:
424,160,309733,2,0,B|408:208|408:208|372:232,1,90,4|0,3:0|0:0,0:0:0:0:
280,272,310247,1,0,0:0:0:0:
212,196,310418,5,0,0:0:0:0:
148,276,310590,1,0,0:0:0:0:
120,168,310761,2,4,P|144:124|180:104,1,90,0|4,0:0|3:0,0:0:0:0:
212,196,311276,2,0,B|259:206|259:206|304:196,1,90
340,108,311790,6,4,P|377:131|397:171,1,90,0|0,0:0|0:0,0:0:0:0:
400,276,312304,1,0,0:0:0:0:
296,280,312476,2,4,P|258:256|238:216,1,90,4|0,3:0|0:0,0:0:0:0:
232,112,312990,1,0,0:0:0:0:
148,172,313161,5,0,0:0:0:0:
64,112,313333,1,0,0:0:0:0:
64,216,313504,2,0,B|68:272|68:272|100:308,1,90,0|4,0:0|3:0,0:0:0:0:
176,356,314018,1,0,0:0:0:0:
176,252,314190,1,0,0:0:0:0:
272,288,314361,1,0,0:0:0:0:
272,184,314533,6,0,B|324:184|324:184|356:212,1,90
432,280,315047,1,0,0:0:0:0:
432,176,315218,2,0,B|432:124|432:124|406:95,1,90,4|0,3:0|0:0,0:0:0:0:
316,44,315733,1,0,0:0:0:0:
252,124,315904,5,0,0:0:0:0:
192,40,316076,1,0,0:0:0:0:
140,128,316247,1,0,0:0:0:0:
356,336,316590,5,4,3:0:0:0:
280,268,316761,1,0,0:0:0:0:
200,336,316933,1,0,0:0:0:0:
128,260,317104,1,0,0:0:0:0:
204,180,317276,6,0,P|242:155|290:151,1,90
280,268,317790,1,0,0:0:0:0:
128,260,317961,2,0,P|116:216|124:172,1,90,4|0,3:0|0:0,0:0:0:0:
192,100,318476,1,0,0:0:0:0:
268,172,318647,5,0,0:0:0:0:
200,252,318818,1,0,0:0:0:0:
123,172,318990,1,0,0:0:0:0:
408,260,319333,1,4,3:3:0:0:
460,176,319504,1,0,0:3:0:0:
408,96,319676,1,0,0:3:0:0:
356,176,319847,1,0,0:3:0:0:
300,264,320018,6,0,B|252:276|252:276|204:260,1,90,0|0,0:0|0:3,0:3:0:0:
132,176,320533,1,0,0:0:0:0:
208,92,320704,2,0,B|256:80|256:80|304:96,1,90,4|0,3:0|0:3,0:3:0:0:
256,188,321218,1,0,0:0:0:0:
132,176,321390,2,0,B|120:224|120:224|132:272,1,90
404,328,322076,1,4,3:0:0:0:
324,264,322247,1,0,0:0:0:0:
408,204,322418,1,0,0:0:0:0:
324,140,322590,1,0,0:0:0:0:
240,204,322761,6,0,B|192:216|192:216|148:204,1,90
76,136,323276,1,0,0:0:0:0:
144,56,323447,2,0,B|187:45|187:45|232:58,1,90,4|0,3:0|0:0,0:0:0:0:
332,88,323961,1,0,0:0:0:0:
240,132,324133,1,0,0:0:0:0:
328,184,324304,1,0,0:0:0:0:
236,232,324476,6,0,L|216:280,1,45
312,336,324818,2,0,L|336:280,1,45,4|0,3:0|0:0,0:0:0:0:
453,258,325161,2,0,L|436:300,1,45
452,136,325504,2,0,B|413:81|413:81|345:81,1,135
240,80,326190,1,4,3:0:0:0:
376,276,326533,1,0,0:0:0:0:
256,276,326704,2,0,L|212:276,1,45
88,276,327047,1,0,0:0:0:0:
208,352,327218,6,0,L|260:352,1,45
331,276,327561,2,0,L|387:276,1,45
452,196,327904,2,0,L|452:148,1,45
328,152,328247,2,0,B|296:172|284:200|284:200|242:184|212:200,1,135
92,200,328933,2,0,B|92:152|92:152|113:110,1,90,4|0,3:0|0:0,0:0:0:0:
176,12,329447,2,0,L|228:12,1,45
288,172,329790,1,0,0:0:0:0:
168,172,329961,1,0,0:0:0:0:
252,352,330304,2,0,L|304:352,1,45,4|0,3:0|0:0,0:0:0:0:
404,288,330647,2,0,L|404:236,1,45
388,152,330990,6,0,B|332:160|312:228|312:228|272:236|244:210,1,180
248,336,332704,6,0,L|280:336,1,22.5
340,272,333047,2,0,L|362:272,1,22.5
249,214,333390,2,0,L|225:214,1,22.5
88,212,333733,2,0,P|102:124|136:96,1,135
339,180,335104,2,0,B|315:144|331:92|331:92|283:108|244:96,1,180
248,252,336818,5,0,0:0:0:0:
328,252,336990,1,0,0:0:0:0:
408,252,337161,2,0,L|436:292,1,45
360,320,337676,1,0,0:0:0:0:
328,252,337847,2,0,L|304:208,1,45
244,96,338533,1,0,0:0:0:0:
128,176,338876,1,0,0:0:0:0:
212,268,339218,6,0,B|210:228|244:192|244:192|220:184|204:164,1,135
277,101,340590,2,0,B|346:109|361:183|361:183|315:222|317:281|358:309|387:309|424:289|429:265|413:233|389:237,1,360
256,237,343676,6,0,L|256:260,1,22.5
188,152,344018,2,0,L|168:128,1,22.5
342,134,344361,2,0,L|328:152,1,22.5
256,237,344704,6,0,P|208:285|140:285,1,135
172,200,346076,2,0,B|120:153|136:84|136:84|84:84,1,180
296,88,347790,6,0,L|324:88,1,22.5
216,24,348133,2,0,L|216:48,1,22.5
132,84,348476,2,0,L|80:84,1,45
192,168,349161,6,0,L|220:168,1,22.5
292,190,349504,2,0,L|292:168,1,22.5
384,176,349847,1,0,0:0:0:0:
384,252,350018,1,0,0:0:0:0:
384,328,350190,2,0,B|340:352|296:332|296:332|292:276|232:216|160:252,1,270
44,72,354990,6,0,P|68:76|92:72,1,45
115,220,355676,2,0,P|127:178|160:148,1,90
212,344,356704,1,0,0:0:0:0:
292,344,356876,2,0,B|321:340|356:344|356:344|392:308,1,112.5
390,309,358418,1,0,0:0:0:0:
296,180,358761,6,0,L|296:156,2,22.5
204,292,359447,1,0,0:0:0:0:
124,192,359618,2,0,P|119:171|120:148,1,45
444,192,360133,6,0,P|461:226|460:260,1,67.5
375,280,360476,6,0,B|407:254|407:254|471:254,1,94.499997116089
452,332,360818,6,0,B|424:348|424:348|376:316|376:316|332:316,1,121.499996292114
136,312,361161,6,0,B|86:304|86:304|63:276|63:276|26:285|1:259,1,153.000002918243,4|0,1:2|0:0,0:0:0:0:
58,177,361418,1,0,0:0:0:0:
72,136,361504,2,0,B|85:102|85:102|86:69|86:69|118:41|166:45,1,153.000002918243,8|0,1:0|0:0,0:0:0:0:
380,52,361847,2,0,B|425:48|457:76|457:76|458:109|458:109|471:143,1,153.000002918243,0|0,0:0|1:0,0:0:0:0:
494,240,362104,1,0,0:0:0:0:
464,276,362190,2,0,B|436:300|436:300|400:287|400:287|368:328|326:317,1,153.000002918243,8|0,1:0|0:0,0:0:0:0:
316,128,362533,5,0,0:0:0:0:
309,80,362618,1,0,0:0:0:0:
275,48,362704,1,0,1:0:0:0:
229,39,362790,1,0,0:0:0:0:
183,52,362876,1,8,1:0:0:0:
152,86,362961,1,0,0:0:0:0:
138,129,363047,1,0,0:0:0:0:
148,176,363133,1,0,0:0:0:0:
182,207,363218,5,0,0:0:0:0:
200,250,363304,1,0,0:0:0:0:
193,296,363390,1,0,1:0:0:0:
165,333,363476,1,0,0:0:0:0:
122,352,363561,1,8,1:0:0:0:
76,349,363647,1,0,0:0:0:0:
37,323,363733,1,0,0:0:0:0:
14,282,363818,1,0,0:0:0:0:
12,232,363904,6,0,B|40:176|40:176|104:144,1,135.000005149842,0|0,1:0|0:0,0:0:0:0:
182,207,364161,1,0,0:0:0:0:
223,207,364247,2,0,B|291:207|291:207|353:168,1,135.000005149842,8|0,1:0|0:0,0:0:0:0:
488,76,364590,1,0,0:0:0:0:
352,312,364761,1,0,1:0:0:0:
200,76,364933,1,8,1:0:0:0:
347,171,365104,1,0,0:0:0:0:
182,207,365276,5,0,1:0:0:0:
182,207,365361,1,0,0:0:0:0:
182,207,365447,2,0,P|162:201|138:205,1,45
36,340,365618,2,0,P|68:348|104:340,1,45,8|0,1:0|0:0,0:0:0:0:
300,348,365790,2,0,P|304:328|300:300,1,45
184,206,365961,2,0,P|180:184|184:162,1,45,0|0,1:0|0:0,0:0:0:0:
348,36,366133,2,0,P|356:64|348:88,1,45,0|0,1:0|0:0,0:0:0:0:
352,300,366304,1,8,1:0:0:0:
488,80,366476,1,0,1:0:0:0:
224,80,366647,6,0,B|164:68|164:68|144:16|100:0,1,153.000002918243,0|0,1:0|0:0,0:0:0:0:
61,90,366904,1,0,0:0:0:0:
30,124,366990,2,0,B|-10:176|-10:176|10:222|10:222|10:268,1,153.000002918243,8|0,1:0|0:0,0:0:0:0:
160,364,367333,2,0,B|140:320|140:320|160:284|160:284|148:248|160:216,1,153.000002918243,0|0,1:0|0:0,0:0:0:0:
256,248,367590,1,0,0:0:0:0:
304,248,367676,2,0,B|351:248|351:248|396:209|396:209|424:205|464:237,1,153.000002918243,8|0,1:0|0:0,0:0:0:0:
298,65,368018,5,0,0:0:0:0:
258,37,368104,1,0,0:0:0:0:
211,36,368190,1,0,1:0:0:0:
171,57,368276,1,0,0:0:0:0:
145,96,368361,1,8,1:0:0:0:
144,142,368447,1,0,0:0:0:0:
165,183,368533,1,0,0:0:0:0:
203,208,368618,1,0,0:0:0:0:
247,211,368704,5,0,0:0:0:0:
264,168,368790,1,0,0:0:0:0:
293,132,368876,1,0,1:0:0:0:
336,113,368961,1,0,0:0:0:0:
383,111,369047,1,8,1:0:0:0:
426,126,369133,1,0,0:0:0:0:
461,158,369218,1,0,0:0:0:0:
481,201,369304,1,0,0:0:0:0:
484,245,369390,6,0,B|462:323|462:323|398:344,1,135.000005149842,0|0,1:0|0:0,0:0:0:0:
310,352,369647,1,0,0:0:0:0:
266,342,369733,2,0,B|214:325|214:325|192:247,1,135.000005149842,8|0,1:0|0:0,0:0:0:0:
260,32,370076,5,0,0:0:0:0:
260,32,370161,1,0,0:0:0:0:
260,32,370247,2,0,L|200:76,1,45,0|0,1:0|0:0,0:0:0:0:
0,208,370418,1,8,1:0:0:0:
291,213,370590,1,0,0:0:0:0:
58,37,370761,1,0,1:0:0:0:
144,317,370933,1,0,1:0:0:0:
276,124,371104,6,0,B|344:135|344:135|388:204,1,135.000005149842,8|0,1:0|1:0,0:0:0:0:
168,241,371447,1,0,3:0:0:0:
145,199,371533,1,0,3:0:0:0:
153,153,371618,1,0,3:0:0:0:
185,119,371704,1,0,3:0:0:0:
231,111,371790,5,0,3:0:0:0:
276,124,371876,1,0,0:0:0:0:
321,128,371961,1,0,1:0:0:0:
364,116,372047,1,0,0:0:0:0:
400,88,372133,6,0,B|412:128|436:152|436:152|428:192|436:232,1,153.000002918243,0|0,1:0|0:0,0:0:0:0:
364,304,372390,1,0,0:0:0:0:
328,320,372476,2,0,B|284:328|248:352|248:352|216:328|180:320,1,153.000002918243,8|0,1:0|0:0,0:0:0:0:
20,122,372818,2,0,B|48:96|48:58|48:58|96:56|136:22,1,153.000002918243,0|0,0:0|1:0,1:0:0:0:
220,24,373076,1,0,0:0:0:0:
262,22,373161,2,0,B|297:51|338:53|338:53|337:91|366:117,1,153.000002918243,8|0,1:0|1:0,1:0:0:0:
168,316,373504,5,0,0:0:0:0:
128,289,373590,1,0,0:0:0:0:
108,246,373676,1,0,1:0:0:0:
110,199,373761,1,0,0:0:0:0:
135,160,373847,1,8,1:0:0:0:
176,138,373933,1,0,0:0:0:0:
223,139,374018,1,0,0:0:0:0:
264,163,374104,1,0,0:0:0:0:
292,201,374190,5,0,0:0:0:0:
279,246,374276,1,0,0:0:0:0:
289,291,374361,1,0,1:0:0:0:
322,326,374447,1,0,0:0:0:0:
367,339,374533,1,8,1:0:0:0:
413,329,374618,1,0,0:0:0:0:
448,298,374704,1,0,0:0:0:0:
463,254,374790,1,0,0:0:0:0:
464,207,374876,6,0,B|422:168|422:168|342:168,1,135.000005149842,0|0,1:0|0:0,0:0:0:0:
279,246,375133,1,0,0:0:0:0:
239,246,375218,2,0,B|163:246|163:246|120:205,1,135.000005149842,8|0,1:0|0:0,0:0:0:0:
128,28,375561,1,0,0:0:0:0:
8,256,375733,1,0,1:0:0:0:
344,168,375904,1,8,1:0:0:0:
208,360,376076,1,0,0:0:0:0:
120,128,376247,6,0,P|82:89|-6:112,1,135,0|0,1:0|0:0,0:0:0:0:
52,156,376590,1,8,1:0:0:0:
344,168,376761,1,0,0:0:0:0:
344,168,376847,1,0,0:0:0:0:
344,168,376933,2,0,L|308:204,1,45,0|0,1:0|0:0,0:0:0:0:
144,256,377104,2,0,L|180:216,1,45,0|0,1:0|0:0,0:0:0:0:
224,88,377276,2,0,L|256:56,1,45,8|0,1:0|0:0,0:0:0:0:
420,78,377447,6,0,B|460:70|492:90|492:90|492:130|476:174,1,135.000005149842,0|0,1:0|0:0,0:0:0:0:
461,245,377704,1,0,0:0:0:0:
440,280,377790,2,0,B|417:307|389:319|389:319|345:307|325:267,1,135.000005149842,0|8,1:0|1:0,0:0:0:0:
344,168,378133,1,0,0:0:0:0:
146,156,378304,2,0,B|106:148|74:168|74:168|74:208|90:252,1,135.000005149842,0|0,1:0|1:0,0:0:0:0:
136,312,378561,1,0,0:0:0:0:
168,336,378647,2,0,B|199:352|229:354|229:354|256:328|260:288,1,135.000005149842,8|0,1:0|1:0,0:0:0:0:
144,64,378990,5,0,0:0:0:0:
98,47,379076,1,0,0:0:0:0:
52,56,379161,1,0,1:0:0:0:
17,86,379247,1,0,0:0:0:0:
2,130,379333,1,8,1:0:0:0:
7,177,379418,1,0,0:0:0:0:
39,211,379504,1,0,0:0:0:0:
83,228,379590,1,0,0:0:0:0:
127,226,379676,5,0,1:0:0:0:
138,272,379761,1,0,0:0:0:0:
171,305,379847,1,0,1:0:0:0:
216,317,379933,1,0,0:0:0:0:
261,306,380018,1,8,1:0:0:0:
293,274,380104,1,0,0:0:0:0:
308,230,380190,1,0,0:0:0:0:
297,184,380276,1,0,0:0:0:0:
263,154,380361,6,0,B|248:126|216:106|216:106|204:74|236:42,1,135.000005149842,0|0,1:0|0:0,0:0:0:0:
332,43,380618,1,0,0:0:0:0:
376,43,380704,2,0,B|417:42|431:74|431:74|421:108|432:141,1,135.000005149842,8|0,1:0|0:0,0:0:0:0:
424,336,381047,1,0,1:0:0:0:
512,107,381218,1,0,1:0:0:0:
263,154,381390,1,8,1:0:0:0:
480,236,381561,1,0,1:0:0:0:
312,69,381733,5,0,0:0:0:0:
269,56,381818,1,0,0:0:0:0:
225,63,381904,1,0,0:0:0:0:
189,89,381990,1,0,0:0:0:0:
168,128,382076,1,0,0:0:0:0:
166,173,382161,1,0,0:0:0:0:
185,214,382247,1,0,0:0:0:0:
220,242,382333,1,0,0:0:0:0:
268,247,382418,5,0,3:0:0:0:
268,291,382504,1,0,3:0:0:0:
250,332,382590,1,0,3:0:0:0:
216,361,382676,1,0,3:0:0:0:
173,372,382761,1,0,3:0:0:0:
129,364,382847,1,0,3:0:0:0:
93,338,382933,1,0,3:0:0:0:
72,299,383018,1,0,3:0:0:0:
68,255,383104,6,0,B|68:207|68:207|56:167|56:167|87:164|115:142,1,153.000002918243,4|0,1:2|0:0,0:0:0:0:
197,92,383361,1,0,0:0:0:0:
225,63,383447,2,0,B|249:46|264:17|264:17|308:41|308:41|364:41,1,153.000002918243,8|0,1:0|0:0,0:0:0:0:
456,216,383790,2,0,B|460:248|488:272|488:272|440:300|436:344,1,153.000002918243,0|0,1:0|0:0,0:0:0:0:
336,344,384047,1,0,0:0:0:0:
292,336,384133,2,0,B|280:300|236:272|236:272|267:250|271:218,1,153.000002918243,8|0,1:0|0:0,0:0:0:0:
296,40,384476,5,0,0:0:0:0:
257,11,384561,1,0,0:0:0:0:
212,3,384647,1,0,1:0:0:0:
168,17,384733,1,0,0:0:0:0:
136,49,384818,1,8,1:0:0:0:
120,93,384904,1,0,0:0:0:0:
129,139,384990,1,0,0:0:0:0:
157,175,385076,1,0,0:0:0:0:
197,191,385161,5,0,0:0:0:0:
203,237,385247,1,0,0:0:0:0:
186,281,385333,1,0,1:0:0:0:
151,311,385418,1,0,0:0:0:0:
106,322,385504,1,8,1:0:0:0:
61,311,385590,1,0,0:0:0:0:
26,280,385676,1,0,0:0:0:0:
9,237,385761,1,0,0:0:0:0:
13,192,385847,6,0,B|26:123|26:123|78:78,1,135.000005149842,0|0,1:0|0:0,0:0:0:0:
173,78,386104,1,0,0:0:0:0:
211,91,386190,2,0,B|257:130|257:130|266:204,1,135.000005149842,8|0,1:0|0:0,0:0:0:0:
118,361,386533,2,0,B|49:337|49:337|23:274,1,135.000005149842,0|0,0:0|1:0,0:0:0:0:
106,28,386876,1,8,1:0:0:0:
190,281,387047,1,0,0:0:0:0:
285,47,387218,6,0,P|333:-1|401:7,1,135.000005149842,0|0,1:0|0:0,0:0:0:0:
420,276,387561,2,0,P|406:335|344:368,1,135.000005149842,8|0,1:0|0:0,0:0:0:0:
104,296,387904,1,0,1:0:0:0:
364,124,388076,1,0,1:0:0:0:
240,364,388247,1,8,1:0:0:0:
120,124,388418,1,0,1:0:0:0:
364,124,388590,6,0,B|424:124|424:124|448:100|448:100|512:100,1,153.000002918243,0|0,1:0|0:0,0:0:0:0:
480,208,388847,1,0,0:0:0:0:
440,232,388933,2,0,B|396:232|396:232|372:220|372:220|336:248|336:248|300:220,1,153.000002918243,8|0,1:0|0:0,0:0:0:0:
120,124,389276,2,0,B|80:168|80:168|80:204|80:204|44:248,1,153.000002918243,0|0,1:0|1:0,0:0:0:0:
138,272,389533,1,0,0:0:0:0:
168,237,389618,2,0,B|188:209|188:209|188:185|188:185|216:173|216:173|216:141|216:141|236:117,1,153.000002918243,8|0,1:0|0:0,0:0:0:0:
472,112,389961,5,0,0:0:0:0:
472,112,390047,1,0,0:0:0:0:
472,112,390133,2,0,L|472:164,1,45,0|0,1:0|0:0,0:0:0:0:
376,364,390304,1,8,1:0:0:0:
292,118,390476,5,0,0:0:0:0:
272,77,390561,1,0,0:0:0:0:
237,50,390647,1,0,0:0:0:0:
194,42,390733,1,0,0:0:0:0:
152,55,390818,1,0,1:0:0:0:
120,85,390904,1,0,0:0:0:0:
107,127,390990,2,0,B|112:168|93:197|93:197|137:243,1,135.000005149842,8|0,1:0|0:0,0:0:0:0:
376,364,391333,6,0,B|432:364|452:320|452:320|412:264,1,153.000002918243,0|0,1:0|0:0,0:0:0:0:
330,225,391590,1,0,0:0:0:0:
294,203,391676,2,0,B|248:156|264:108|264:108|316:88,1,153.000002918243,8|0,1:0|0:0,0:0:0:0:
512,153,392018,5,0,0:0:0:0:
512,153,392104,1,0,0:0:0:0:
512,153,392190,2,0,L|474:195,1,45,0|0,1:0|0:0,0:0:0:0:
293,361,392361,1,8,1:0:0:0:
256,96,392533,1,0,0:0:0:0:
6,153,392704,5,0,1:0:0:0:
6,153,392790,1,0,0:0:0:0:
6,153,392876,6,0,L|44:195,1,45,0|0,1:0|0:0,0:0:0:0:
225,361,393047,1,8,1:0:0:0:
256,96,393218,1,0,0:0:0:0:
384,214,393390,5,0,3:0:0:0:
392,259,393476,1,0,3:0:0:0:
383,304,393561,1,0,3:0:0:0:
356,342,393647,1,0,3:0:0:0:
316,366,393733,1,8,1:0:0:0:
270,373,393818,1,0,0:0:0:0:
225,361,393904,1,0,1:0:0:0:
189,332,393990,1,0,0:0:0:0:
160,294,394076,6,0,B|167:256|136:225|136:225|147:181|196:173,1,153.000002918243,0|0,1:0|0:0,0:0:0:0:
292,160,394333,1,0,0:0:0:0:
328,136,394418,2,0,B|344:112|348:80|348:80|316:40|252:60,1,153.000002918243,8|0,1:0|0:0,0:0:0:0:
31,178,394761,2,0,B|35:223|10:253|10:253|15:295|69:295,1,153.000002918243,0|0,0:0|1:0,0:0:0:0:
160,294,395018,1,0,0:0:0:0:
200,292,395104,2,0,B|232:285|232:285|188:232|223:173,1,153.000002918243,8|0,1:0|0:0,0:0:0:0:
398,57,395447,5,0,0:0:0:0:
446,64,395533,1,0,0:0:0:0:
482,97,395618,1,0,1:0:0:0:
498,142,395704,1,0,0:0:0:0:
492,191,395790,1,8,1:0:0:0:
463,231,395876,1,0,0:0:0:0:
420,252,395961,1,0,0:0:0:0:
371,252,396047,1,0,0:0:0:0:
326,240,396133,5,0,0:0:0:0:
326,190,396218,1,0,0:0:0:0:
305,146,396304,1,0,1:0:0:0:
266,116,396390,1,0,0:0:0:0:
217,110,396476,1,8,1:0:0:0:
172,125,396561,1,0,0:0:0:0:
138,161,396647,1,0,0:0:0:0:
126,207,396733,1,0,0:0:0:0:
130,256,396818,6,0,B|150:328|150:328|106:368,1,135.000005149842,0|0,1:0|0:0,0:0:0:0:
16,322,397076,1,0,0:0:0:0:
0,286,397161,2,0,P|-8:218|27:162,1,135.000005149842,8|0,1:0|0:0,0:0:0:0:
196,40,397504,2,0,P|270:55|317:105,1,135.000005149842,0|0,0:0|1:0,0:0:0:0:
320,292,397847,2,0,P|270:350|204:368,1,135.000005149842,8|0,1:0|0:0,0:0:0:0:
112,192,398190,5,0,1:0:0:0:
112,192,398276,1,0,0:0:0:0:
112,192,398361,2,0,L|152:160,1,45
300,32,398533,2,0,B|308:68|308:68|288:104|288:104|300:140|288:180,1,135.000005149842,8|0,1:0|0:0,0:0:0:0:
256,360,398876,1,0,1:0:0:0:
112,192,399047,1,0,1:0:0:0:
412,193,399218,1,8,1:0:0:0:
168,328,399390,6,0,B|132:273|132:273|78:282|48:244,1,153.000002918243,0|0,1:0|0:0,0:0:0:0:
36,224,399647,1,0,0:0:0:0:
30,195,399733,1,0,1:0:0:0:
136,36,399904,2,0,B|204:-4|204:-4|220:40|256:56,1,153.000002918243,8|0,1:0|0:0,0:0:0:0:
487,159,400247,2,0,B|456:88|456:88|419:111|371:103,1,153.000002918243,0|0,1:0|1:0,1:0:0:0:
189,198,400590,2,0,B|201:242|145:278|145:278|169:330,1,153.000002918243,8|0,1:0|1:0,0:0:0:0:
368,304,400933,5,0,0:0:0:0:
407,276,401018,1,0,0:0:0:0:
426,232,401104,1,0,1:0:0:0:
418,185,401190,1,0,0:0:0:0:
386,149,401276,1,8,1:0:0:0:
340,136,401361,1,0,0:0:0:0:
294,150,401447,1,0,0:0:0:0:
263,186,401533,1,0,0:0:0:0:
246,228,401618,5,0,0:0:0:0:
221,268,401704,1,0,0:0:0:0:
177,289,401790,1,0,1:0:0:0:
130,283,401876,1,0,0:0:0:0:
93,253,401961,1,8,1:0:0:0:
77,208,402047,1,0,0:0:0:0:
89,161,402133,1,0,0:0:0:0:
124,128,402218,1,0,0:0:0:0:
168,112,402304,6,0,B|196:104|227:112|227:112|226:50|277:17,1,153.000002918243,0|0,1:0|0:0,0:0:0:0:
324,104,402561,1,0,0:0:0:0:
368,104,402647,2,0,B|397:115|432:104|432:104|444:172|408:216,1,153.000002918243,8|0,1:0|0:0,0:0:0:0:
196,300,402990,1,0,1:0:0:0:
448,296,403161,1,0,1:0:0:0:
324,104,403333,1,8,1:0:0:0:
324,348,403504,1,0,1:0:0:0:
132,164,403676,6,0,L|100:208,1,45
156,356,403847,2,0,L|192:304,1,45
284,172,404018,2,0,L|255:215,1,45
324,348,404190,2,0,L|360:296,1,45
372,136,404361,5,0,3:0:0:0:
347,98,404446,1,0,3:0:0:0:
308,77,404532,1,0,3:0:0:0:
263,76,404618,1,0,3:0:0:0:
223,95,404703,1,0,3:0:0:0:
197,131,404789,1,0,3:0:0:0:
190,175,404875,1,0,3:0:0:0:
204,217,404960,1,0,3:0:0:0:
236,252,405047,6,0,B|292:280|348:244|348:244|400:300,1,180,0|8,0:0|0:0,0:0:0:0:
364,144,406076,1,0,0:0:0:0:
428,90,406247,2,0,P|361:61|304:87,1,135
200,296,407104,1,8,1:0:0:0:
132,208,407276,2,0,P|106:204|84:208,2,45
279,345,407790,6,0,P|302:348|324:344,1,45
260,220,408133,1,0,0:0:0:0:
324,112,408304,1,0,0:0:0:0:
232,32,408476,2,0,B|180:32|180:32|160:72,1,90,8|0,1:0|0:0,0:0:0:0:
60,183,408990,2,0,B|60:144|60:144|104:120,1,90
92,284,409504,6,0,B|124:312|124:312|176:296,1,90,0|8,0:0|1:0,0:0:0:0:
424,212,410190,1,0,0:0:0:0:
180,208,410533,2,0,B|179:160|179:160|203:120,1,90
412,40,411218,1,8,1:0:0:0:
360,322,411561,1,0,0:0:0:0:
300,242,411733,2,0,B|336:186|384:246|432:206,1,135
80,136,412590,5,8,1:0:0:0:
12,196,412761,2,0,L|12:248,2,45
80,136,413276,2,0,P|100:95|139:82,1,90
244,200,413790,5,0,0:0:0:0:
140,81,413961,2,0,P|157:39|205:20,1,90,8|0,1:0|0:0,0:0:0:0:
328,20,414476,1,0,0:0:0:0:
36,208,414990,5,0,0:0:0:0:
36,308,415333,2,0,P|16:356|0:368,1,62.9999980773926,0|0,1:0|0:0,0:0:0:0:
340,84,416018,6,0,B|360:56|405:52|405:52|433:8|433:8|451:27|485:28,1,180,0|0,1:0|0:0,0:0:0:0:
481,154,416276,1,0,0:0:0:0:
443,204,416361,2,0,B|403:212|379:244|379:244|327:244|327:244|330:271|316:305,1,180,8|0,1:0|0:0,0:0:0:0:
123,278,416704,6,0,B|72:282|72:282|59:224|59:224|17:207|5:179,1,180,0|0,1:0|1:0,0:0:0:0:
19,46,416961,1,0,0:0:0:0:
72,8,417047,2,0,B|101:7|119:-11|119:-11|147:32|147:32|192:36|212:64,1,180,0|0,1:0|0:0,0:0:0:0:
224,310,417390,5,0,0:0:0:0:
256,348,417475,1,0,0:0:0:0:
301,369,417561,1,0,1:0:0:0:
351,370,417647,1,0,0:0:0:0:
397,350,417732,1,8,1:0:0:0:
431,312,417818,1,0,0:0:0:0:
446,263,417904,1,0,0:0:0:0:
439,213,417989,1,0,0:0:0:0:
420,166,418076,5,0,0:0:0:0:
369,171,418161,1,0,0:0:0:0:
325,195,418247,1,0,1:0:0:0:
294,235,418333,1,0,0:0:0:0:
270,280,418418,1,8,1:0:0:0:
239,320,418504,1,0,0:0:0:0:
193,340,418590,1,0,0:0:0:0:
143,332,418675,1,0,0:0:0:0:
99,303,418761,6,0,B|68:235|123:188|123:188|134:212|163:223,1,170.999995433807,0|0,1:0|0:0,0:0:0:0:
270,280,419018,1,0,0:0:0:0:
321,300,419104,2,0,B|376:328|434:286|434:286|412:268|407:242,1,170.999995433807,8|0,1:0|0:0,0:0:0:0:
249,51,419447,1,0,0:0:0:0:
80,250,419618,1,0,1:0:0:0:
412,250,419790,1,8,1:0:0:0:
248,356,419961,1,0,0:0:0:0:
240,144,420133,5,0,1:0:0:0:
233,96,420218,1,0,0:0:0:0:
249,51,420304,1,0,0:0:0:0:
285,18,420390,1,0,0:0:0:0:
331,6,420476,1,8,1:0:0:0:
379,18,420561,1,0,0:0:0:0:
414,50,420647,1,0,0:0:0:0:
431,95,420733,1,0,0:0:0:0:
418,140,420818,6,0,B|393:183|393:183|337:183|337:183|301:207,1,135.000005149842,0|0,1:0|1:0,1:0:0:0:
84,368,421161,1,8,1:0:0:0:
92,104,421333,1,0,1:0:0:0:
283,337,421504,6,0,B|338:372|338:372|370:340|370:340|405:347|430:336,1,166.499999364853,0|0,1:0|0:0,0:0:0:0:
428,195,421761,1,0,0:0:0:0:
418,140,421847,2,0,B|389:77|389:77|345:86|345:86|313:72|280:92,1,166.499999364853,8|0,1:0|0:0,0:0:0:0:
92,104,422190,1,0,0:0:0:0:
213,310,422361,1,0,1:0:0:0:
216,0,422533,1,8,1:0:0:0:
88,192,422704,1,0,0:0:0:0:
346,182,422876,5,0,0:0:0:0:
381,180,422961,1,0,0:0:0:0:
420,194,423047,1,0,1:0:0:0:
449,220,423133,1,0,0:0:0:0:
463,269,423218,1,8,1:0:0:0:
458,316,423304,1,0,0:0:0:0:
426,352,423390,1,0,0:0:0:0:
377,374,423476,1,0,0:0:0:0:
304,367,423561,6,0,B|272:344|228:356|228:356|200:336|192:288,1,135.000005149842,0|0,0:0|1:0,0:0:0:0:
168,44,423904,1,8,1:0:0:0:
40,284,424076,1,0,0:0:0:0:
336,280,424247,6,0,B|384:288|416:316|416:316|448:292|456:252,1,161.999995056153,0|0,1:0|0:0,0:0:0:0:
456,124,424504,1,0,0:0:0:0:
440,77,424590,2,0,B|408:57|392:21|392:21|340:25|312:65,1,161.999995056153,8|0,1:0|0:3,0:3:0:0:
228,136,424847,1,0,0:0:0:0:
200,176,424933,2,0,B|192:212|168:236|168:236|140:212|132:164,1,135.000005149842,0|0,0:0|1:0,0:3:0:0:
80,28,425276,1,8,1:0:0:0:
32,288,425447,1,0,0:0:0:0:
280,208,425618,5,0,1:0:0:0:
280,208,425704,1,0,0:0:0:0:
280,208,425790,2,0,L|334:258,1,45,0|0,1:0|0:0,0:0:0:0:
445,356,425961,1,8,1:0:0:0:
320,102,426133,5,0,1:0:0:0:
296,92,426218,1,0,0:0:0:0:
271,90,426304,1,0,0:0:0:0:
246,93,426390,1,0,0:0:0:0:
214,107,426475,1,0,0:0:0:0:
181,136,426561,1,0,0:0:0:0:
158,185,426647,1,8,1:0:0:0:
161,242,426733,1,0,0:0:0:0:
188,298,426818,1,0,1:0:0:0:
259,331,426904,1,0,0:0:0:0:
349,331,426990,6,0,B|385:323|389:283|389:283|421:275|421:275|434:218|501:222,1,180,0|0,1:0|0:0,0:0:0:0:
439,88,427247,1,0,0:0:0:0:
421,34,427333,2,0,B|400:31|387:15|387:15|351:33|351:33|296:-3|228:26,1,180,8|0,1:0|0:0,0:0:0:0:
161,331,427676,6,0,B|125:323|121:283|121:283|89:275|89:275|76:218|9:222,1,180,0|0,1:0|0:0,0:0:0:0:
71,88,427933,1,0,0:0:0:0:
89,34,428019,2,0,B|110:31|123:15|123:15|159:33|159:33|214:-3|282:26,1,180,8|0,1:0|0:0,0:0:0:0:
161,331,428361,5,0,0:0:0:0:
148,283,428446,1,0,0:0:0:0:
156,235,428532,1,0,1:0:0:0:
185,194,428618,1,0,0:0:0:0:
227,171,428703,1,8,1:0:0:0:
275,167,428789,1,0,0:0:0:0:
321,183,428875,1,0,0:0:0:0:
356,218,428960,1,0,0:0:0:0:
377,261,429047,5,0,0:3:0:0:
391,213,429133,1,0,0:3:0:0:
388,161,429218,1,0,1:3:0:0:
369,115,429304,1,0,0:3:0:0:
335,78,429390,1,8,1:0:0:0:
291,51,429476,1,0,0:3:0:0:
241,40,429561,1,0,0:3:0:0:
191,49,429647,1,0,0:3:0:0:
150,81,429733,6,0,B|148:131|148:131|120:159|120:159|129:206|96:235,1,161.999995056153,0|0,1:0|0:0,0:0:0:0:
249,195,429990,1,0,0:0:0:0:
304,195,430076,2,0,B|336:195|336:195|372:208|412:193|412:193|416:231|436:251,1,161.999995056153,8|0,1:0|0:0,0:0:0:0:
192,344,430418,1,0,0:0:0:0:
369,115,430590,1,0,1:0:0:0:
512,332,430761,2,0,B|487:360|452:357|452:357|416:329|416:329|387:359|320:355,1,161.999995056153,8|0,1:0|0:0,0:0:0:0:
192,344,431104,5,0,1:0:0:0:
182,294,431189,1,0,0:0:0:0:
159,249,431275,1,0,0:0:0:0:
126,211,431361,1,0,0:0:0:0:
84,183,431446,1,8,1:0:0:0:
132,172,431533,1,0,0:0:0:0:
182,175,431618,1,0,0:0:0:0:
229,192,431704,1,0,0:0:0:0:
266,220,431790,5,0,1:0:0:0:
261,167,431876,1,0,0:0:0:0:
290,123,431961,1,0,1:0:0:0:
338,103,432047,1,0,0:0:0:0:
389,116,432133,1,8,1:0:0:0:
422,157,432218,1,0,0:0:0:0:
425,209,432304,1,0,1:0:0:0:
396,253,432390,1,0,0:0:0:0:
345,270,432476,6,0,B|309:287|277:267|277:267|245:323|173:311,1,175.500000669479,0|0,1:0|0:0,0:0:0:0:
96,188,432733,1,0,0:0:0:0:
84,132,432818,2,0,B|69:85|100:24|100:24|104:76|152:96,1,175.500000669479,8|0,1:0|0:0,0:0:0:0:
277,190,433161,1,0,1:0:0:0:
0,188,433333,1,0,1:0:0:0:
200,8,433504,1,8,1:0:0:0:
193,305,433676,1,0,1:0:0:0:
412,146,433847,6,0,L|472:100,1,45
228,277,434018,2,0,L|172:320,1,45,0|0,1:0|0:0,0:0:0:0:
408,304,434190,2,0,L|460:364,1,45,8|0,1:0|0:0,0:0:0:0:
252,112,434361,2,0,L|208:60,1,45
316,348,434533,1,0,0:0:0:0:
348,56,434704,1,0,1:0:0:0:
124,184,434876,1,8,1:0:0:0:
316,348,435047,1,0,0:0:0:0:
16,224,435218,6,0,B|-16:184|-16:184|-4:152|-16:112|-16:112|20:76,1,170.999995433807,0|0,1:0|0:0,0:0:0:0:
148,96,435476,1,0,0:0:0:0:
188,132,435561,2,0,B|215:157|216:196|216:196|268:212|316:160,1,161.999995056153,8|0,1:0|0:0,0:0:0:0:
484,96,435904,5,0,1:0:0:0:
256,288,436076,1,0,1:0:0:0:
256,4,436247,1,8,1:0:0:0:
427,261,436418,1,0,1:0:0:0:
167,347,436590,5,0,0:0:0:0:
126,338,436675,1,0,0:0:0:0:
89,314,436761,1,0,0:0:0:0:
63,277,436847,1,0,0:0:0:0:
48,231,436932,1,0,0:0:0:0:
50,184,437018,1,0,0:0:0:0:
72,132,437104,1,0,0:0:0:0:
123,96,437189,1,0,0:0:0:0:
196,94,437276,5,0,3:0:0:0:
209,136,437361,1,0,3:0:0:0:
208,186,437447,1,0,3:0:0:0:
195,233,437533,1,0,3:0:0:0:
192,280,437618,1,0,3:0:0:0:
213,323,437704,1,0,3:0:0:0:
258,342,437790,1,0,3:0:0:0:
305,329,437876,1,0,3:0:0:0:
337,293,437961,6,0,P|355:233|340:180,1,116.999994644165,0|0,1:0|0:0,0:0:0:0:
120,20,438304,1,8,1:0:0:0:
356,24,438476,1,0,0:0:0:0:
356,24,438561,1,0,0:0:0:0:
356,24,438647,2,0,L|324:84,1,45
240,216,438818,1,0,1:0:0:0:
240,216,438904,1,0,0:0:0:0:
240,216,438990,2,0,P|256:264|320:284,1,116.999994644165,8|0,1:0|0:0,0:0:0:0:
424,276,439247,1,0,0:0:0:0:
424,276,439333,6,0,P|476:216|472:184,1,116.999994644165,0|0,0:0|1:0,0:0:0:0:
212,92,439676,1,8,1:0:0:0:
80,272,439847,1,0,0:0:0:0:
105,302,439933,1,0,0:0:0:0:
139,320,440018,1,0,0:0:0:0:
177,326,440104,1,0,0:0:0:0:
215,318,440190,1,0,1:0:0:0:
248,297,440276,1,0,0:0:0:0:
271,266,440361,1,8,1:0:0:0:
404,84,440533,1,0,0:0:0:0:
424,321,440704,5,0,1:0:0:0:
424,321,440790,1,0,0:0:0:0:
424,321,440876,2,0,L|424:273,1,45
356,160,441047,1,8,1:0:0:0:
321,132,441133,1,0,0:0:0:0:
280,119,441218,1,0,0:0:0:0:
236,121,441304,1,0,0:0:0:0:
197,139,441390,1,0,0:0:0:0:
166,170,441476,1,0,0:0:0:0:
148,210,441561,1,0,1:0:0:0:
146,254,441647,1,0,0:0:0:0:
153,298,441733,2,0,B|226:315|257:246,1,116.999994644165,8|0,1:0|0:0,0:0:0:0:
101,102,442076,5,0,1:0:0:0:
126,143,442161,1,0,0:0:0:0:
166,170,442247,1,0,0:0:0:0:
214,177,442333,1,0,0:0:0:0:
260,168,442418,2,0,B|288:160|328:128|328:128|376:128,1,116.999994644165,8|0,1:0|0:0,0:0:0:0:
412,128,442676,1,0,0:0:0:0:
456,128,442761,2,0,L|456:188,1,45,0|0,1:0|0:0,0:0:0:0:
364,320,442933,2,0,L|364:272,1,45,0|0,1:0|0:0,0:0:0:0:
336,52,443104,1,8,1:0:0:0:
204,292,443276,1,0,1:0:0:0:
184,117,443447,5,0,1:0:0:0:
207,78,443533,1,0,0:0:0:0:
245,52,443618,1,0,0:0:0:0:
291,45,443704,1,0,0:0:0:0:
336,52,443790,1,8,1:0:0:0:
444,188,443961,5,0,0:0:0:0:
405,191,444047,1,0,0:0:0:0:
368,205,444133,1,0,0:0:0:0:
337,228,444218,1,0,0:0:0:0:
312,258,444304,1,0,1:0:0:0:
297,294,444390,1,0,0:0:0:0:
291,332,444476,1,8,1:0:0:0:
96,256,444647,1,0,0:0:0:0:
96,256,444733,1,0,0:0:0:0:
96,256,444818,6,0,L|144:276,1,45
248,316,444990,2,0,L|298:335,1,45,0|0,1:0|0:0,0:0:0:0:
404,372,445161,1,8,1:0:0:0:
430,343,445247,1,0,0:0:0:0:
443,307,445333,1,0,0:0:0:0:
443,268,445418,1,0,0:0:0:0:
428,232,445504,1,0,0:0:0:0:
401,204,445590,1,0,0:0:0:0:
365,189,445676,1,0,1:0:0:0:
136,236,445847,2,0,P|72:256|24:224,1,116.999994644165,8|0,1:0|0:0,0:0:0:0:
22,209,446104,1,0,0:0:0:0:
18,185,446190,6,0,P|34:121|82:97,1,116.999994644165,0|0,1:0|0:0,0:0:0:0:
180,296,446533,1,8,1:0:0:0:
128,52,446704,1,0,0:0:0:0:
160,30,446790,1,0,0:0:0:0:
197,19,446876,1,0,0:0:0:0:
236,20,446961,1,0,0:0:0:0:
272,34,447047,1,0,1:0:0:0:
302,59,447133,1,0,0:0:0:0:
321,91,447218,2,0,P|333:151|309:219,1,116.999994644165,8|0,1:0|0:0,0:0:0:0:
0,112,447561,5,0,1:0:0:0:
108,312,447733,1,0,1:0:0:0:
0,112,447904,1,8,1:0:0:0:
216,112,448076,1,0,1:0:0:0:
9,270,448247,5,0,3:0:0:0:
32,235,448333,1,0,3:0:0:0:
66,213,448418,1,0,3:0:0:0:
106,206,448504,1,0,3:0:0:0:
152,212,448590,5,8,1:0:0:0:
167,187,448676,1,0,0:0:0:0:
182,162,448761,1,0,0:0:0:0:
197,137,448847,1,0,0:0:0:0:
212,112,448933,6,0,P|284:108|323:142,1,116.999994644165,0|0,1:0|0:0,0:0:0:0:
328,159,449190,1,0,0:0:0:0:
333,188,449276,2,0,L|335:239,1,45,8|0,1:0|0:0,0:0:0:0:
396,368,449447,2,0,L|432:320,1,45
512,228,449618,1,0,0:0:0:0:
512,228,449704,1,0,0:0:0:0:
512,228,449790,2,0,L|448:228,1,45,0|0,1:0|0:0,0:0:0:0:
248,228,449961,1,8,1:0:0:0:
67,280,450133,5,0,0:0:0:0:
45,247,450218,1,0,0:0:0:0:
35,210,450304,1,0,0:0:0:0:
38,171,450390,1,0,0:0:0:0:
55,136,450476,1,0,1:0:0:0:
82,108,450561,1,0,0:0:0:0:
123,92,450647,6,0,P|163:140|219:144,1,116.999994644165,8|0,1:0|0:0,0:0:0:0:
239,131,450904,1,0,0:0:0:0:
261,109,450990,2,0,L|293:65,1,45
428,16,451161,2,0,L|400:64,1,45,0|0,1:0|0:0,0:0:0:0:
328,196,451333,1,8,1:0:0:0:
312,220,451418,1,0,0:0:0:0:
304,248,451504,1,0,0:0:0:0:
305,277,451590,1,0,0:0:0:0:
312,304,451676,6,0,L|372:304,1,45,0|0,1:0|0:0,0:0:0:0:
503,196,451847,2,0,L|443:196,1,45
328,196,452018,2,0,L|268:196,1,45,8|0,1:0|0:0,0:0:0:0:
116,220,452190,1,0,0:0:0:0:
110,181,452276,1,0,0:0:0:0:
117,143,452361,1,0,0:0:0:0:
137,110,452447,1,0,0:0:0:0:
167,86,452533,1,0,1:0:0:0:
204,73,452618,1,0,0:0:0:0:
244,72,452704,2,0,P|296:92|332:156,1,116.999994644165,8|0,1:0|0:0,0:0:0:0:
304,324,453047,5,0,1:0:0:0:
265,330,453132,1,0,0:0:0:0:
229,318,453218,1,0,0:0:0:0:
202,290,453304,1,0,0:0:0:0:
192,252,453390,2,0,P|204:184|244:152,1,116.999994644165,8|0,1:0|0:0,0:0:0:0:
267,150,453647,1,0,0:0:0:0:
299,150,453733,2,0,L|358:150,1,45,0|0,1:0|0:0,0:0:0:0:
512,40,453904,2,0,L|448:40,1,45,0|0,1:0|0:0,0:0:0:0:
296,28,454076,1,8,1:0:0:0:
254,14,454161,1,0,0:0:0:0:
211,15,454247,1,0,0:0:0:0:
170,31,454333,1,0,0:0:0:0:
136,64,454418,6,0,L|136:140,1,45,0|0,1:0|0:0,0:0:0:0:
136,368,454590,2,0,L|136:320,1,45,0|0,1:0|0:0,0:0:0:0:
0,208,454761,1,8,1:0:0:0:
296,208,454933,1,0,0:0:0:0:
334,201,455018,1,0,0:0:0:0:
365,179,455104,1,0,1:0:0:0:
382,145,455190,1,0,0:0:0:0:
382,107,455276,1,0,1:0:0:0:
363,72,455361,1,0,0:0:0:0:
332,50,455447,1,8,1:0:0:0:
136,64,455618,1,0,1:0:0:0:
372,308,455961,5,0,1:0:0:0:
171,307,456133,1,8,1:0:0:0:
127,310,456218,1,0,0:0:0:0:
86,293,456304,1,0,0:0:0:0:
58,260,456390,1,0,0:0:0:0:
48,218,456476,1,0,0:0:0:0:
58,176,456561,1,0,0:0:0:0:
86,143,456647,1,0,1:0:0:0:
127,126,456733,5,0,0:0:0:0:
146,142,456818,1,8,1:0:0:0:
168,153,456904,1,0,0:0:0:0:
197,154,456990,1,0,0:0:0:0:
222,141,457076,1,0,0:0:0:0:
237,119,457161,2,0,P|238:91|260:57,1,45,0|0,1:0|0:0,0:0:0:0:
413,62,457333,2,0,P|427:96|424:132,1,45,0|0,1:0|0:0,0:0:0:0:
356,304,457504,1,8,1:0:0:0:
172,312,457676,5,0,0:0:0:0:
137,298,457761,1,0,0:0:0:0:
109,273,457847,1,0,1:0:0:0:
91,241,457933,1,0,0:0:0:0:
85,203,458018,1,0,1:0:0:0:
92,167,458104,1,0,0:0:0:0:
111,135,458190,1,8,1:0:0:0:
276,332,458361,1,0,1:0:0:0:
325,181,458533,6,0,L|351:239,1,45
445,314,458704,2,0,L|425:259,1,45
377,113,458876,1,0,0:0:0:0:
357,78,458961,1,0,0:0:0:0:
326,53,459047,1,0,0:0:0:0:
288,40,459133,1,0,0:0:0:0:
245,40,459218,5,0,3:0:0:0:
252,91,459304,1,0,3:0:0:0:
257,141,459390,1,0,3:0:0:0:
244,188,459476,1,0,3:0:0:0:
218,232,459561,5,0,1:0:0:0:
174,217,459647,1,0,1:0:0:0:
128,214,459733,1,0,1:0:0:0:
82,225,459818,1,0,1:0:0:0:
39,246,459904,6,0,P|19:203|25:153,1,90,0|0,1:0|1:0,1:0:0:0:
173,45,460418,2,0,P|187:88|180:141,1,90,0|0,1:0|1:0,1:0:0:0:
121,318,460933,2,0,P|206:309|259:230,1,180
173,45,461961,6,0,P|212:72|230:120,1,90
289,301,462647,2,0,P|325:284|353:240,1,90
336,98,463161,2,0,B|296:98|272:46|272:46|252:100|200:100|200:100|229:148|229:148|171:186|166:267|205:318|275:336|341:318|349:255|354:238|354:238,1,562.5
365,168,465390,6,0,P|403:161|444:167,2,67.5
294,117,466161,6,0,P|257:110|225:117,2,67.5
377,117,466933,6,0,B|421:129|468:116|468:116|424:144|416:192|440:244,1,225
245,138,468133,2,0,P|224:183|180:199,1,90
234,318,468647,6,0,B|257:249|257:249|315:295|315:295|353:233|353:233|425:233|425:233|447:155|387:52|267:79|240:149,1,585
256,192,471561,12,0,479104,0:0:0:0:
