osu file format v14

[General]
AudioFilename: audio.mp3
AudioLeadIn: 0
PreviewTime: 116163
Countdown: 0
SampleSet: Soft
StackLeniency: 0.2
Mode: 0
LetterboxInBreaks: 0
EpilepsyWarning: 1
WidescreenStoryboard: 1

[Editor]
Bookmarks: 3988,45729,87466,117031,117033,151814,197033,240509,282248,323989,353555,381598,381816,382033,382250,382468,382685,382903,383120,383337,383555,383772,383989,384207,384424,384642,384857,423118,464857
DistanceSpacing: 1.2
BeatDivisor: 4
GridSize: 4
TimelineZoom: 2.5

[Metadata]
Title:Getsumen Hikou no Ririfa
TitleUnicode:月面飛行のリリファ
Artist:Kumagai Eri (CV: Seto Asami)
ArtistUnicode:熊谷絵里(CV:瀬戸麻沙美)
Creator:_kotachi_
Version:Moonflight
Source:音楽少女
Tags:瀬戸麻沙美 Seto Asami Ongaku shoujo ongaku shoujo taishi record electro.muster music electronic resonance girl rui shigurin S_o_h soh Wring Akitoshi caren_sk elchxyrlia lahphnya rrtyui Scaltinof Shirasaka koume syuoutoku1
BeatmapID:1873843
BeatmapSetID:896892

[Difficulty]
HPDrainRate:5
CircleSize:4
OverallDifficulty:8.5
ApproachRate:9.2
SliderMultiplier:1
SliderTickRate:1

[Events]
//Background and Video events
0,0,"Y_Y - Beater (68858507) .jpg",0,0
//Break Periods
2,381581,384289
//Storyboard Layer 0 (Background)
//Storyboard Layer 1 (Fail)
//Storyboard Layer 2 (Pass)
//Storyboard Layer 3 (Foreground)
//Storyboard Sound Samples

[TimingPoints]
3990,434.782608695652,4,2,1,40,1,0
3990,-100,4,2,1,50,0,0
17903,-80,4,2,1,50,0,0
20511,-133.333333333333,4,2,1,50,0,0
20729,-25,4,2,1,50,0,0
20946,-40,4,2,1,50,0,0
21381,-80,4,2,1,50,0,0
23989,-28.5714285714286,4,2,1,50,0,0
24424,-40,4,2,1,50,0,0
24859,-66.6666666666667,4,2,1,50,0,0
27468,-133.333333333333,4,2,1,50,0,0
27685,-25,4,2,1,50,0,0
27903,-40,4,2,1,50,0,0
31598,-31.25,4,2,1,50,0,0
32033,-32.258064516129,4,2,1,50,0,0
32468,-33.3333333333333,4,2,1,50,0,0
32903,-34.4827586206897,4,2,1,50,0,0
33337,-35.7142857142857,4,2,1,50,0,0
33772,-37.037037037037,4,2,1,50,0,0
34207,-38.4615384615385,4,2,1,50,0,0
34642,-40,4,2,1,50,0,0
35076,-41.6666666666667,4,2,1,50,0,0
35511,-43.4782608695652,4,2,1,50,0,0
35946,-45.4545454545455,4,2,1,50,0,0
36381,-47.6190476190476,4,2,1,50,0,0
36816,-50,4,2,1,50,0,0
37250,-52.6315789473684,4,2,1,50,0,0
37685,-55.5555555555556,4,2,1,50,0,0
38120,-58.8235294117647,4,2,1,50,0,0
38555,-62.5,4,2,1,50,0,0
38772,-66.6666666666667,4,2,1,50,0,0
43989,-66.6666666666667,4,2,1,30,0,0
44207,-62.5,4,2,1,30,0,0
44424,-58.8235294117647,4,2,1,40,0,0
44642,-55.5555555555556,4,2,1,40,0,0
44859,-52.6315789473684,4,2,1,50,0,0
45076,-50,4,2,1,50,0,0
45294,-47.6190476190476,4,2,1,60,0,0
45511,-45.4545454545455,4,2,1,60,0,0
45729,-66.6666666666667,4,2,1,65,0,0
47142,-66.6666666666667,4,2,1,5,0,0
47250,-66.6666666666667,4,2,1,85,0,0
47359,-66.6666666666667,4,2,1,5,0,0
47468,-66.6666666666667,4,2,1,65,0,0
47794,-66.6666666666667,4,2,1,5,0,0
47903,-66.6666666666667,4,2,1,65,0,0
48011,-66.6666666666667,4,2,1,5,0,0
48120,-66.6666666666667,4,2,1,65,0,0
48555,-66.6666666666667,4,2,1,5,0,0
48663,-66.6666666666667,4,2,1,65,0,0
48881,-66.6666666666667,4,2,1,5,0,0
48989,-66.6666666666667,4,2,1,65,0,0
49316,-66.6666666666667,4,2,1,65,0,0
50185,-66.6666666666667,4,2,1,5,0,0
50294,-66.6666666666667,4,2,1,65,0,0
50620,-66.6666666666667,4,2,1,5,0,0
50729,-66.6666666666667,4,2,1,85,0,0
51055,-66.6666666666667,4,2,1,5,0,0
51163,-66.6666666666667,4,2,1,65,0,0
54098,-66.6666666666667,4,2,1,5,0,0
54207,-66.6666666666667,4,2,1,85,0,0
54316,-66.6666666666667,4,2,1,5,0,0
54424,-66.6666666666667,4,2,1,65,0,0
54750,-66.6666666666667,4,2,1,5,0,0
54859,-66.6666666666667,4,2,1,65,0,0
54968,-66.6666666666667,4,2,1,5,0,0
55076,-66.6666666666667,4,2,1,65,0,0
55511,-66.6666666666667,4,2,1,5,0,0
55620,-66.6666666666667,4,2,1,65,0,0
55837,-66.6666666666667,4,2,1,5,0,0
55946,-66.6666666666667,4,2,1,65,0,0
56272,-66.6666666666667,4,2,1,65,0,0
57033,-66.6666666666667,4,2,1,5,0,0
57142,-66.6666666666667,4,2,1,65,0,0
57576,-66.6666666666667,4,2,1,5,0,0
57685,-66.6666666666667,4,2,1,85,0,0
58011,-66.6666666666667,4,2,1,5,0,0
58120,-66.6666666666667,4,2,1,65,0,0
64533,-66.6666666666667,4,2,1,5,0,0
64642,-66.6666666666667,4,2,1,85,0,0
64968,-66.6666666666667,4,2,1,5,0,0
65076,-66.6666666666667,4,2,1,65,0,0
71489,-66.6666666666667,4,2,1,5,0,0
71598,-66.6666666666667,4,2,1,85,0,0
71924,-66.6666666666667,4,2,1,5,0,0
72033,-66.6666666666667,4,2,1,65,0,0
74533,-66.6666666666667,4,2,1,5,0,0
74642,-66.6666666666667,4,2,1,85,0,0
74750,-66.6666666666667,4,2,1,5,0,0
74859,-66.6666666666667,4,2,1,65,0,0
76055,-66.6666666666667,4,2,1,5,0,0
76163,-66.6666666666667,4,2,1,65,0,0
76381,-66.6666666666667,4,2,1,5,0,0
76489,-66.6666666666667,4,2,1,65,0,0
76707,-66.6666666666667,4,2,1,5,0,0
76816,-66.6666666666667,4,2,1,65,0,0
77576,-66.6666666666667,4,2,1,5,0,0
77685,-66.6666666666667,4,2,1,65,0,0
78446,-66.6666666666667,4,2,1,5,0,0
78555,-66.6666666666667,4,2,1,85,0,0
78881,-66.6666666666667,4,2,1,5,0,0
78989,-66.6666666666667,4,2,1,65,0,0
80185,-66.6666666666667,4,2,1,5,0,0
80294,-66.6666666666667,4,2,1,65,0,0
81381,-66.6666666666667,4,2,1,65,0,0
81489,-66.6666666666667,4,2,1,5,0,0
81598,-66.6666666666667,4,2,1,65,0,0
81707,-66.6666666666667,4,2,1,5,0,0
81816,-66.6666666666667,4,2,1,65,0,0
83011,-66.6666666666667,4,2,1,5,0,0
83120,-66.6666666666667,4,2,1,65,0,0
83337,-66.6666666666667,4,2,1,5,0,0
83446,-66.6666666666667,4,2,1,65,0,0
83663,-66.6666666666667,4,2,1,5,0,0
83772,-66.6666666666667,4,2,1,65,0,0
84968,-66.6666666666667,4,2,1,5,0,0
85076,-66.6666666666667,4,2,1,65,0,0
85185,-66.6666666666667,4,2,1,5,0,0
85294,-66.6666666666667,4,2,1,65,0,0
85837,-66.6666666666667,4,2,1,5,0,0
85946,-66.6666666666667,4,2,1,65,0,0
86816,-66.6666666666667,4,2,1,5,0,0
86924,-66.6666666666667,4,2,1,65,0,0
87142,-66.6666666666667,4,2,1,5,0,0
87250,-66.6666666666667,4,2,1,65,0,0
87468,-58.8235294117647,4,2,1,60,0,0
101381,-45.4545454545455,4,2,1,60,0,0
101816,-37.037037037037,4,2,1,60,0,0
102250,-45.4545454545455,4,2,1,60,0,0
102685,-37.037037037037,4,2,1,60,0,0
103989,-45.4545454545455,4,2,1,60,0,0
105294,-37.037037037037,4,2,1,60,0,0
105729,-45.4545454545455,4,2,1,60,0,0
107903,-41.6666666666667,4,2,1,60,0,0
113555,-45.4545454545455,4,2,1,60,0,0
115294,-66.6666666666667,4,2,1,60,0,0
116381,-50,4,2,1,60,0,0
117033,-47.6190476190476,4,2,1,80,0,1
121163,-66.6666666666667,4,2,1,80,0,1
121816,-47.6190476190476,4,2,1,80,0,1
130294,-47.6190476190476,4,2,1,80,0,0
130946,-31.25,4,2,1,80,0,1
131381,-47.6190476190476,4,2,1,80,0,1
137903,-31.25,4,2,1,80,0,1
138337,-47.6190476190476,4,2,1,80,0,1
139424,-38.4615384615385,4,2,1,80,0,1
139859,-47.6190476190476,4,2,1,80,0,1
141381,-55.5555555555556,4,2,1,80,0,1
148337,-55.5555555555556,4,2,1,60,0,0
151598,-33.3333333333333,4,2,1,50,0,0
151816,-26.3157894736842,4,2,1,70,0,0
152250,-33.3333333333333,4,2,1,70,0,0
152468,-26.3157894736842,4,2,1,70,0,0
152903,-31.25,4,2,1,70,0,0
153555,-28.5714285714286,4,2,1,70,0,0
158772,-26.3157894736842,4,2,1,70,0,0
159098,-33.3333333333333,4,2,1,70,0,0
159424,-26.3157894736842,4,2,1,70,0,0
159859,-31.25,4,2,1,70,0,0
160511,-28.5714285714286,4,2,1,70,0,0
165729,-33.3333333333333,4,2,1,70,0,0
179642,-66.6666666666667,4,2,1,70,0,0
181381,-50,4,2,1,70,0,0
182468,-33.3333333333333,4,2,1,70,0,0
182685,-200,4,2,1,70,0,0
183011,-200,4,2,1,5,0,0
183120,-40,4,2,1,70,0,0
183989,-31.25,4,2,1,70,0,0
184424,-40,4,2,1,70,0,0
184642,-28.5714285714286,4,2,1,70,0,0
185076,-40,4,2,1,70,0,0
185729,-25,4,2,1,70,0,0
186489,-25,4,2,1,5,0,0
186598,-40,4,2,1,70,0,0
187468,-31.25,4,2,1,70,0,0
187903,-40,4,2,1,70,0,0
188120,-28.5714285714286,4,2,1,70,0,0
188555,-40,4,2,1,70,0,0
189207,-25,4,2,1,70,0,0
190076,-40,4,2,1,70,0,0
190946,-31.25,4,2,1,70,0,0
191381,-40,4,2,1,70,0,0
191598,-28.5714285714286,4,2,1,70,0,0
192033,-40,4,2,1,70,0,0
192250,-25,4,2,1,70,0,0
192685,-25,4,2,1,70,0,0
193446,-25,4,2,1,5,0,0
193555,-40,4,2,1,70,0,0
194424,-31.25,4,2,1,70,0,0
194859,-40,4,2,1,70,0,0
195294,-28.5714285714286,4,2,1,70,0,0
196163,-25,4,2,1,70,0,0
196598,-40,4,2,1,70,0,0
197033,-41.6666666666667,4,2,1,70,0,0
200294,-34.7222222222222,4,2,1,70,0,0
200511,-41.6666666666667,4,2,1,70,0,0
203337,-32.8947368421053,4,2,1,70,0,0
203989,-41.6666666666667,4,2,1,70,0,0
206816,-31.25,4,2,1,70,0,0
207033,-41.6666666666667,4,2,1,70,0,0
210076,-25,4,2,1,70,0,0
210294,-22.3214285714286,4,2,1,70,0,0
210946,-41.6666666666667,4,2,1,70,0,0
211816,-39.0625,4,2,1,70,0,0
212685,-41.6666666666667,4,2,1,70,0,0
213555,-36.7647058823529,4,2,1,70,0,0
214424,-41.6666666666667,4,2,1,70,0,0
215294,-34.7222222222222,4,2,1,70,0,0
216163,-41.6666666666667,4,2,1,70,0,0
217033,-25,4,2,1,70,0,0
217359,-20.8333333333333,4,2,1,70,0,0
217685,-41.6666666666667,4,2,1,70,0,0
218772,-34.7222222222222,4,2,1,70,0,0
219642,-41.6666666666667,4,2,1,70,0,0
220511,-34.7222222222222,4,2,1,70,0,0
221381,-41.6666666666667,4,2,1,70,0,0
222250,-34.7222222222222,4,2,1,70,0,0
223120,-41.6666666666667,4,2,1,70,0,0
223989,-31.25,4,2,1,70,0,0
224316,-20.8333333333333,4,2,1,70,0,0
224859,-41.6666666666667,4,2,1,60,0,0
238772,-15.625,4,2,1,60,0,0
239642,-41.6666666666667,4,2,1,60,0,0
239859,-31.25,4,2,1,60,0,0
240294,-15.625,4,2,1,40,0,0
240511,-47.6190476190476,4,2,1,80,0,1
264859,-47.6190476190476,4,2,1,80,0,1
268337,-62.5,4,2,1,80,0,1
275294,-100,4,2,1,60,0,0
282250,-78.4313725490196,4,2,0,40,0,0
289207,-58.8235294117647,4,2,0,40,0,0
306489,-58.8235294117647,4,2,1,70,0,0
307468,-47.6190476190476,4,2,1,70,0,0
308120,-39.2156862745098,4,2,1,70,0,0
310076,-117.647058823529,4,2,1,70,0,0
313555,-80,4,2,1,70,0,0
316163,-47.6190476190476,4,2,1,70,0,0
317033,-58.8235294117647,4,2,1,70,0,0
321163,-47.6190476190476,4,2,1,70,0,0
321816,-29.4117647058824,4,2,1,70,0,0
323120,-47.6190476190476,4,2,1,70,0,0
323555,-29.4117647058824,4,2,1,70,0,0
323989,-27.027027027027,4,2,1,80,0,0
324642,-41.6666666666667,4,2,1,80,0,0
324859,-14.2857142857143,4,2,1,80,0,1
325294,-37.037037037037,4,2,1,80,0,0
325511,-40,4,2,1,80,0,0
326163,-25,4,2,1,80,0,0
326598,-66.6666666666667,4,2,1,80,0,0
327250,-133.333333333333,4,2,1,80,0,0
327468,-23.2558139534884,4,2,1,80,0,0
328337,-55.5555555555556,4,2,1,80,0,0
328989,-25,4,2,1,80,0,0
329424,-50,4,2,1,80,0,0
329642,-28.5714285714286,4,2,1,80,0,0
329859,-16.6666666666667,4,2,1,80,0,0
330946,-25,4,2,1,80,0,0
331816,-33.3333333333333,4,2,1,80,0,0
332250,-66.6666666666667,4,2,1,80,0,0
332468,-55.5555555555556,4,2,1,80,0,0
332903,-26.3157894736842,4,2,1,80,0,0
333555,-25,4,2,1,80,0,0
334207,-28.5714285714286,4,2,1,80,0,0
334424,-33.3333333333333,4,2,1,80,0,0
335076,-28.5714285714286,4,2,1,80,0,0
335294,-16.6666666666667,4,2,1,80,0,1
335946,-14.2857142857143,4,2,1,80,0,1
337033,-25,4,2,1,70,0,0
339207,-40,4,2,1,60,0,0
340076,-38.4615384615385,4,2,1,50,0,0
343337,-38.4615384615385,4,2,1,50,0,0
343772,-62.5,4,2,1,50,0,0
344207,-100,4,2,1,50,0,0
349859,-50,4,2,1,60,0,0
350511,-33.3333333333333,4,2,1,60,0,0
350946,-16.6666666666667,4,2,1,60,0,0
353120,-14.2857142857143,4,2,1,70,0,1
353337,-43.4782608695652,4,2,1,70,0,1
353555,-33.3333333333333,4,2,1,80,0,1
359642,-50,4,2,1,80,0,1
360076,-33.3333333333333,4,2,1,80,0,1
360294,-25,4,2,1,80,0,1
360511,-33.3333333333333,4,2,1,80,0,1
366816,-28.5714285714286,4,2,1,80,0,1
367468,-33.3333333333333,4,2,1,80,0,1
373555,-50,4,2,1,80,0,1
373989,-33.3333333333333,4,2,1,80,0,1
374207,-25,4,2,1,80,0,1
374424,-33.3333333333333,4,2,1,80,0,1
377903,-40,4,2,1,80,0,1
379642,-33.3333333333333,4,2,1,80,0,1
381381,-100,4,2,1,80,0,0
384859,-33.3333333333333,4,2,1,80,0,1
405729,-50,4,2,1,80,0,1
409207,-40,4,2,1,70,0,1
416163,-40,4,2,1,70,0,1
422685,-40,4,2,1,70,0,1
423120,-23.8095238095238,4,2,1,70,0,0
427903,-19.047619047619,4,2,1,70,0,0
428337,-23.8095238095238,4,2,1,70,0,0
429859,-63.6942675159236,4,2,1,70,0,0
430076,-23.8095238095238,4,2,1,70,0,0
436816,-63.6942675159236,4,2,1,70,0,0
437033,-23.8095238095238,4,2,1,70,0,0
441816,-19.047619047619,4,2,1,70,0,0
442250,-23.8095238095238,4,2,1,70,0,0
443772,-63.6942675159236,4,2,1,70,0,0
443989,-23.8095238095238,4,2,1,70,0,0
450729,-63.6942675159236,4,2,1,70,0,0
450892,-63.6942675159236,4,2,1,5,0,0
450946,-23.8095238095238,4,2,1,40,0,0
452685,-23.8095238095238,4,2,1,38,0,0
454424,-23.8095238095238,4,2,1,32,0,0
455729,-23.8095238095238,4,2,1,25,0,0
456816,-23.8095238095238,4,2,1,20,0,0
457903,-23.8095238095238,4,2,1,15,0,0
459207,-23.8095238095238,4,2,1,13,0,0
461381,-23.8095238095238,4,2,1,11,0,0
462685,-23.8095238095238,4,2,1,10,0,0

[Colours]
Combo1 : 146,80,226
Combo2 : 152,214,166
Combo3 : 217,223,221
Combo4 : 251,137,34
Combo5 : 233,39,68
Combo6 : 39,44,216
SliderTrackOverride : 1,13,21

[HitObjects]
256,192,1816,12,0,3881,0:0:0:0:
138,106,3990,6,0,L|169:102,3,25,8|0|0|0,0:1|0:0|0:0|0:0,0:0:0:0:
286,126,4424,2,0,L|261:128,3,25,8|0|0|0,0:1|0:0|0:0|0:0,0:0:0:0:
202,190,4859,2,0,L|198:158,3,25,8|0|0|0,0:1|0:0|0:0|0:0,0:0:0:0:
222,42,5294,2,0,L|224:66,3,25,8|0|0|0,0:1|0:0|0:0|0:0,0:0:0:0:
138,106,5729,6,0,L|169:102,3,25,8|0|0|0,0:1|0:0|0:0|0:0,0:0:0:0:
286,126,6163,2,0,L|261:128,3,25,8|0|0|0,0:1|0:0|0:0|0:0,0:0:0:0:
226,258,6598,2,0,L|250:255,3,25,8|0|0|0,0:1|0:0|0:0|0:0,0:0:0:0:
374,278,7033,2,0,L|349:280,3,25,8|0|0|0,0:1|0:0|0:0|0:0,0:0:0:0:
290,342,7469,70,0,L|287:317,3,25,8|0|0|0,0:1|0:0|0:0|0:0,0:0:0:0:
310,194,7903,2,0,L|312:218,3,25,8|0|0|0,0:1|0:0|0:0|0:0,0:0:0:0:
226,258,8337,2,0,L|250:255,3,25,8|0|0|0,0:1|0:0|0:0|0:0,0:0:0:0:
374,278,8772,2,0,L|349:280,3,25,8|0|0|0,0:1|0:0|0:0|0:0,0:0:0:0:
290,342,9207,6,0,L|287:317,3,25,8|0|0|0,0:1|0:0|0:0|0:0,0:0:0:0:
310,194,9641,2,0,L|312:218,3,25,8|0|0|0,0:1|0:0|0:0|0:0,0:0:0:0:
202,190,10076,2,0,L|199:165,3,25,8|0|0|0,0:1|0:0|0:0|0:0,0:0:0:0:
222,42,10511,2,0,L|224:66,3,25,8|0|0|0,0:1|0:0|0:0|0:0,0:0:0:0:
113,108,10946,70,0,L|137:105,3,25,8|0|0|0,0:1|0:0|0:0|0:0,0:0:0:0:
310,123,11381,2,0,L|285:125,3,25,8|0|0|0,0:1|0:0|0:0|0:0,0:0:0:0:
204,214,11816,2,0,L|201:189,3,25,8|0|0|0,0:1|0:0|0:0|0:0,0:0:0:0:
219,17,12250,2,0,L|221:41,3,25,8|0|0|0,0:1|0:0|0:0|0:0,0:0:0:0:
113,108,12685,6,0,L|137:105,3,25,8|0|0|0,0:1|0:0|0:0|0:0,0:0:0:0:
310,123,13120,2,0,L|285:125,3,25,8|0|0|0,0:1|0:0|0:0|0:0,0:0:0:0:
202,261,13555,2,0,L|226:258,3,25,8|0|0|0,0:1|0:0|0:0|0:0,0:0:0:0:
399,276,13989,2,0,L|374:278,3,25,8|0|0|0,0:1|0:0|0:0|0:0,0:0:0:0:
293,367,14424,70,0,L|290:342,3,25,8|0|0|0,0:1|0:0|0:0|0:0,0:0:0:0:
308,170,14859,2,0,L|310:194,3,25,8|0|0|0,0:1|0:0|0:0|0:0,0:0:0:0:
202,261,15294,2,0,L|226:258,3,25,8|0|0|0,0:1|0:0|0:0|0:0,0:0:0:0:
399,276,15728,2,0,L|374:278,3,25,8|0|0|0,0:1|0:0|0:0|0:0,0:0:0:0:
293,367,16163,6,0,L|290:342,3,25,8|0|0|0,0:1|0:0|0:0|0:0,0:0:0:0:
308,170,16598,2,0,L|310:194,3,25,8|0|0|0,0:1|0:0|0:0|0:0,0:0:0:0:
300,268,17033,1,8,0:1:0:0:
300,268,17685,1,8,0:1:0:0:
315,71,17903,6,0,L|324:157,1,62.5,8|0,0:1|0:0,0:0:0:0:
197,313,18337,2,0,L|183:198,1,93.75,8|0,0:0|0:0,0:0:0:0:
390,182,18772,70,0,L|320:233,1,62.5,8|0,0:1|0:0,0:0:0:0:
121,201,19206,2,0,L|213:132,1,93.75,8|0,0:0|0:0,0:0:0:0:
331,303,19642,6,0,L|252:268,1,62.5,8|0,0:1|0:0,0:0:0:0:
180,80,20076,2,0,L|286:125,1,93.75,8|0,0:0|0:0,0:0:0:0:
394,259,20511,70,0,B|391:254|391:254|394:239,1,18.7500007152558,8|0,0:1|0:0,0:0:0:0:
419,68,20729,2,0,B|446:50|446:50|431:117,1,100,2|0,0:1|0:0,0:0:0:0:
317,186,20946,2,0,B|328:172|328:172|375:167,1,62.5,8|0,0:0|0:0,0:0:0:0:
451,191,21163,2,0,B|490:213|490:213|494:231,1,62.5,0|0,0:0|0:0,0:0:0:0:
218,284,21381,6,0,L|155:291,1,62.5,8|0,0:1|0:0,0:0:0:0:
294,100,21816,2,0,L|386:89,1,93.75,8|0,0:0|0:0,0:0:0:0:
157,205,22250,70,0,L|119:154,1,62.5,8|0,0:1|0:0,0:0:0:0:
354,178,22685,2,0,L|410:253,1,93.75,8|0,0:0|0:0,0:0:0:0:
195,113,23120,6,0,L|220:55,1,62.5,8|0,0:1|0:0,0:0:0:0:
316,270,23555,2,0,L|279:356,1,93.75,8|0,0:0|0:0,0:0:0:0:
106,222,23989,70,0,B|85:196|85:196|79:137,1,87.500000834465,8|0,0:1|0:0,0:0:0:0:
169,33,24207,2,0,B|189:58|189:58|195:112,1,87.500000834465,2|0,0:1|0:0,0:0:0:0:
28,273,24424,2,0,B|76:300|76:300|87:337|87:337|110:306|110:306|165:298,1,187.5,8|0,0:0|0:0,0:0:0:0:
247,327,24859,6,0,B|284:321,1,37.5000014305115,8|0,0:1|0:0,0:0:0:0:
205,189,25076,2,0,B|210:226,1,37.5000014305115,0|0,0:0|0:0,0:0:0:0:
164,298,25294,1,8,0:0:0:0:
285,243,25403,2,0,B|322:249,2,37.5000014305115,0|0|0,0:0|0:0|0:0,0:0:0:0:
191,180,25729,1,8,0:1:0:0:
177,171,25946,2,0,B|182:208,1,37.5000014305115,0|0,0:0|0:0,0:0:0:0:
150,307,26163,1,8,0:0:0:0:
96,169,26272,2,0,B|102:132,2,37.5000014305115,0|0|0,0:0|0:0|0:0,0:0:0:0:
86,243,26598,69,8,0:1:0:0:
30,110,26707,2,0,B|36:73,2,37.5000014305115,0|0|0,0:0|0:0|0:0,0:0:0:0:
10,258,27033,1,8,0:0:0:0:
104,241,27142,2,0,B|141:235,2,37.5000014305115,0|0|0,0:0|0:0|0:0,0:0:0:0:
38,341,27468,6,0,B|43:345|43:345|55:348,1,18.7500007152558,8|0,0:1|0:0,0:0:0:0:
167,307,27685,2,0,B|202:341|202:341|251:348,1,100,0|0,0:0|0:0,0:0:0:0:
327,202,27903,2,0,B|372:318|372:318|489:273,1,250,8|8,0:0|0:1,0:0:0:0:
256,192,28446,12,0,31490,0:0:0:0:
256,244,31598,6,0,L|256:124,1,120,2|0,0:0|0:0,0:0:0:0:
256,43,31816,1,12,0:1:0:0:
64,290,32033,38,0,L|178:308,1,116.250000886917,2|0,0:0|0:0,0:0:0:0:
256,321,32250,1,8,0:1:0:0:
81,178,32468,6,0,L|63:289,1,112.500004291535,2|0,0:0|0:0,0:0:0:0:
50,363,32685,1,8,0:1:0:0:
188,162,32903,70,0,L|80:178,1,108.750003318787,2|0,0:0|0:0,0:0:0:0:
9,192,33120,1,8,0:1:0:0:
171,58,33337,6,0,L|187:160,1,104.999996795654,2|0,0:0|0:0,0:0:0:0:
200,231,33555,5,8,0:1:0:0:
200,231,33772,2,0,L|302:215,1,67.5000002574921,2|2,0:0|0:0,0:0:0:0:
304,89,33989,53,8,0:1:0:0:
304,89,34207,2,0,L|320:191,1,64.9999970245363,2|2,0:0|0:0,0:0:0:0:
443,192,34424,21,8,0:1:0:0:
443,192,34642,2,0,L|341:208,1,62.5,2|2,0:0|0:0,0:0:0:0:
340,327,34859,53,8,0:1:0:0:
340,327,35076,2,0,L|324:225,1,59.9999981689454,2|2,0:0|0:0,0:0:0:0:
314,155,35294,22,0,L|283:94,1,59.9999981689454,8|0,0:1|0:0,0:0:0:0:
314,155,35511,2,0,L|324:88,1,57.5000010967255,2|0,0:0|0:0,0:0:0:0:
293,28,35729,1,8,0:1:0:0:
195,83,35946,2,0,L|219:132,1,55.0000016784668,2|2,0:0|0:0,0:0:0:0:
403,55,36163,54,0,L|395:110,3,55.0000016784668,8|0|2|2,0:1|0:0|0:0|0:0,0:0:0:0:
448,167,36598,2,0,L|397:234,3,52.4999983978272,8|0|2|2,0:1|0:0|0:0|0:0,0:0:0:0:
346,174,37033,2,0,L|299:197,3,50,8|0|2|2,0:1|0:0|0:0|0:0,0:0:0:0:
294,267,37468,2,0,L|242:275,3,47.4999987316132,8|0|2|2,0:1|0:0|0:0|0:0,0:0:0:0:
217,209,37903,2,0,L|165:200,3,44.999998626709,8|0|2|2,0:1|0:0|0:0|0:0,0:0:0:0:
130,194,38337,1,8,0:1:0:0:
343,320,38555,38,0,L|369:310,3,20,2|0|2|0,0:0|0:0|0:0|0:0,0:0:0:0:
268,384,38772,70,0,L|274:346,1,37.5000014305115,8|0,0:1|0:0,0:0:0:0:
432,347,38989,1,2,0:0:0:0:
434,328,39097,1,2,0:0:0:0:
438,309,39207,2,0,L|443:271,1,37.5000014305115,8|0,0:1|0:0,0:0:0:0:
286,271,39424,1,2,0:0:0:0:
288,252,39532,1,2,0:0:0:0:
292,233,39642,2,0,L|297:195,1,37.5000014305115,8|0,0:1|0:0,0:0:0:0:
456,196,39858,1,2,0:0:0:0:
458,177,39968,1,2,0:0:0:0:
462,158,40076,2,0,L|467:120,1,37.5000014305115,8|0,0:1|0:0,0:0:0:0:
310,120,40293,1,2,0:0:0:0:
312,101,40403,1,2,0:0:0:0:
316,82,40511,54,0,L|321:44,1,37.5000014305115,8|0,0:1|0:0,0:0:0:0:
202,120,40729,1,2,0:0:0:0:
200,101,40837,1,2,0:0:0:0:
196,82,40947,2,0,L|191:44,1,37.5000014305115,8|0,0:1|0:0,0:0:0:0:
56,196,41163,1,2,0:0:0:0:
54,177,41271,1,2,0:0:0:0:
50,158,41381,2,0,L|45:120,1,37.5000014305115,8|0,0:1|0:0,0:0:0:0:
226,271,41598,1,2,0:0:0:0:
224,252,41706,1,2,0:0:0:0:
220,233,41816,2,0,L|215:195,1,37.5000014305115,8|0,0:1|0:0,0:0:0:0:
80,347,42033,1,2,0:0:0:0:
78,328,42141,1,2,0:0:0:0:
74,309,42251,22,0,L|69:271,1,37.5000014305115,8|0,0:1|0:0,0:0:0:0:
28,180,42468,1,2,0:0:0:0:
45,172,42576,1,2,0:0:0:0:
62,163,42685,2,0,L|96:146,1,37.5000014305115,8|0,0:1|0:0,0:0:0:0:
171,77,42903,1,2,0:0:0:0:
184,92,43011,1,2,0:0:0:0:
198,105,43121,2,0,L|224:132,1,37.5000014305115,8|0,0:1|0:0,0:0:0:0:
311,182,43337,1,2,0:0:0:0:
301,199,43445,1,2,0:0:0:0:
292,216,43555,2,0,L|273:249,1,37.5000014305115,8|0,0:1|0:0,0:0:0:0:
255,350,43772,1,2,0:0:0:0:
236,346,43880,1,2,0:0:0:0:
217,342,43990,54,0,L|180:335,1,37.5000014305115,8|2,0:1|0:0,0:0:0:0:
101,318,44207,2,0,L|58:310,1,40,2|2,0:0|0:0,0:0:0:0:
204,308,44424,2,0,L|177:276,1,42.5000008106232,8|0,0:1|0:0,0:0:0:0:
121,209,44641,2,0,L|90:173,1,42.5000008106232,2|2,0:0|0:0,0:0:0:0:
298,290,44859,2,0,L|299:243,1,47.4999987316132,8|0,0:1|0:0,0:0:0:0:
303,142,45076,2,0,L|304:88,1,50,2|2,0:0|0:0,0:0:0:0:
267,265,45294,2,0,L|232:220,1,52.4999983978272,8|0,0:1|0:0,0:0:0:0:
168,135,45511,2,2,L|129:84,1,55.0000016784668
289,171,45729,22,0,P|325:155|384:165,1,75.0000028610231,8|2,0:1|0:0,0:0:0:0:
457,207,46055,1,2,0:0:0:0:
436,238,46163,1,8,0:0:0:0:
364,63,46381,2,0,P|400:77|435:125,1,75.0000028610231,2|8,0:0|0:1,0:0:0:0:
457,207,46707,1,0,0:0:0:0:
420,214,46816,1,2,0:0:0:0:
383,221,46924,1,2,0:0:0:0:
347,232,47033,2,0,P|342:262|345:280,1,37.5000014305115,8|0,0:0|0:0,0:0:0:0:
437,344,47250,2,0,P|442:314|439:296,1,37.5000014305115,2|2,0:0|0:0,0:0:0:0:
271,206,47468,69,8,0:1:0:0:
271,206,47685,2,0,P|266:236|269:254,1,37.5000014305115,2|2,0:0|0:0,0:0:0:0:
361,318,47903,2,0,P|366:288|363:270,1,37.5000014305115,8|0,0:0|0:0,0:0:0:0:
198,176,48120,1,2,0:0:0:0:
186,211,48229,1,2,0:0:0:0:
188,248,48337,2,0,P|195:292|182:337,1,75.0000028610231,8|2,0:1|0:0,0:0:0:0:
104,380,48663,2,0,P|63:363|30:329,1,75.0000028610231,2|0,0:0|0:0,0:0:0:0:
32,240,48989,2,0,P|50:223|86:205,1,37.5000014305115,2|0,0:0|0:0,0:0:0:0:
151,242,49207,5,8,0:1:0:0:
188,248,49316,1,0,0:0:0:0:
223,236,49424,1,2,0:0:0:0:
251,212,49533,1,2,0:0:0:0:
267,178,49642,2,0,P|272:154|267:129,1,37.5000014305115,8|0,0:0|0:0,0:0:0:0:
205,49,49859,1,2,0:0:0:0:
167,52,49968,2,0,P|143:59|107:99,1,75.0000028610231,2|0,0:0|0:0,0:0:0:0:
135,203,50294,1,2,0:0:0:0:
169,217,50403,1,2,0:0:0:0:
206,212,50511,2,0,P|223:209|243:198,1,37.5000014305115,8|0,0:0|0:0,0:0:0:0:
337,100,50729,70,0,P|356:153|350:214,1,112.500004291535,2|0,0:0|0:0,0:0:0:0:
348,214,51163,1,2,0:0:0:0:
311,209,51272,1,0,0:0:0:0:
274,204,51381,1,8,0:0:0:0:
391,297,51598,1,2,0:0:0:0:
354,292,51707,1,0,0:0:0:0:
317,287,51816,1,8,0:1:0:0:
434,380,52033,1,2,0:0:0:0:
397,375,52142,1,0,0:0:0:0:
360,370,52250,1,8,0:0:0:0:
348,208,52468,1,2,0:0:0:0:
311,203,52576,1,0,0:0:0:0:
274,198,52685,6,0,P|248:233|243:277,1,75.0000028610231,8|2,0:1|0:0,0:0:0:0:
268,369,53011,1,2,0:0:0:0:
302,356,53120,1,8,0:0:0:0:
152,244,53337,2,0,P|158:287|185:321,1,75.0000028610231,2|8,0:0|0:1,0:0:0:0:
268,369,53663,1,0,0:0:0:0:
283,335,53772,1,2,0:0:0:0:
298,301,53881,1,2,0:0:0:0:
313,267,53989,2,0,P|316:239|313:206,1,37.5000014305115,8|0,0:0|0:0,0:0:0:0:
176,180,54207,2,0,P|173:208|176:241,1,37.5000014305115,2|2,0:0|0:0,0:0:0:0:
388,295,54424,69,8,0:1:0:0:
388,295,54642,2,0,P|391:267|388:234,1,37.5000014305115,2|2,0:0|0:0,0:0:0:0:
251,208,54859,2,0,P|248:236|251:269,1,37.5000014305115,8|0,0:0|0:0,0:0:0:0:
463,323,55076,1,2,0:0:0:0:
470,286,55185,1,2,0:0:0:0:
468,249,55294,2,0,P|461:213|465:175,1,75.0000028610231,8|2,0:1|0:0,0:0:0:0:
445,69,55620,2,0,P|417:93|382:109,1,75.0000028610231,2|0,0:0|0:0,0:0:0:0:
300,178,55946,2,0,P|325:185|348:199,1,37.5000014305115,2|0,0:0|0:0,0:0:0:0:
399,319,56163,5,8,0:1:0:0:
435,308,56272,1,0,0:0:0:0:
463,285,56381,1,2,0:0:0:0:
481,251,56489,1,2,0:0:0:0:
489,214,56598,2,0,P|489:201|484:172,1,37.5000014305115,8|0,0:0|0:0,0:0:0:0:
373,136,56816,2,0,P|372:172|389:215,1,75.0000028610231,2|8,0:0|0:1,0:0:0:0:
462,79,57142,1,0,0:0:0:0:
433,51,57250,1,2,0:0:0:0:
401,35,57359,1,2,0:0:0:0:
364,31,57468,2,0,P|346:32|322:43,1,37.5000014305115,8|0,0:0|0:0,0:0:0:0:
197,132,57685,70,0,P|229:175|284:184,1,112.500004291535,2|0,0:0|0:0,0:0:0:0:
290,182,58120,1,2,0:0:0:0:
299,146,58229,1,0,0:0:0:0:
308,110,58337,1,8,0:0:0:0:
373,245,58555,1,2,0:0:0:0:
382,209,58663,1,0,0:0:0:0:
391,173,58772,1,8,0:1:0:0:
456,308,58989,1,2,0:0:0:0:
465,272,59098,1,0,0:0:0:0:
474,236,59207,1,8,0:0:0:0:
345,86,59424,1,2,0:0:0:0:
336,122,59533,1,0,0:0:0:0:
327,158,59642,6,0,P|251:134|223:69,1,150.000005722046,12|8,0:1|0:0,0:0:0:0:
316,65,60294,1,2,0:0:0:0:
413,181,60511,2,0,P|398:216|356:242,1,75.0000028610231,8|2,0:1|0:0,0:0:0:0:
316,65,60946,1,8,0:0:0:0:
223,74,61163,2,0,P|256:138|327:158,1,150.000005722046,2|2,0:0|0:0,0:0:0:0:
316,65,61816,1,8,0:0:0:0:
120,93,62033,69,2,0:0:0:0:
243,249,62250,2,0,P|246:204|234:161,1,75.0000028610231,8|2,0:1|0:0,0:0:0:0:
120,93,62576,1,0,0:0:0:0:
105,127,62685,1,8,0:0:0:0:
90,267,62903,2,0,P|116:271|149:266,1,37.5000014305115,2|0,0:0|0:0,0:0:0:0:
239,175,63120,6,0,P|272:205|294:244,1,75.0000028610231,8|2,0:1|0:0,0:0:0:0:
340,353,63446,1,0,0:0:0:0:
303,361,63555,1,8,0:0:0:0:
231,160,63772,2,0,P|287:206|305:297,1,150.000005722046,2|2,0:0|0:0,0:0:0:0:
168,259,64424,2,0,P|168:236|177:208,1,37.5000014305115,8|0,0:0|0:0,0:0:0:0:
260,61,64642,70,0,P|201:56|142:90,1,112.500004291535,2|0,0:0|0:0,0:0:0:0:
151,82,65076,1,2,0:0:0:0:
108,226,65294,1,8,0:0:0:0:
94,143,65511,1,2,0:0:0:0:
197,252,65729,1,8,0:1:0:0:
118,222,65946,5,2,0:0:0:0:
263,187,66163,1,8,0:0:0:0:
198,240,66381,1,2,0:0:0:0:
238,99,66598,70,0,P|268:98|302:107,1,37.5000014305115,8|0,0:1|0:0,0:0:0:0:
345,212,66816,2,0,P|347:192|343:172,1,37.5000014305115,2|0,0:0|0:0,0:0:0:0:
252,191,67033,1,8,0:0:0:0:
252,191,67250,1,2,0:0:0:0:
154,70,67468,2,0,P|178:31|222:10,1,75.0000028610231,8|2,0:1|0:0,0:0:0:0:
252,191,67903,1,8,0:0:0:0:
344,177,68120,2,0,P|309:114|237:99,1,150.000005722046,2|2,0:0|0:0,0:0:0:0:
252,191,68772,5,8,0:0:0:0:
436,163,68989,1,2,0:0:0:0:
368,336,69207,2,0,P|352:302|354:261,1,75.0000028610231,8|2,0:1|0:0,0:0:0:0:
468,171,69642,1,8,0:0:0:0:
492,318,69859,1,2,0:0:0:0:
352,265,70076,69,8,0:1:0:0:
315,255,70185,1,0,0:0:0:0:
278,245,70294,2,0,P|242:247|216:260,1,37.5000014305115,2|0,0:0|0:0,0:0:0:0:
258,352,70511,1,8,0:0:0:0:
258,352,70729,1,2,0:0:0:0:
167,274,70946,1,8,0:1:0:0:
198,248,71054,1,0,0:0:0:0:
236,233,71163,2,0,P|268:230|290:235,1,37.5000014305115,2|0,0:0|0:0,0:0:0:0:
358,293,71381,2,0,P|368:269|370:252,1,37.5000014305115,8|0,0:0|0:0,0:0:0:0:
410,109,71598,6,0,P|437:152|445:220,1,112.500004291535,2|0,0:0|0:0,0:0:0:0:
444,217,72033,1,2,0:0:0:0:
330,119,72250,1,8,0:0:0:0:
355,190,72468,1,2,0:0:0:0:
218,125,72685,1,8,0:1:0:0:
261,187,72903,1,2,0:0:0:0:
112,160,73120,1,8,0:0:0:0:
170,209,73337,1,2,0:0:0:0:
19,220,73555,6,0,P|60:241|101:233,1,75.0000028610231,8|2,0:1|0:0,0:0:0:0:
169,309,73881,1,2,0:0:0:0:
203,294,73989,1,8,0:0:0:0:
303,289,74098,1,0,0:0:0:0:
273,267,74207,1,2,0:0:0:0:
218,182,74316,1,2,0:0:0:0:
214,219,74424,2,0,L|210:259,1,37.5000014305115,8|0,0:1|0:0,0:0:0:0:
258,379,74642,2,0,L|262:339,1,37.5000014305115,2|2,0:0|0:0,0:0:0:0:
131,320,74859,1,8,0:0:0:0:
345,241,75076,70,0,P|368:274|378:311,1,75.0000028610231,2|8,0:0|0:1,0:0:0:0:
247,313,75403,2,0,L|284:309,2,37.5000014305115,0|2|2,0:0|0:0|0:0,0:0:0:0:
175,289,75729,1,8,0:0:0:0:
138,286,75837,1,0,0:0:0:0:
65,310,75946,2,0,L|27:313,1,37.5000014305115,2|2,0:0|0:0,0:0:0:0:
6,227,76163,2,0,L|83:236,1,75.0000028610231,8|2,0:1|0:0,0:0:0:0:
139,152,76489,2,0,L|62:161,1,75.0000028610231,2|0,0:0|0:0,0:0:0:0:
41,83,76816,1,2,0:0:0:0:
79,86,76924,1,2,0:0:0:0:
160,49,77033,6,0,P|167:98|138:152,1,112.500004291535,8|2,0:1|0:0,0:0:0:0:
57,47,77468,2,0,P|56:24|67:0,1,37.5000014305115,8|0,0:0|0:0,0:0:0:0:
236,66,77685,2,0,P|239:105|225:150,1,75.0000028610231,2|8,0:0|0:1,0:0:0:0:
145,206,78011,1,0,0:0:0:0:
181,214,78120,1,2,0:0:0:0:
246,252,78229,1,2,0:0:0:0:
282,260,78337,2,0,P|287:239|283:211,1,37.5000014305115,8|0,0:0|0:0,0:0:0:0:
250,34,78555,70,0,P|226:77|232:145,1,112.500004291535,2|0,0:0|0:0,0:0:0:0:
231,144,78989,1,2,0:0:0:0:
382,135,79207,1,8,0:0:0:0:
304,96,79424,1,2,0:0:0:0:
313,247,79642,1,8,0:1:0:0:
166,84,79859,1,2,0:0:0:0:
149,121,79968,1,0,0:0:0:0:
141,161,80076,2,0,P|138:182|143:207,1,37.5000014305115,8|0,0:0|0:0,0:0:0:0:
262,360,80294,1,2,0:0:0:0:
268,323,80403,1,2,0:0:0:0:
264,286,80511,6,0,P|223:279|180:293,1,75.0000028610231,8|2,0:1|0:0,0:0:0:0:
108,348,80837,1,2,0:0:0:0:
104,308,80946,1,8,0:0:0:0:
39,237,81055,1,0,0:0:0:0:
43,200,81163,1,2,0:0:0:0:
142,153,81272,1,2,0:0:0:0:
137,189,81381,2,0,L|133:229,1,37.5000014305115,8|0,0:1|0:0,0:0:0:0:
26,251,81598,2,0,L|29:210,1,37.5000014305115,2|2,0:0|0:0,0:0:0:0:
170,105,81816,1,8,0:0:0:0:
51,2,82033,70,0,P|23:34|14:71,1,75.0000028610231,2|8,0:0|0:1,0:0:0:0:
140,79,82359,2,0,L|103:75,2,37.5000014305115,0|2|2,0:0|0:0|0:0,0:0:0:0:
213,61,82685,1,8,0:0:0:0:
250,56,82794,1,0,0:0:0:0:
321,81,82903,2,0,L|358:85,1,37.5000014305115,2|2,0:0|0:0,0:0:0:0:
442,55,83120,2,0,P|448:100|428:143,1,75.0000028610231,8|2,0:1|0:0,0:0:0:0:
422,216,83446,2,0,P|459:216|492:200,1,75.0000028610231,2|0,0:0|0:0,0:0:0:0:
364,286,83772,1,2,0:0:0:0:
340,257,83881,1,2,0:0:0:0:
331,222,83989,6,0,P|322:198|281:162,1,75.0000028610231,8|2,0:1|0:0,0:0:0:0:
161,148,84316,1,2,0:0:0:0:
174,182,84424,1,8,0:0:0:0:
123,252,84533,1,0,0:0:0:0:
101,222,84642,1,2,0:0:0:0:
62,309,84750,1,2,0:0:0:0:
91,332,84859,2,0,P|113:332|140:322,1,37.5000014305115,8|0,0:1|0:0,0:0:0:0:
161,148,85076,2,0,P|139:148|112:158,1,37.5000014305115,2|2,0:0|0:0,0:0:0:0:
197,311,85294,69,8,0:0:0:0:
151,235,85403,1,0,0:0:0:0:
193,284,85511,1,2,0:0:0:0:
155,262,85620,1,2,0:0:0:0:
174,273,85729,6,0,P|195:271|218:262,1,37.5000014305115,8|0,0:1|0:0,0:0:0:0:
340,285,85946,2,0,P|348:265|352:241,1,37.5000014305115,2|2,0:0|0:0,0:0:0:0:
433,147,86163,2,0,P|420:129|401:113,3,37.5000014305115,8|0|2|2,0:0|0:0|0:0|0:0,0:0:0:0:
328,18,86598,70,0,P|305:20|254:48,1,75.0000028610231,8|2,0:1|0:0,0:0:0:0:
182,89,86924,6,0,P|171:53|174:16,1,75.0000028610231,2|0,0:0|0:0,0:0:0:0:
131,162,87250,1,2,0:0:0:0:
167,175,87359,1,2,0:0:0:0:
104,238,87468,54,0,P|105:197|132:160,1,85.0000016212464,12|2,0:1|0:0,0:0:0:0:
225,106,87794,1,2,0:0:0:0:
225,106,87903,2,0,P|237:67|229:24,1,85.0000016212464,0|2,0:0|0:0,0:0:0:0:
133,60,88337,1,0,0:0:0:0:
162,217,88555,2,0,L|216:215,1,42.5000008106232,2|2,0:0|0:0,0:0:0:0:
302,211,88772,1,0,0:0:0:0:
355,124,88989,2,0,L|326:78,1,42.5000008106232,2|2,0:0|0:0,0:0:0:0:
279,7,89206,1,0,0:0:0:0:
176,10,89424,6,0,L|150:57,1,42.5000008106232,2|2,0:0|0:0,0:0:0:0:
112,134,89642,1,0,0:0:0:0:
223,131,89859,1,2,0:0:0:0:
333,128,90076,2,0,B|359:43|359:43|386:85,1,127.50000243187,0|2,0:0|0:0,0:0:0:0:
314,102,90511,2,0,P|277:105|220:84,1,85.0000016212464,0|2,0:0|0:0,0:0:0:0:
79,45,90946,6,0,L|84:133,1,85.0000016212464,0|2,0:0|0:0,0:0:0:0:
127,210,91272,1,2,0:0:0:0:
116,192,91381,2,0,P|153:189|206:218,1,85.0000016212464,0|2,0:0|0:0,0:0:0:0:
255,346,91707,1,2,0:0:0:0:
238,353,91816,2,0,L|233:265,1,85.0000016212464,0|2,0:0|0:0,0:0:0:0:
180,121,92142,1,2,0:0:0:0:
180,121,92250,2,0,L|194:43,1,42.5000008106232
36,174,92468,2,0,L|28:132,1,42.5000008106232,2|2,0:0|0:0,0:0:0:0:
152,267,92685,70,0,L|144:345,1,42.5000008106232
252,248,92903,1,2,0:0:0:0:
257,267,93011,1,2,0:0:0:0:
262,286,93120,2,0,L|276:340,1,42.5000008106232,0|0,0:0|0:0,0:0:0:0:
332,176,93337,1,2,0:0:0:0:
346,190,93445,1,2,0:0:0:0:
360,204,93554,2,0,L|399:243,1,42.5000008106232,0|0,0:0|0:0,0:0:0:0:
348,44,93772,1,2,0:0:0:0:
328,35,93881,1,2,0:0:0:0:
309,45,93989,1,0,0:0:0:0:
282,58,94098,1,0,0:0:0:0:
247,58,94207,1,2,0:0:0:0:
213,38,94316,1,2,0:0:0:0:
177,15,94424,6,0,P|152:49|159:98,1,85.0000016212464,0|2,0:0|0:0,0:0:0:0:
218,184,94750,1,2,0:0:0:0:
218,184,94859,2,0,L|311:177,1,85.0000016212464,0|2,0:0|0:0,0:0:0:0:
348,44,95293,1,0,0:0:0:0:
440,87,95511,2,0,L|447:141,1,42.5000008106232,2|2,0:0|0:0,0:0:0:0:
457,230,95728,1,0,0:0:0:0:
373,288,95946,2,0,L|322:267,1,42.5000008106232,2|2,0:0|0:0,0:0:0:0:
240,231,96163,69,0,0:0:0:0:
232,130,96381,2,0,L|275:96,1,42.5000008106232,2|2,0:0|0:0,0:0:0:0:
348,44,96598,1,0,0:0:0:0:
351,164,96816,1,2,0:0:0:0:
350,282,97033,2,0,B|296:280|260:303|260:303|303:313,1,127.50000243187,0|2,0:0|0:0,0:0:0:0:
298,251,97467,2,0,P|292:214|260:162,1,85.0000016212464,0|2,0:0|0:0,0:0:0:0:
103,270,97903,6,0,L|93:386,1,85.0000016212464,0|2,0:0|0:0,0:0:0:0:
158,206,98228,1,2,0:0:0:0:
157,190,98337,2,0,P|116:172|71:177,1,85.0000016212464,0|2,0:0|0:0,0:0:0:0:
17,114,98663,1,2,0:0:0:0:
17,98,98772,2,0,P|57:78|102:82,1,85.0000016212464,0|2,0:0|0:0,0:0:0:0:
241,106,99098,1,2,0:0:0:0:
241,106,99207,2,0,L|307:98,1,42.5000008106232
439,119,99424,70,0,L|373:127,1,42.5000008106232,2|2,0:0|0:0,0:0:0:0:
321,215,99642,2,0,P|324:239|350:267,1,42.5000008106232,0|0,0:0|0:0,0:0:0:0:
202,325,99859,1,2,0:0:0:0:
197,317,99968,1,2,0:0:0:0:
193,309,100076,2,0,P|190:285|164:257,1,42.5000008106232,0|0,0:0|0:0,0:0:0:0:
99,187,100294,1,2,0:0:0:0:
104,179,100403,1,2,0:0:0:0:
108,171,100511,2,0,P|111:147|137:119,1,42.5000008106232,0|0,0:0|0:0,0:0:0:0:
216,62,100729,5,2,0:0:0:0:
232,61,100837,1,2,0:0:0:0:
255,73,100946,1,0,0:0:0:0:
279,97,101055,1,0,0:0:0:0:
305,130,101163,1,2,0:0:0:0:
354,141,101272,1,2,0:0:0:0:
410,135,101381,6,0,B|399:47|399:47|381:79,1,110.000003356934,12|2,0:1|0:0,0:0:0:0:
421,213,101707,5,2,0:0:0:0:
421,213,101816,2,0,P|455:213|493:230,1,67.5000002574921,8|0,0:0|0:0,0:0:0:0:
355,283,102033,2,0,P|321:283|290:270,1,67.5000002574921,2|2,0:0|0:0,0:0:0:0:
233,191,102250,2,0,B|213:178|213:178|203:283,1,110.000003356934,8|2,0:1|0:0,0:0:0:0:
338,200,102576,1,2,0:0:0:0:
338,200,102685,2,0,L|348:125,1,67.5000002574921,8|0,0:0|0:0,0:0:0:0:
254,28,102903,2,0,L|265:111,1,67.5000002574921,2|2,0:0|0:0,0:0:0:0:
184,243,103120,69,8,0:1:0:0:
125,69,103337,1,2,0:0:0:0:
120,51,103446,1,2,0:0:0:0:
53,97,103555,2,0,B|76:200|76:200|89:163,1,135.000000514984,8|2,0:0|0:0,0:0:0:0:
169,161,103881,1,2,0:0:0:0:
169,161,103989,2,0,B|215:153|215:153|219:151|219:151|222:152|222:152|290:140,1,110.000003356934,8|2,0:1|0:0,0:0:0:0:
390,23,104316,1,2,0:0:0:0:
378,9,104424,2,0,P|350:9|325:19,1,55.0000016784668,8|0,0:0|0:0,0:0:0:0:
276,142,104642,2,0,P|290:165|312:183,1,55.0000016784668,2|2,0:0|0:0,0:0:0:0:
487,127,104859,6,0,P|473:180|429:214,1,110.000003356934,8|2,0:1|0:0,0:0:0:0:
429,320,105185,1,2,0:0:0:0:
431,306,105294,2,0,B|399:314|366:290|366:290|388:324|360:370,1,135.000000514984,8|2,0:0|0:0,0:0:0:0:
285,329,105620,1,2,0:0:0:0:
270,336,105729,2,0,L|215:332,1,55.0000016784668,8|0,0:1|0:0,0:0:0:0:
73,297,105946,2,0,L|128:301,1,55.0000016784668,2|2,0:0|0:0,0:0:0:0:
254,241,106163,2,0,B|229:231|229:231|199:237,1,55.0000016784668,8|0,0:0|0:0,0:0:0:0:
150,144,106381,2,0,B|171:127|171:127|180:98,1,55.0000016784668,2|2,0:0|0:0,0:0:0:0:
285,140,106598,69,8,0:1:0:0:
299,148,106707,1,0,0:0:0:0:
315,151,106816,1,2,0:0:0:0:
331,150,106924,1,2,0:0:0:0:
402,108,107033,2,0,L|456:104,3,55.0000016784668,8|0|2|2,0:0|0:0|0:0|0:0,0:0:0:0:
439,199,107468,2,0,P|440:228|454:255,1,55.0000016784668,8|0,0:1|0:0,0:0:0:0:
406,331,107685,2,0,P|383:315|369:291,1,55.0000016784668,2|2,0:0|0:0,0:0:0:0:
342,199,107903,6,0,P|293:232|274:288,1,119.999996337891,8|2,0:0|0:0,0:0:0:0:
256,192,108229,1,2,0:0:0:0:
256,192,108337,70,0,B|256:129|256:129|258:126|258:126|256:123|256:123|256:53,1,119.999996337891,8|2,0:1|0:0,0:0:0:0:
130,118,108663,1,2,0:0:0:0:
130,118,108772,2,0,P|91:99|80:70,1,59.9999981689454,8|0,0:0|0:0,0:0:0:0:
117,201,108989,2,0,P|146:204|172:190,1,59.9999981689454,2|2,0:0|0:0,0:0:0:0:
215,118,109207,1,8,0:1:0:0:
242,129,109316,1,0,0:0:0:0:
271,129,109424,1,2,0:0:0:0:
298,118,109533,1,2,0:0:0:0:
366,118,109642,2,0,P|394:126|412:150,1,59.9999981689454,8|0,0:0|0:0,0:0:0:0:
365,264,109859,2,0,P|345:242|340:212,1,59.9999981689454,2|2,0:0|0:0,0:0:0:0:
298,118,110076,5,8,0:1:0:0:
294,88,110185,1,0,0:0:0:0:
290,58,110294,1,2,0:0:0:0:
286,28,110403,1,2,0:0:0:0:
209,48,110511,2,0,B|204:79|204:79|222:113,1,59.9999981689454,8|0,0:0|0:0,0:0:0:0:
374,83,110729,2,0,B|379:52|379:52|361:18,1,59.9999981689454,2|2,0:0|0:0,0:0:0:0:
304,155,110946,70,0,P|358:186|423:171,1,119.999996337891,8|2,0:1|0:0,0:0:0:0:
335,214,111272,1,2,0:0:0:0:
335,214,111381,2,0,P|321:246|323:284,1,59.9999981689454,8|0,0:0|0:0,0:0:0:0:
465,275,111598,2,0,B|439:263|405:265,1,59.9999981689454,2|2,0:0|0:0,0:0:0:0:
225,277,111816,6,0,B|179:299|136:271|136:271|169:260,1,119.999996337891,8|2,0:1|0:0,0:0:0:0:
222,161,112142,1,2,0:0:0:0:
237,177,112250,2,0,P|249:147|244:108,1,59.9999981689454,8|0,0:0|0:0,0:0:0:0:
109,43,112468,2,0,P|97:73|102:112,1,59.9999981689454,2|2,0:0|0:0,0:0:0:0:
202,43,112685,69,0,0:1:0:0:
230,31,112794,1,0,0:0:0:0:
259,31,112903,1,2,0:0:0:0:
288,37,113011,1,2,0:0:0:0:
314,51,113120,1,8,0:0:0:0:
328,57,113229,1,0,0:0:0:0:
343,57,113338,1,2,0:0:0:0:
358,54,113446,1,2,0:0:0:0:
366,49,113555,6,0,B|383:97|383:97|382:102|382:102|410:170|410:170|414:174|414:174|432:228|432:228|343:196|343:196|289:211|289:211|209:167|131:212|109:302|115:317|115:317|178:273|213:280|213:280|234:307|281:309,1,770.000023498536,8|2,0:1|0:0,0:0:0:0:
351,337,115294,70,0,L|383:349,4,18.7500007152558,2|2|2|2|2,0:0|0:0|0:0|0:0|0:0,0:0:0:0:
364,232,115620,1,0,0:0:0:0:
364,232,115729,2,0,L|358:182,1,37.5000014305115
259,93,115946,2,0,L|265:43,1,37.5000014305115,0|2,3:0|0:0,0:0:0:0:
79,95,116163,1,8,0:1:0:0:
165,252,116381,2,0,B|84:260|84:260|118:277,2,100,4|8|8,0:3|0:1|0:0,0:0:0:0:
352,273,117033,38,0,P|412:297|501:235,1,157.499995193482,12|2,0:1|0:0,0:0:0:0:
287,215,117468,2,0,P|266:251|261:292,1,52.4999983978272,8|0,0:0|0:0,0:0:0:0:
368,191,117685,2,0,P|359:166|344:144,1,52.4999983978272,2|2,0:0|0:0,0:0:0:0:
271,101,117903,5,8,0:1:0:0:
300,350,118120,1,2,0:0:0:0:
466,161,118337,2,0,L|456:95,1,52.4999983978272,8|0,0:0|0:0,0:0:0:0:
333,50,118555,2,0,B|271:61|271:61|244:86|244:86|163:101,1,157.499995193482,2|0,0:0|0:0,0:0:0:0:
78,112,118989,70,0,P|67:73|71:37,1,52.4999983978272,2|2,0:0|0:0,0:0:0:0:
151,184,119207,2,0,P|148:210|139:234,1,52.4999983978272,8|0,0:0|0:0,0:0:0:0:
75,343,119424,2,0,B|98:362|123:368|123:368|253:339,1,157.499995193482,2|0,0:0|0:0,0:0:0:0:
305,326,119859,1,2,0:0:0:0:
359,261,119968,1,2,0:0:0:0:
317,188,120076,2,0,P|264:195|238:205,1,52.4999983978272,8|0,0:0|0:0,0:0:0:0:
367,120,120294,2,0,P|392:125|418:126,1,52.4999983978272,2|2,0:0|0:0,0:0:0:0:
500,103,120511,5,8,0:1:0:0:
218,45,120729,1,2,0:0:0:0:
218,45,120837,1,2,0:0:0:0:
218,45,120946,2,0,L|143:53,1,52.4999983978272,8|0,0:0|0:0,0:0:0:0:
87,121,121163,2,0,B|105:162|105:162|62:210|93:273,1,150.000005722046,2|2,0:0|0:0,0:0:0:0:
215,228,121707,1,2,0:0:0:0:
215,228,121816,2,0,L|163:223,1,52.4999983978272,8|0,0:0|0:0,0:0:0:0:
268,343,122033,69,2,0:0:0:0:
261,357,122142,1,2,0:0:0:0:
256,372,122250,2,0,L|203:377,1,52.4999983978272,8|0,0:1|0:0,0:0:0:0:
296,171,122468,53,2,0:0:0:0:
312,93,122577,1,2,0:0:0:0:
330,16,122685,2,0,P|382:21|443:26,1,104.999996795654,8|2,0:0|0:0,0:0:0:0:
495,259,123120,37,8,0:1:0:0:
276,291,123337,1,2,0:0:0:0:
276,291,123446,1,2,0:0:0:0:
276,291,123555,2,0,L|265:362,1,52.4999983978272,8|0,0:0|0:0,0:0:0:0:
156,254,123772,2,0,L|145:183,1,52.4999983978272,2|2,0:0|0:0,0:0:0:0:
126,31,123989,70,0,B|220:19|188:69|287:49,1,157.499995193482,8|2,0:1|0:0,0:0:0:0:
401,20,124424,2,0,L|411:88,1,52.4999983978272,8|0,0:0|0:0,0:0:0:0:
430,206,124642,1,2,0:0:0:0:
430,206,124750,1,2,0:0:0:0:
430,206,124859,2,0,P|466:214|496:210,1,52.4999983978272,8|0,0:1|0:0,0:0:0:0:
349,265,125076,2,0,P|376:289|404:301,1,52.4999983978272,2|2,0:0|0:0,0:0:0:0:
247,278,125294,2,0,P|258:313|276:337,1,52.4999983978272,8|0,0:0|0:0,0:0:0:0:
336,129,125511,5,2,0:0:0:0:
280,65,125620,1,2,0:0:0:0:
196,52,125729,2,0,L|105:65,1,52.4999983978272,8|0,0:1|0:0,0:0:0:0:
106,135,125946,2,0,L|197:148,1,52.4999983978272,2|2,0:0|0:0,0:0:0:0:
186,221,126163,2,0,L|134:228,1,52.4999983978272,8|0,0:0|0:0,0:0:0:0:
275,372,126381,70,0,P|295:337|282:252,1,104.999996795654,2|8,0:0|0:1,0:0:0:0:
144,59,126816,1,2,0:0:0:0:
72,101,126924,1,2,0:0:0:0:
47,181,127033,2,0,L|54:239,1,52.4999983978272,8|0,0:0|0:0,0:0:0:0:
179,273,127250,2,0,L|186:215,1,52.4999983978272,2|2,0:0|0:0,0:0:0:0:
279,92,127468,6,0,B|340:84|340:84|371:104|371:104|442:94,1,157.499995193482,8|2,0:1|0:0,0:0:0:0:
331,191,127903,2,0,L|259:184,1,52.4999983978272,8|0,0:0|0:0,0:0:0:0:
144,157,128120,70,0,B|116:194|116:194|142:317,1,157.499995193482,2|0,0:0|0:0,0:0:0:0:
208,350,128555,1,2,0:0:0:0:
291,355,128663,1,2,0:0:0:0:
354,299,128772,2,0,L|437:291,1,52.4999983978272,8|0,0:0|0:0,0:0:0:0:
499,193,128989,2,0,L|446:187,1,52.4999983978272,2|2,0:0|0:0,0:0:0:0:
309,173,129207,6,0,P|292:112|284:68,1,104.999996795654,8|2,0:1|0:0,0:0:0:0:
189,25,129533,1,2,0:0:0:0:
189,25,129642,2,0,P|178:76|164:126,1,104.999996795654,8|2,0:0|0:0,0:0:0:0:
101,211,129968,1,2,0:0:0:0:
101,211,130076,2,0,L|34:205,1,52.4999983978272,8|0,0:1|0:0,0:0:0:0:
78,330,130294,69,2,0:0:0:0:
182,365,130403,1,2,0:0:0:0:
285,330,130511,2,0,P|296:302|292:257,1,52.4999983978272,8|0,0:0|0:0,0:0:0:0:
183,183,130729,2,0,P|185:209|195:233,1,52.4999983978272,2|2,0:0|0:0,0:0:0:0:
423,266,130946,6,0,B|470:228|493:135|410:102|339:146|364:210,1,240,12|2,0:1|0:0,0:0:0:0:
397,275,131381,1,8,0:0:0:0:
251,103,131598,1,2,0:0:0:0:
251,103,131707,1,2,0:0:0:0:
251,103,131816,2,0,L|192:107,1,52.4999983978272,8|0,0:1|0:0,0:0:0:0:
326,56,132033,2,0,L|352:2,1,52.4999983978272,2|2,0:0|0:0,0:0:0:0:
330,145,132250,2,0,L|362:194,1,52.4999983978272,8|0,0:0|0:0,0:0:0:0:
450,344,132468,70,0,B|412:380|412:380|293:360,1,157.499995193482,2|0,0:0|0:0,0:0:0:0:
224,268,132903,2,0,P|250:261|303:263,1,52.4999983978272,2|2,0:0|0:0,0:0:0:0:
159,366,133120,2,0,P|132:364|107:357,1,52.4999983978272,8|0,0:0|0:0,0:0:0:0:
35,222,133337,6,0,B|21:100|21:100|68:124,1,157.499995193482,2|0,0:0|0:0,0:0:0:0:
128,149,133772,1,2,0:0:0:0:
211,158,133881,1,2,0:0:0:0:
290,131,133989,2,0,P|294:98|285:64,1,52.4999983978272,8|0,0:0|0:0,0:0:0:0:
124,180,134207,2,0,P|120:213|129:247,1,52.4999983978272,2|2,0:0|0:0,0:0:0:0:
171,325,134424,69,8,0:1:0:0:
371,209,134642,1,2,0:0:0:0:
371,209,134750,1,2,0:0:0:0:
371,209,134859,2,0,L|444:215,1,52.4999983978272,8|0,0:0|0:0,0:0:0:0:
500,320,135076,2,0,B|448:328|448:328|409:377|342:361,1,157.499995193482,2|0,0:0|0:0,0:0:0:0:
258,290,135511,1,2,0:0:0:0:
258,290,135620,1,2,0:0:0:0:
258,290,135729,2,0,P|252:252|257:223,1,52.4999983978272,8|0,0:0|0:0,0:0:0:0:
299,115,135946,5,2,0:0:0:0:
310,104,136055,1,2,0:0:0:0:
321,92,136163,2,0,L|316:18,1,52.4999983978272,8|0,0:1|0:0,0:0:0:0:
165,210,136381,37,2,0:0:0:0:
90,233,136489,1,2,0:0:0:0:
16,203,136598,2,0,P|1:149|20:87,1,104.999996795654,8|2,0:0|0:0,0:0:0:0:
221,16,137033,21,8,0:1:0:0:
309,228,137250,1,2,0:0:0:0:
309,228,137359,1,2,0:0:0:0:
309,228,137468,2,0,P|336:231|362:228,1,52.4999983978272,8|0,0:0|0:0,0:0:0:0:
360,114,137685,2,0,P|333:112|307:116,1,52.4999983978272,2|2,0:0|0:0,0:0:0:0:
99,166,137903,6,0,B|76:218|102:265|105:245|127:288|105:354|105:354|95:318|74:297,1,240,8|2,0:1|0:0,0:0:0:0:
28,78,138337,2,0,L|102:69,1,52.4999983978272,8|0,0:0|0:0,0:0:0:0:
205,48,138555,1,2,0:0:0:0:
0,194,138772,1,8,0:1:0:0:
244,253,138989,1,2,0:0:0:0:
244,253,139098,1,2,0:0:0:0:
244,253,139207,2,0,L|310:243,1,52.4999983978272,8|0,0:0|0:0,0:0:0:0:
329,107,139424,70,0,B|278:86|278:86|316:225,1,194.999991073609,2|0,0:0|0:0,0:0:0:0:
427,135,139859,2,0,P|433:101|421:67,1,52.4999983978272,2|2,0:0|0:0,0:0:0:0:
194,58,140076,2,0,P|190:83|196:109,1,52.4999983978272,8|0,0:0|0:0,0:0:0:0:
284,337,140294,6,0,B|336:341|336:341|384:316|384:316|457:320,1,157.499995193482,2|0,0:0|0:0,0:0:0:0:
267,242,140729,1,2,0:0:0:0:
192,279,140837,1,2,0:0:0:0:
120,323,140946,2,0,L|63:318,1,52.4999983978272,8|0,0:0|0:0,0:0:0:0:
9,177,141163,2,0,L|66:172,1,52.4999983978272,2|2,0:0|0:0,0:0:0:0:
193,165,141381,37,12,0:1:0:0:
371,60,141598,1,2,0:0:0:0:
381,51,141707,1,2,0:0:0:0:
391,42,141816,1,8,0:0:0:0:
340,214,142033,1,2,0:0:0:0:
349,224,142142,1,2,0:0:0:0:
358,234,142251,1,0,0:1:0:0:
193,165,142468,1,2,0:0:0:0:
183,174,142577,1,2,0:0:0:0:
173,183,142685,2,0,P|121:190|75:179,1,89.9999972534181,8|2,0:0|0:0,0:0:0:0:
371,60,143120,37,12,0:1:0:0:
188,304,143337,1,2,0:0:0:0:
172,326,143446,1,2,0:0:0:0:
156,348,143555,2,0,P|104:351|60:354,1,89.9999972534181,8|2,0:0|0:0,0:0:0:0:
254,99,143989,1,0,0:1:0:0:
470,210,144207,1,2,0:0:0:0:
502,289,144316,1,2,0:0:0:0:
473,368,144424,2,0,P|425:377|370:363,1,89.9999972534181,8|2,0:0|0:0,0:0:0:0:
180,149,144859,38,0,B|138:109|58:133|55:195|55:195|42:200|42:200|54:206|54:206|91:265|66:317|66:317|137:351|173:292|184:252|142:199|90:208,1,539.999983520508,12|0,0:1|0:0,0:0:0:0:
221,348,146381,70,0,B|264:294|236:213|236:213|267:148|367:95|455:144|446:272|353:317|273:276|255:137|288:72|288:72|248:90|201:69|201:69|165:99|182:156,1,809.999975280763,8|0,0:1|0:0,0:0:0:0:
180,148,148989,70,0,P|118:141|34:219,1,179.999994506836,2|2,0:0|0:0,0:0:0:0:
243,259,149642,1,0,0:0:0:0:
329,176,149859,6,0,L|319:57,1,89.9999972534181,2|0,0:0|0:0,0:0:0:0:
243,259,150294,2,0,P|302:293|414:261,1,179.999994506836,2|2,0:0|0:0,0:0:0:0:
180,148,150946,37,0,1:0:0:0:
180,148,151055,1,0,1:0:0:0:
180,148,151163,2,0,L|127:155,1,44.999998626709,8|4,0:3|0:3,0:0:0:0:
243,71,151381,6,0,P|264:91|275:113,1,44.999998626709,0|0,1:0|0:0,0:0:0:0:
356,145,151598,2,0,P|350:182|324:216,1,75.0000028610231,2|4,1:2|0:3,0:0:0:0:
243,259,151816,38,2,B|197:253|197:253|170:269|170:269|97:258|97:258|61:219,1,189.999994926453,12|2,0:1|0:0,0:1:0:0:
45,135,152142,1,2,0:0:0:0:
45,135,152250,2,0,P|51:101|76:60,1,75.0000028610231,8|0,0:0|0:0,0:0:0:0:
241,15,152468,6,2,B|291:31|291:31|311:111|311:111|369:132,1,189.999994926453,2|8,0:1|0:1,0:0:0:0:
459,113,152794,1,0,0:0:0:0:
459,112,152903,2,0,P|450:149|442:192,1,80,2|2,0:0|0:0,0:0:0:0:
474,306,153120,70,0,B|422:278|422:278|317:331,1,160,8|2,0:0|0:0,0:0:0:0:
298,236,153446,1,2,0:0:0:0:
207,270,153555,6,0,B|115:241|144:319|40:296,1,175.00000166893,8|2,0:1|0:0,0:0:0:0:
0,205,153881,1,2,0:0:0:0:
71,134,153989,2,0,L|82:225,1,87.500000834465,8|0,0:0|0:0,0:0:0:0:
298,49,154207,70,0,L|287:140,1,87.500000834465,2|0,0:1|0:0,0:0:0:0:
298,236,154424,2,2,P|377:187|372:90,1,175.00000166893,8|2,0:1|0:0,0:0:0:0:
255,59,154750,1,2,0:0:0:0:
255,59,154859,2,0,P|284:49|309:48,3,43.7500004172325,10|2|2|2,0:0|0:0|0:0|0:0,0:0:0:0:
209,137,155076,2,2,L|102:125,1,87.500000834465,2|2,0:0|0:0,0:0:0:0:
87,302,155294,6,2,B|134:296|134:296|167:310|167:310|204:294|204:294|254:312,1,175.00000166893,10|2,0:1|0:0,0:0:0:0:
335,348,155620,1,2,0:0:0:0:
335,348,155729,2,0,L|328:253,1,87.500000834465,8|0,0:0|0:0,0:0:0:0:
453,203,155946,2,0,L|460:116,1,87.500000834465,2|2,0:0|0:0,0:0:0:0:
350,34,156163,70,0,B|334:80|345:126|345:126|314:90|266:94,1,175.00000166893,8|2,0:1|0:0,0:0:0:0:
191,146,156489,1,2,0:0:0:0:
191,146,156598,2,0,L|10:132,1,175.00000166893,8|2,0:0|0:0,0:0:0:0:
45,219,156924,1,2,0:0:0:0:
45,219,157033,6,0,P|33:263|27:306,1,87.500000834465,8|0,0:1|0:0,0:0:0:0:
217,274,157250,2,0,L|113:282,1,87.500000834465,2|2,0:0|0:0,0:0:0:0:
335,347,157468,2,0,L|312:159,1,175.00000166893,8|2,0:0|0:0,0:0:0:0:
367,94,157794,1,2,0:0:0:0:
367,94,157903,70,0,P|326:80|272:87,1,87.500000834465,8|0,0:1|0:0,0:0:0:0:
117,147,158120,1,2,0:0:0:0:
223,175,158229,1,2,0:0:0:0:
195,81,158337,2,0,L|201:270,1,175.00000166893,8|2,0:0|0:0,0:0:0:0:
378,265,158663,1,2,0:0:0:0:
459,237,158772,6,2,B|446:198|446:198|341:180|341:180|299:224,1,189.999994926453,10|2,0:1|0:0,0:1:0:0:
286,288,159098,1,2,0:0:0:0:
286,288,159207,2,0,B|298:319|298:319|334:347,1,75.0000028610231,8|0,0:0|0:0,0:0:0:0:
223,175,159424,70,2,B|208:155|208:155|152:150|152:150|132:167|132:167|75:162|75:162|55:138,1,189.999994926453,2|8,0:1|0:1,0:0:0:0:
110,16,159750,1,0,0:0:0:0:
110,16,159859,2,0,B|123:52|123:52|107:96,1,80,2|2,0:0|0:0,0:0:0:0:
43,267,160076,6,0,B|86:237|86:237|138:270|132:330,1,160,8|0,0:0|0:0,0:0:0:0:
210,286,160403,1,0,0:0:0:0:
295,298,160511,70,0,B|418:324|418:324|462:284,1,175.00000166893,8|2,0:1|0:0,0:0:0:0:
452,194,160837,1,2,0:0:0:0:
452,194,160946,2,0,P|403:208|368:244,1,87.500000834465,8|0,0:0|0:0,0:0:0:0:
189,21,161163,6,2,P|238:35|273:71,1,87.500000834465,2|0,0:1|0:0,0:0:0:0:
283,144,161381,2,2,L|81:179,1,175.00000166893,8|2,0:1|0:0,0:0:0:0:
21,184,161707,1,2,0:0:0:0:
21,184,161816,2,0,L|27:140,3,43.7500004172325,10|2|2|2,0:0|0:0|0:0|0:0,0:0:0:0:
84,262,162033,2,2,P|127:264|169:278,1,87.500000834465,2|2,0:0|0:0,0:0:0:0:
286,333,162250,70,2,P|234:348|101:356,1,175.00000166893,10|2,0:1|0:0,0:0:0:0:
83,261,162576,1,2,0:0:0:0:
83,261,162685,2,2,L|100:164,1,87.500000834465,8|0,0:0|0:0,0:0:0:0:
121,67,162903,2,0,P|166:46|221:53,1,87.500000834465,2|2,0:0|0:0,0:0:0:0:
353,127,163120,6,0,L|261:120,1,87.500000834465,8|0,0:1|0:0,0:0:0:0:
426,63,163337,1,2,0:0:0:0:
443,154,163446,1,2,0:0:0:0:
380,222,163555,2,0,L|392:316,1,87.500000834465,8|0,0:0|0:0,0:0:0:0:
277,348,163772,2,0,L|288:261,1,87.500000834465,2|2,0:0|0:0,0:0:0:0:
84,116,163989,70,0,L|96:211,1,87.500000834465,8|0,0:1|0:0,0:0:0:0:
171,328,164207,2,0,L|183:233,1,87.500000834465,2|2,0:0|0:0,0:0:0:0:
171,77,164424,6,0,L|183:172,1,87.500000834465,8|0,0:0|0:0,0:0:0:0:
84,289,164642,2,0,L|96:194,1,87.500000834465,2|2,0:0|0:0,0:0:0:0:
95,31,164859,70,0,P|52:36|18:64,1,87.500000834465,8|0,0:1|0:0,0:0:0:0:
181,241,165076,1,2,0:0:0:0:
269,241,165185,1,2,0:0:0:0:
312,165,165294,1,8,0:0:0:0:
269,89,165403,1,0,0:0:0:0:
290,86,165511,1,2,0:0:0:0:
312,83,165620,1,2,0:0:0:0:
334,81,165729,70,0,L|412:94,1,75.0000028610231,4|0,0:1|0:0,0:0:0:0:
501,183,165946,1,2,0:0:0:0:
494,219,166054,1,2,0:0:0:0:
488,256,166163,1,8,0:0:0:0:
482,293,166272,1,0,0:0:0:0:
475,330,166381,2,0,L|388:313,1,75.0000028610231,2|2,0:0|0:0,0:0:0:0:
330,202,166598,69,0,0:0:0:0:
294,190,166706,1,0,0:0:0:0:
257,194,166815,1,2,0:0:0:0:
227,215,166924,1,2,0:0:0:0:
208,248,167033,2,0,L|115:240,1,75.0000028610231,8|0,0:0|0:0,0:0:0:0:
15,149,167250,2,0,L|108:140,1,75.0000028610231,2|2,0:0|0:0,0:0:0:0:
227,10,167468,6,0,L|216:96,1,75.0000028610231
330,202,167685,1,2,0:0:0:0:
366,198,167793,1,2,0:0:0:0:
396,176,167902,1,8,0:0:0:0:
409,141,168011,1,0,0:0:0:0:
402,105,168120,2,0,L|323:116,1,75.0000028610231,2|2,0:0|0:0,0:0:0:0:
280,274,168337,69,0,0:0:0:0:
243,265,168445,1,0,0:0:0:0:
206,257,168554,1,2,0:0:0:0:
170,249,168663,1,2,0:0:0:0:
133,241,168772,2,0,L|91:249,3,37.5000014305115,10|2|2|2,0:0|0:0|0:0|0:0,0:0:0:0:
84,165,168989,2,0,L|6:179,1,75.0000028610231,2|2,0:0|0:0,0:0:0:0:
134,34,169207,6,0,P|156:63|163:100,1,75.0000028610231,0|0,0:0|0:0,0:0:0:0:
134,241,169424,1,2,0:0:0:0:
163,216,169532,1,2,0:0:0:0:
197,202,169641,1,8,0:0:0:0:
235,201,169750,1,0,0:0:0:0:
270,212,169859,2,0,L|350:198,1,75.0000028610231,2|2,0:0|0:0,0:0:0:0:
399,57,170076,69,0,0:0:0:0:
383,90,170184,1,0,0:0:0:0:
399,123,170293,1,2,0:0:0:0:
435,130,170402,1,2,0:0:0:0:
462,107,170511,2,0,P|476:74|469:25,1,75.0000028610231,8|0,0:0|0:0,0:0:0:0:
419,213,170729,2,0,P|415:250|429:284,1,75.0000028610231,2|2,0:0|0:0,0:0:0:0:
307,108,170946,6,0,L|227:122,1,75.0000028610231,0|0,0:0|0:0,0:0:0:0:
134,241,171163,1,2,0:0:0:0:
113,208,171271,1,2,0:0:0:0:
84,186,171380,1,8,0:0:0:0:
47,174,171489,1,0,0:0:0:0:
11,175,171598,2,0,L|25:98,1,75.0000028610231,2|2,0:0|0:0,0:0:0:0:
260,54,171816,69,0,0:0:0:0:
253,90,171924,1,0,0:0:0:0:
247,127,172033,1,2,0:0:0:0:
241,164,172142,1,2,0:0:0:0:
234,201,172251,2,0,L|223:281,1,75.0000028610231,8|0,0:0|0:0,0:0:0:0:
363,349,172468,2,0,P|400:343|441:309,1,75.0000028610231,2|2,0:0|0:0,0:0:0:0:
354,182,172685,6,0,L|365:262,1,75.0000028610231,0|0,0:0|0:0,0:0:0:0:
420,106,172903,1,2,0:0:0:0:
390,83,173011,1,2,0:0:0:0:
354,74,173120,1,8,0:0:0:0:
317,81,173229,1,0,0:0:0:0:
286,102,173337,2,0,L|297:24,1,75.0000028610231,2|2,0:0|0:0,0:0:0:0:
76,59,173555,69,0,0:0:0:0:
105,81,173663,1,0,0:0:0:0:
141,90,173772,1,2,0:0:0:0:
178,83,173881,1,2,0:0:0:0:
209,62,173989,2,0,L|198:140,1,75.0000028610231,8|0,0:0|0:0,0:0:0:0:
74,229,174207,2,0,L|84:307,1,75.0000028610231,2|2,0:0|0:0,0:0:0:0:
267,193,174424,6,0,P|284:153|283:114,1,75.0000028610231,0|0,0:0|0:0,0:0:0:0:
194,246,174642,1,2,0:0:0:0:
224,269,174750,1,2,0:0:0:0:
260,278,174859,1,8,0:0:0:0:
297,271,174968,1,0,0:0:0:0:
328,250,175076,2,0,L|421:261,1,75.0000028610231,2|2,0:0|0:0,0:0:0:0:
512,170,175294,69,0,0:0:0:0:
482,147,175402,1,0,0:0:0:0:
446,138,175511,1,2,0:0:0:0:
409,145,175620,1,2,0:0:0:0:
377,166,175728,2,0,L|318:159,3,37.5000014305115,10|2|2|2,0:0|0:0|0:0|0:0,0:0:0:0:
338,71,175946,2,0,L|264:63,1,75.0000028610231,2|2,0:0|0:0,0:0:0:0:
192,16,176163,6,0,P|180:51|184:87,1,75.0000028610231,0|0,0:0|0:0,0:0:0:0:
69,193,176381,1,2,0:0:0:0:
105,186,176489,1,2,0:0:0:0:
142,193,176598,1,8,0:0:0:0:
172,214,176707,1,0,0:0:0:0:
194,246,176816,2,0,L|177:329,1,75.0000028610231,2|2,0:0|0:0,0:0:0:0:
282,339,177033,69,0,0:0:0:0:
318,345,177141,1,0,0:0:0:0:
355,338,177250,1,2,0:0:0:0:
385,317,177359,1,2,0:0:0:0:
407,286,177468,2,0,L|390:202,1,75.0000028610231,8|0,0:0|0:0,0:0:0:0:
426,110,177685,2,0,L|409:26,1,75.0000028610231,2|2,0:0|0:0,0:0:0:0:
295,109,177903,5,0,0:0:0:0:
262,125,178011,1,0,0:0:0:0:
225,125,178120,1,2,0:0:0:0:
192,108,178229,1,2,0:0:0:0:
171,77,178337,1,8,0:0:0:0:
150,46,178446,1,0,0:0:0:0:
117,29,178555,1,2,0:0:0:0:
80,29,178664,1,2,0:0:0:0:
47,46,178772,5,0,0:0:0:0:
56,64,178880,1,0,0:0:0:0:
61,75,178989,5,2,0:0:0:0:
56,89,179097,1,2,0:0:0:0:
52,96,179207,69,8,0:0:0:0:
56,105,179315,1,0,0:0:0:0:
60,112,179424,5,2,0:0:0:0:
58,120,179532,1,2,0:0:0:0:
61,125,179642,38,0,L|56:178,7,37.5000014305115,0|0|2|2|0|0|2|2,0:0|0:0|0:0|0:0|0:0|0:0|0:0|0:0,0:0:0:0:
168,176,180511,6,0,L|173:229,7,37.5000014305115,0|0|2|2|0|0|2|2,0:0|0:0|0:0|0:0|0:0|0:0|0:0|0:0,0:0:0:0:
253,89,181381,70,0,P|280:77|315:80,7,50,0|0|2|2|0|0|2|2,0:0|0:0|0:0|0:0|0:0|0:0|0:0|0:0,0:0:0:0:
408,192,182250,6,0,P|432:190|455:179,1,50,2|2,0:0|0:0,0:0:0:0:
511,88,182468,70,0,P|514:48|499:12,1,75.0000028610231,2|2,0:0|0:0,0:0:0:0:
313,178,182685,6,0,L|322:219,1,37.5
411,324,183120,6,0,B|364:291|364:291|312:324|312:324|244:312,1,187.5,12|0,0:1|0:0,0:0:0:0:
186,246,183555,1,2,0:0:0:0:
52,348,183772,2,0,B|41:319|41:319|45:286,1,62.5,8|0,0:1|0:0,0:0:0:0:
117,78,183989,54,2,P|142:174|45:149,1,240,8|0,0:0|0:0,0:1:0:0:
37,54,184424,2,0,B|52:28|52:28|81:5,1,62.5,2|0,0:0|0:0,0:0:0:0:
214,52,184642,22,2,B|248:110|236:175|236:175|293:120|372:142,1,262.500002503395,8|0,0:1|0:0,0:1:0:0:
441,155,185076,2,0,L|432:73,1,62.5,10|0,0:1|0:0,0:0:0:0:
321,244,185294,1,2,0:0:0:0:
353,76,185511,2,0,L|361:159,1,62.5,8|0,0:1|0:0,0:0:0:0:
388,299,185729,22,2,B|339:329|339:329|266:315|266:315|232:267|232:267|162:253|162:253|100:289|100:289|170:303|170:303|232:267|232:267|250:199|250:199|220:132|220:132|135:114,1,700,8|0,0:0|0:0,0:1:0:0:
13,191,186598,54,0,B|33:130|-2:75|-2:75|70:96,1,187.5,8|0,0:1|0:0,0:0:0:0:
142,115,187033,1,2,0:0:0:0:
100,289,187250,54,0,L|88:357,1,62.5,8|0,0:1|0:0,0:0:0:0:
187,206,187468,22,2,B|231:188|231:188|206:331|206:331|276:310,1,240,8|0,0:0|0:0,0:1:0:0:
313,174,187903,2,0,P|293:135|270:123,1,62.5,2|0,0:0|0:0,0:0:0:0:
60,78,188120,54,2,B|88:33|138:26|195:38|205:104|205:104|172:129|133:111,1,262.500002503395,8|0,0:1|0:0,0:1:0:0:
60,78,188555,2,0,L|64:16,1,62.5,8|0,0:0|0:0,0:0:0:0:
71,235,188772,21,0,0:0:0:0:
82,245,188989,2,0,L|86:183,1,62.5,8|0,0:1|0:0,0:0:0:0:
234,71,189207,22,2,B|278:83|337:139|341:211|296:283|224:309|156:279|156:279|200:223|269:205|328:228|296:270|401:302|461:208,1,700,8|8,2:0|2:1,0:1:0:0:
455,215,190022,21,8,2:1:0:0:
462,221,190076,2,0,B|492:266|484:333|484:333|406:372,1,187.5
328,329,190511,1,2,0:0:0:0:
423,122,190729,2,0,L|486:129,1,62.5,8|0,0:1|0:0,0:0:0:0:
360,49,190946,22,2,B|292:39|292:39|245:87|245:87|174:79|174:79|207:44,1,240,8|0,0:0|0:0,0:1:0:0:
107,43,191381,2,0,B|93:73|93:73|102:100,1,62.5,2|0,0:0|0:0,0:0:0:0:
200,181,191598,54,2,B|250:264|250:264|78:224,1,262.500002503395,8|0,0:1|0:0,0:1:0:0:
1,205,192033,2,0,P|13:176|34:153,1,62.5,10|0,0:1|0:0,0:0:0:0:
124,320,192250,22,2,B|90:331|90:331|68:314|68:314|10:331,1,100,2|0,0:1|0:1,0:0:0:0:
128,148,192468,21,8,0:1:0:0:
128,148,192576,1,8,0:1:0:0:
128,148,192685,2,2,B|171:151|195:117|195:117|247:170|247:170|287:128|359:143|359:143|284:140|232:167|209:269|244:339|326:359|395:342|430:297|431:229,1,700,8|0,0:0|0:0,0:1:0:0:
341,236,193555,22,0,B|281:212|281:212|160:257,1,187.5,8|0,0:1|0:0,0:0:0:0:
86,284,193989,1,2,0:0:0:0:
105,104,194207,2,0,B|116:137|116:137|108:177,1,62.5,8|0,0:1|0:0,0:0:0:0:
218,115,194424,22,2,B|261:89|307:122|307:122|359:158|401:146|435:113|436:80,1,240,8|0,0:0|0:0,0:1:0:0:
378,7,194859,2,0,P|369:36|363:71,1,62.5,2|0,0:0|0:0,0:0:0:0:
404,245,195076,2,0,P|377:235|342:229,1,62.5,8|0,0:1|0:0,0:0:0:0:
187,305,195294,54,0,B|157:313|157:313|136:305|136:305|100:312,1,87.500000834465,2|0,0:1|0:0,0:0:0:0:
0,185,195511,2,0,B|30:192|30:192|51:184|51:184|87:191,1,87.500000834465,8|0,0:0|0:0,0:0:0:0:
170,42,195729,2,2,P|156:143|288:117,1,262.500002503395,8|0,0:1|0:0,0:1:0:0:
281,134,196163,22,2,B|298:91|273:48|273:48|325:87|380:110|442:86|487:40,1,300,10|0,0:0|0:0,0:1:0:0:
467,57,196598,54,0,P|475:109|468:134,1,62.5,4|0,0:3|0:0,0:0:0:0:
436,213,196816,2,0,P|412:233|383:244,1,62.5,8|0,0:1|0:0,0:0:0:0:
242,255,197033,22,0,P|232:292|211:326,1,59.9999981689454,12|0,0:1|0:0,0:0:0:0:
82,275,197250,2,0,P|52:299|7:310,1,59.9999981689454,2|2,0:0|0:0,0:0:0:0:
139,124,197468,2,0,P|139:156|152:201,1,59.9999981689454,8|0,0:0|0:0,0:0:0:0:
314,115,197685,2,0,P|302:151|297:190,1,59.9999981689454,2|2,0:0|0:0,0:0:0:0:
386,294,197903,6,0,P|437:268|459:205,1,120.000004577637,8|2,0:1|0:0,0:0:0:0:
440,54,198229,1,2,0:0:0:0:
402,31,198337,2,0,L|339:41,1,60.0000022888184,8|0,0:0|0:0,0:0:0:0:
201,129,198555,2,0,L|280:138,1,60.0000022888184,2|2,0:0|0:0,0:0:0:0:
87,47,198772,70,0,P|63:93|68:161,1,120.000004577637,8|2,0:1|0:0,0:0:0:0:
135,268,199098,1,2,0:0:0:0:
113,311,199207,2,0,L|17:329,1,60.0000022888184,8|0,0:0|0:0,0:0:0:0:
218,305,199424,6,0,P|217:336|209:368,1,60.0000022888184,2|2,0:0|0:0,0:0:0:0:
345,245,199642,2,0,P|316:254|268:255,1,60.0000022888184,8|0,0:1|0:0,0:0:0:0:
411,129,199859,2,0,P|406:160|407:200,1,60.0000022888184,2|2,0:0|0:0,0:0:0:0:
512,47,200076,2,0,P|480:50|447:63,1,60.0000022888184,8|0,0:0|0:0,0:0:0:0:
295,53,200294,6,0,B|274:40|274:40|263:40|263:40|259:30|259:30|234:14,1,71.9999978027344,2|2,0:0|0:0,0:0:0:0:
234,228,200511,54,0,L|302:193,1,60.0000022888184,8|0,0:1|0:0,0:0:0:0:
105,87,200729,2,0,L|101:163,1,60.0000022888184,2|2,0:0|0:0,0:0:0:0:
208,123,200946,5,8,0:0:0:0:
205,171,201055,1,0,0:0:0:0:
181,212,201163,1,2,0:0:0:0:
140,237,201272,1,2,0:0:0:0:
93,247,201381,2,0,P|60:241|32:220,1,60.0000022888184,8|0,0:1|0:0,0:0:0:0:
160,343,201598,2,0,P|192:340|224:328,1,60.0000022888184,2|2,0:0|0:0,0:0:0:0:
364,191,201816,69,8,0:0:0:0:
342,236,201924,1,0,0:0:0:0:
367,305,202033,1,2,0:0:0:0:
414,319,202142,1,2,0:0:0:0:
476,277,202250,6,0,B|435:234|435:234|442:170,1,120.000004577637,8|2,0:1|0:0,0:0:0:0:
390,107,202576,1,2,0:0:0:0:
308,126,202685,2,0,B|349:83|349:83|342:19,1,120.000004577637,8|2,0:0|0:0,0:0:0:0:
193,27,203011,1,2,0:0:0:0:
197,59,203120,2,0,L|204:133,1,60.0000022888184,8|0,0:1|0:0,0:0:0:0:
117,253,203337,6,0,B|130:242|130:242|137:230|137:230|144:240|144:240|153:227|153:227|166:217,1,75.9999979705811,2|2,0:0|0:0,0:0:0:0:
328,229,203555,2,0,B|312:222|312:222|298:222|298:222|303:211|303:211|287:210|287:210|272:203,1,75.9999979705811,8|0,0:0|0:0,0:0:0:0:
197,59,203772,2,0,B|199:76|199:76|206:88|206:88|194:89|194:89|201:103|201:103|203:120,1,75.9999979705811,2|2,0:0|0:0,0:0:0:0:
253,325,203989,54,0,B|314:308|314:308|368:328,1,120.000004577637,8|2,0:1|0:0,0:0:0:0:
229,332,204316,1,2,0:0:0:0:
207,333,204424,2,0,B|144:331|144:331|91:370,1,120.000004577637,8|2,0:0|0:0,0:0:0:0:
28,240,204750,1,2,0:0:0:0:
54,215,204859,2,0,P|91:206|128:207,1,60.0000022888184,8|0,0:1|0:0,0:0:0:0:
110,35,205076,2,0,P|142:46|173:45,1,60.0000022888184,2|2,0:0|0:0,0:0:0:0:
142,191,205294,2,0,P|169:195|198:210,1,60.0000022888184,8|0,0:0|0:0,0:0:0:0:
210,68,205511,2,0,P|242:63|274:45,1,60.0000022888184,2|2,0:0|0:0,0:0:0:0:
237,204,205729,6,0,B|268:211|282:241|282:241|314:231|344:245,1,120.000004577637,8|2,0:1|0:0,0:0:0:0:
340,148,206055,1,2,0:0:0:0:
306,63,206163,2,0,B|340:56|356:30|356:30|381:49|418:44,1,120.000004577637,8|2,0:0|0:0,0:0:0:0:
460,171,206489,1,2,0:0:0:0:
432,196,206598,2,0,P|423:226|426:263,1,60.0000022888184,8|0,0:1|0:0,0:0:0:0:
288,281,206816,70,0,P|246:347|173:333,1,160,2|8,0:0|0:0,0:0:0:0:
70,218,207142,1,0,0:0:0:0:
46,176,207250,1,2,0:0:0:0:
53,128,207359,1,2,0:0:0:0:
82,89,207468,2,0,L|146:98,1,60.0000022888184,8|0,0:1|0:0,0:0:0:0:
189,185,207685,2,0,L|257:176,1,60.0000022888184,2|2,0:0|0:0,0:0:0:0:
300,71,207903,2,0,L|364:80,1,60.0000022888184,8|0,0:0|0:0,0:0:0:0:
408,182,208120,2,0,L|476:173,1,60.0000022888184,2|2,0:0|0:0,0:0:0:0:
310,294,208337,6,0,B|407:307|407:307|384:286,1,120.000004577637,8|2,0:1|0:0,0:0:0:0:
205,201,208663,1,2,0:0:0:0:
135,215,208772,1,8,0:0:0:0:
169,181,208881,1,0,0:0:0:0:
180,134,208989,1,2,0:0:0:0:
170,86,209098,1,2,0:0:0:0:
131,54,209207,70,0,P|101:61|72:83,1,60.0000022888184,8|0,0:1|0:0,0:0:0:0:
74,305,209424,2,0,P|50:288|25:248,1,60.0000022888184,2|2,0:0|0:0,0:0:0:0:
30,134,209642,2,0,P|17:166|17:202,1,60.0000022888184,8|0,0:0|0:0,0:0:0:0:
206,331,209859,2,0,P|177:339|138:332,1,60.0000022888184,2|2,0:0|0:0,0:0:0:0:
307,299,210076,6,0,B|256:238|166:297|189:347|189:347|215:322,1,200,8|2,0:1|0:0,0:0:0:0:
214,204,210403,2,0,B|228:157|204:114|204:114|206:159|160:198|113:190,1,223.999993164063,2|0,0:0|0:0,0:0:0:0:
24,155,210729,1,2,0:0:0:0:
29,132,210837,1,2,0:0:0:0:
119,106,210946,70,0,L|114:33,1,60.0000022888184,12|0,0:1|0:0,0:0:0:0:
229,12,211163,2,0,L|225:83,1,60.0000022888184,2|2,0:0|0:0,0:0:0:0:
317,164,211381,2,0,L|321:99,1,60.0000022888184,8|0,0:1|0:0,0:0:0:0:
421,39,211598,2,0,L|425:109,1,60.0000022888184,2|2,0:0|0:0,0:0:0:0:
108,109,211816,6,0,L|116:33,1,64,8|0,0:1|0:0,0:0:0:0:
220,8,212033,2,0,L|226:90,1,64,2|2,0:0|0:0,0:0:0:0:
322,168,212250,2,0,L|320:95,1,64,8|0,0:1|0:0,0:0:0:0:
433,35,212468,2,0,L|422:116,1,64,2|2,0:0|0:0,0:0:0:0:
457,345,212685,70,0,L|387:339,1,60.0000022888184,8|0,0:1|0:0,0:0:0:0:
280,262,212903,2,0,L|364:250,1,60.0000022888184,2|2,0:0|0:0,0:0:0:0:
208,360,213120,2,0,L|145:353,1,60.0000022888184,8|0,0:1|0:0,0:0:0:0:
51,249,213337,2,0,L|118:239,1,60.0000022888184,2|2,0:0|0:0,0:0:0:0:
465,334,213555,6,0,L|369:343,1,68.0000012969971,8|0,0:1|0:0,0:0:0:0:
272,245,213772,2,0,L|351:255,1,68.0000012969971,2|2,0:0|0:0,0:0:0:0:
216,345,213989,2,0,L|136:355,1,68.0000012969971,8|0,0:1|0:0,0:0:0:0:
43,233,214207,2,0,L|124:242,1,68.0000012969971,2|2,0:0|0:0,0:0:0:0:
254,79,214424,70,0,L|252:10,1,60.0000022888184,8|0,0:1|0:0,0:0:0:0:
380,255,214642,2,0,L|382:314,1,60.0000022888184,2|2,0:0|0:0,0:0:0:0:
375,108,214859,2,0,L|374:46,1,60.0000022888184,8|0,0:1|0:0,0:0:0:0:
265,278,215076,2,0,L|267:354,1,60.0000022888184,2|2,0:0|0:0,0:0:0:0:
255,90,215294,6,0,L|251:-11,1,71.9999978027344,8|0,0:1|0:0,0:0:0:0:
379,243,215511,2,0,L|382:334,1,72.0000017578125,2|2,0:0|0:0,0:0:0:0:
376,119,215729,2,0,L|373:29,1,72.0000017578125,8|0,0:1|0:0,0:0:0:0:
264,266,215946,2,0,L|267:358,1,71.9999978027344,2|2,0:0|0:0,0:0:0:0:
237,152,216163,70,0,B|295:147|295:147|347:188,1,120.000004577637,8|2,0:1|0:0,0:0:0:0:
435,177,216489,1,2,0:0:0:0:
473,261,216598,2,0,B|410:254|410:254|369:306,1,120.000004577637,8|2,0:1|0:0,0:0:0:0:
262,277,216924,1,2,0:0:0:0:
176,318,217033,6,0,B|272:342|302:262|302:262|267:257|256:288,1,200,8|2,0:1|0:0,0:0:0:0:
374,298,217359,2,0,B|400:226|337:187|337:187|363:160|363:160|333:137|260:158,1,240.000009155274,2|0,0:0|0:0,0:0:0:0:
180,177,217685,1,2,0:0:0:0:
182,199,217794,1,2,0:0:0:0:
114,265,217903,69,8,0:1:0:0:
88,224,218011,1,0,0:0:0:0:
84,175,218120,1,2,0:0:0:0:
102,129,218229,1,2,0:0:0:0:
138,97,218337,2,0,L|205:90,1,60.0000022888184,8|0,0:1|0:0,0:0:0:0:
345,57,218555,2,0,L|332:133,1,60.0000022888184,2|2,0:0|0:0,0:0:0:0:
127,299,218772,5,8,0:1:0:0:
75,248,218881,1,0,0:0:0:0:
67,176,218989,1,2,0:0:0:0:
90,107,219098,1,2,0:0:0:0:
146,60,219207,2,0,P|185:57|230:55,1,71.9999978027344,8|0,0:1|0:0,0:0:0:0:
388,34,219424,2,0,P|378:75|359:139,1,71.9999978027344,2|2,0:0|0:0,0:0:0:0:
231,198,219642,69,8,0:1:0:0:
276,183,219750,1,0,0:0:0:0:
323,188,219859,1,2,0:0:0:0:
360,217,219968,1,2,0:0:0:0:
369,263,220076,2,0,L|348:336,1,60.0000022888184,8|0,0:1|0:0,0:0:0:0:
460,128,220294,2,0,L|452:69,1,60.0000022888184,2|2,0:0|0:0,0:0:0:0:
212,157,220511,5,8,0:1:0:0:
282,139,220620,1,0,0:0:0:0:
352,153,220729,1,2,0:0:0:0:
406,199,220837,1,2,0:0:0:0:
422,269,220946,2,0,P|414:304|397:345,1,71.9999978027344,8|0,0:1|0:0,0:0:0:0:
490,108,221163,2,0,P|483:71|478:17,1,71.9999978027344,2|2,0:0|0:0,0:0:0:0:
297,231,221381,69,8,0:1:0:0:
256,256,221489,1,0,0:0:0:0:
207,256,221598,1,2,0:0:0:0:
168,229,221707,1,2,0:0:0:0:
153,183,221816,2,0,L|81:196,1,60.0000022888184,8|0,0:1|0:0,0:0:0:0:
308,54,222033,2,0,L|225:40,1,60.0000022888184,2|2,0:0|0:0,0:0:0:0:
328,262,222250,5,8,0:1:0:0:
260,288,222359,1,0,0:0:0:0:
189,274,222468,1,2,0:0:0:0:
143,221,222576,1,2,0:0:0:0:
144,148,222685,2,0,P|108:150|46:167,1,71.9999978027344,8|0,0:1|0:0,0:0:0:0:
358,33,222903,2,0,P|322:22|269:11,1,71.9999978027344,2|2,0:0|0:0,0:0:0:0:
59,188,223120,70,0,P|38:134|49:74,1,120.000004577637,8|2,0:1|0:0,0:0:0:0:
128,247,223446,1,2,0:0:0:0:
128,247,223555,2,0,P|91:292|34:312,1,120.000004577637,8|2,0:1|0:0,0:0:0:0:
145,157,223881,1,2,0:0:0:0:
145,157,223989,6,0,B|218:135|262:191|262:191|225:202,1,160,8|0,0:1|0:0,0:0:0:0:
59,188,224316,2,0,B|51:85|147:60|147:60|119:100|128:159,1,240.000009155274,0|0,0:0|0:0,0:0:0:0:
136,241,224642,1,0,0:0:0:0:
155,248,224750,1,0,0:0:0:0:
271,296,224859,69,12,0:1:0:0:
245,311,224968,2,0,P|232:342|233:374,1,60.0000022888184,0|2,0:0|0:0,0:0:0:0:
431,315,225185,1,2,0:0:0:0:
444,288,225294,1,8,0:0:0:0:
446,258,225403,1,0,0:0:0:0:
439,228,225511,2,0,P|424:203|391:175,1,60.0000022888184,2|2,0:0|0:0,0:0:0:0:
189,87,225729,5,8,0:1:0:0:
169,64,225837,2,0,P|167:29|182:-5,1,60.0000022888184,0|2,0:0|0:0,0:0:0:0:
276,209,226055,1,2,0:0:0:0:
260,234,226163,1,8,0:0:0:0:
234,249,226272,1,0,0:0:0:0:
204,254,226381,2,0,P|173:255|140:242,1,60.0000022888184,2|2,0:0|0:0,0:0:0:0:
341,63,226598,69,8,0:1:0:0:
366,46,226707,2,0,P|399:46|445:56,1,60.0000022888184,0|2,0:0|0:0,0:0:0:0:
183,156,226924,1,2,0:0:0:0:
153,158,227033,1,8,0:0:0:0:
124,149,227142,1,0,0:0:0:0:
99,131,227250,2,0,P|86:104|88:66,1,60.0000022888184,2|2,0:0|0:0,0:0:0:0:
241,275,227468,5,8,0:1:0:0:
246,303,227576,2,0,P|235:333|214:360,1,60.0000022888184,0|2,0:0|0:0,0:0:0:0:
322,166,227794,1,2,0:0:0:0:
348,151,227903,1,8,0:0:0:0:
377,145,228011,1,0,0:0:0:0:
406,151,228120,2,0,P|438:171|459:203,1,60.0000022888184,2|2,0:0|0:0,0:0:0:0:
158,156,228337,70,0,L|151:96,1,60.0000022888184,8|0,0:1|0:0,0:0:0:0:
65,128,228555,2,0,L|56:62,1,60.0000022888184,2|2,0:0|0:0,0:0:0:0:
221,15,228772,5,8,0:0:0:0:
253,50,228881,1,0,0:0:0:0:
299,60,228989,1,2,0:0:0:0:
345,46,229098,1,2,0:0:0:0:
394,79,229207,2,0,L|384:154,1,60.0000022888184,8|0,0:1|0:0,0:0:0:0:
481,122,229424,2,0,L|471:197,1,60.0000022888184,2|2,0:0|0:0,0:0:0:0:
321,215,229642,69,8,0:0:0:0:
326,264,229750,1,0,0:0:0:0:
300,304,229859,1,2,0:0:0:0:
255,323,229968,1,2,0:0:0:0:
227,271,230076,2,0,P|218:211|168:178,1,120.000004577637,8|2,0:1|0:0,0:0:0:0:
1,209,230403,1,2,0:0:0:0:
7,234,230511,2,0,P|63:256|117:229,1,120.000004577637,8|2,0:0|0:0,0:0:0:0:
179,67,230837,1,2,0:0:0:0:
152,62,230946,2,0,P|104:99|100:159,1,120.000004577637,8|2,0:1|0:0,0:0:0:0:
308,207,231272,5,2,0:0:0:0:
348,180,231381,1,8,0:0:0:0:
301,171,231489,1,0,0:0:0:0:
269,134,231598,1,2,0:0:0:0:
273,86,231707,1,2,0:0:0:0:
299,45,231816,70,0,P|345:14|418:22,1,120.000004577637,12|2,0:1|0:0,0:0:0:0:
487,128,232142,1,2,0:0:0:0:
502,160,232250,2,0,L|489:231,1,60.0000022888184,8|0,0:0|0:0,0:0:0:0:
398,354,232468,2,0,L|388:283,1,60.0000022888184,2|2,0:0|0:0,0:0:0:0:
260,305,232685,2,0,P|205:308|145:359,1,120.000004577637,8|2,0:1|0:0,0:0:0:0:
75,233,233011,1,2,0:0:0:0:
49,260,233120,2,0,P|46:293|53:324,1,60.0000022888184,8|0,0:0|0:0,0:0:0:0:
177,208,233337,2,0,P|180:175|173:144,1,60.0000022888184,2|2,0:0|0:0,0:0:0:0:
128,29,233555,6,0,L|69:58,3,60.0000022888184,8|0|2|2,0:1|0:0|0:0|0:0,0:0:0:0:
196,92,233989,2,0,L|168:164,1,60.0000022888184,8|0,0:0|0:0,0:0:0:0:
289,79,234207,2,0,L|320:139,1,60.0000022888184,2|2,0:0|0:0,0:0:0:0:
443,232,234424,70,0,L|504:243,3,60.0000022888184,8|0|2|2,0:1|0:0|0:0|0:0,0:0:0:0:
370,299,234859,2,0,L|382:370,1,60.0000022888184,8|0,0:0|0:0,0:0:0:0:
276,265,235076,2,0,L|226:308,1,60.0000022888184,2|2,0:0|0:0,0:0:0:0:
279,170,235294,54,0,B|230:134|230:134|222:74,1,120.000004577637,8|2,0:1|0:0,0:0:0:0:
337,11,235620,1,2,0:0:0:0:
362,26,235729,2,0,L|355:107,1,60.0000022888184,8|0,0:0|0:0,0:0:0:0:
146,179,235946,2,0,L|153:248,1,60.0000022888184,2|2,0:0|0:0,0:0:0:0:
435,328,236163,2,0,L|311:305,1,120.000004577637,0|2,0:1|0:0,0:0:0:0:
279,170,236489,1,2,0:0:0:0:
256,192,236598,2,0,L|246:108,1,60.0000022888184,8|0,0:0|0:0,0:0:0:0:
37,280,236816,2,0,L|46:202,1,60.0000022888184,2|2,0:0|0:0,0:0:0:0:
97,36,237033,6,0,P|127:35|156:44,1,60.0000022888184,8|0,0:1|0:0,0:0:0:0:
234,90,237251,2,0,P|248:115|256:146,1,60.0000022888184,2|2,0:0|0:0,0:0:0:0:
247,234,237468,2,0,P|239:263|224:289,1,60.0000022888184,8|0,0:0|0:0,0:0:0:0:
139,327,237685,2,0,P|109:325|80:320,1,60.0000022888184,2|2,0:0|0:0,0:0:0:0:
431,319,237903,2,0,P|396:325|360:326,1,60.0000022888184,0|0,0:1|0:0,0:0:0:0:
287,288,238120,2,0,P|270:259|262:211,1,60.0000022888184,2|2,0:0|0:0,0:0:0:0:
255,145,238337,2,0,P|264:108|287:71,1,60.0000022888184,8|0,0:0|0:0,0:0:0:0:
355,43,238555,2,0,P|387:34|424:39,1,60.0000022888184,2|2,0:0|0:0,0:0:0:0:
381,260,238772,38,0,B|411:239|422:194|404:122|404:122|520:183|468:360|341:355,1,480,0|0,3:0|0:0,0:0:0:0:
171,355,239207,2,2,B|44:360|-8:183|108:122|108:122|90:194|101:239|142:271,1,480,2|0,0:1|0:0,0:1:0:0:
108,123,239642,54,0,P|79:117|55:100,1,60.0000022888184,0|2,1:0|0:0,0:0:0:0:
43,84,239859,6,0,P|35:45|46:7,1,80,2|2,0:0|1:0,0:0:0:0:
120,45,240076,53,2,0:0:0:0:
403,124,240294,6,0,P|455:102|465:8,1,160,8|0,0:0|0:0,0:0:0:0:
392,45,240511,22,0,P|378:98|356:148,1,104.999996795654,12|2,0:1|0:0,0:0:0:0:
310,213,240837,1,2,0:0:0:0:
239,259,240946,2,0,P|210:215|188:167,1,104.999996795654,8|2,0:0|0:0,0:0:0:0:
25,34,241381,2,0,P|68:62|116:84,1,104.999996795654,8|2,0:1|0:0,0:0:0:0:
275,27,241816,1,8,0:0:0:0:
170,154,242033,5,2,0:0:0:0:
148,237,242142,1,2,0:0:0:0:
89,179,242250,1,8,0:1:0:0:
329,90,242468,2,0,P|344:141|339:195,1,104.999996795654,2|8,0:0|0:0,0:0:0:0:
103,329,242903,1,2,0:0:0:0:
103,329,243011,1,2,0:0:0:0:
103,329,243120,2,0,P|116:278|148:236,1,104.999996795654,8|2,0:1|0:0,0:0:0:0:
83,117,243446,1,2,0:0:0:0:
83,117,243555,2,0,P|90:139|104:165,1,52.4999983978272,8|0,0:0|0:0,0:0:0:0:
227,270,243772,2,0,P|232:247|232:217,1,52.4999983978272,2|2,0:0|0:0,0:0:0:0:
309,36,243989,70,0,P|292:87|277:149,1,104.999996795654,8|2,0:1|0:0,0:0:0:0:
307,216,244316,1,2,0:0:0:0:
388,234,244424,2,0,P|345:264|307:300,1,104.999996795654,8|2,0:0|0:0,0:0:0:0:
239,350,244750,1,2,0:0:0:0:
160,318,244859,1,8,0:1:0:0:
256,150,245076,2,0,P|280:140|307:135,2,52.4999983978272,2|2|8,0:0|0:0|0:0,0:0:0:0:
120,248,245511,2,0,P|100:265|83:287,1,52.4999983978272,2|2,0:0|0:0,0:0:0:0:
90,168,245729,6,0,P|141:166|186:192,1,104.999996795654,8|2,0:1|0:0,0:0:0:0:
248,248,246054,1,2,0:0:0:0:
266,330,246163,1,8,0:0:0:0:
348,132,246381,1,2,0:0:0:0:
420,90,246489,1,2,0:0:0:0:
500,115,246598,1,8,0:1:0:0:
364,241,246816,70,0,P|333:236|313:228,1,52.4999983978272,2|2,0:0|0:0,0:0:0:0:
214,186,247033,2,0,P|233:162|249:148,1,52.4999983978272,8|0,0:0|0:0,0:0:0:0:
333,81,247250,2,0,P|343:109|347:130,1,52.4999983978272,2|2,0:0|0:0,0:0:0:0:
362,320,247468,6,0,P|310:306|258:288,1,104.999996795654,8|2,0:1|0:0,0:0:0:0:
183,259,247794,1,2,0:0:0:0:
202,176,247903,2,0,P|252:155|303:140,1,104.999996795654,8|2,0:0|0:0,0:0:0:0:
465,108,248337,1,8,0:1:0:0:
317,26,248555,1,2,0:0:0:0:
233,29,248663,1,2,0:0:0:0:
155,62,248772,1,8,0:0:0:0:
263,205,248989,70,0,P|277:234|284:256,1,52.4999983978272,2|2,0:0|0:0,0:0:0:0:
134,361,249207,2,0,P|143:310|175:269,1,104.999996795654,8|2,0:1|0:0,0:0:0:0:
360,168,249642,1,8,0:0:0:0:
141,29,249859,1,2,0:0:0:0:
75,81,249968,1,2,0:0:0:0:
90,163,250076,1,8,0:1:0:0:
313,291,250294,1,2,0:0:0:0:
333,207,250403,1,2,0:0:0:0:
263,161,250511,2,0,P|253:187|247:212,1,52.4999983978272,8|0,0:0|0:0,0:0:0:0:
189,350,250729,2,0,P|213:340|235:326,1,52.4999983978272,2|2,0:0|0:0,0:0:0:0:
402,157,250946,6,0,P|388:106|369:57,1,104.999996795654,8|2,0:1|0:0,0:0:0:0:
496,19,251272,1,2,0:0:0:0:
464,101,251381,1,8,0:0:0:0:
408,303,251598,1,2,0:0:0:0:
408,303,251707,1,2,0:0:0:0:
408,303,251816,70,0,P|354:313|302:317,1,104.999996795654,8|2,0:1|0:0,0:0:0:0:
147,292,252142,1,2,0:0:0:0:
93,227,252250,2,0,P|143:207|189:183,1,104.999996795654,8|2,0:0|0:0,0:0:0:0:
314,90,252576,1,2,0:0:0:0:
327,7,252685,1,8,0:1:0:0:
139,101,252903,5,2,0:0:0:0:
88,167,253011,1,2,0:0:0:0:
98,250,253120,1,8,0:0:0:0:
304,367,253337,1,2,0:0:0:0:
355,301,253445,1,2,0:0:0:0:
345,218,253554,1,8,0:1:0:0:
105,29,253772,70,0,P|79:47|64:63,1,52.4999983978272,2|2,0:0|0:0,0:0:0:0:
105,198,253989,2,0,P|98:223|98:250,1,52.4999983978272,8|0,0:0|0:0,0:0:0:0:
215,55,254207,2,0,P|217:86|224:106,1,52.4999983978272,2|2,0:0|0:0,0:0:0:0:
335,269,254424,6,0,P|343:218|358:157,1,104.999996795654,12|2,0:1|0:0,0:0:0:0:
407,99,254750,1,2,0:0:0:0:
479,56,254859,2,0,P|491:107|499:158,1,104.999996795654,8|2,0:0|0:0,0:0:0:0:
481,241,255185,1,2,0:0:0:0:
425,304,255294,2,0,P|408:280|398:256,1,52.4999983978272,8|0,0:1|0:0,0:0:0:0:
274,238,255511,2,0,P|291:214|301:190,1,52.4999983978272,2|2,0:0|0:0,0:0:0:0:
237,82,255729,1,8,0:0:0:0:
90,256,255946,69,2,0:0:0:0:
90,256,256055,1,2,0:0:0:0:
90,256,256163,2,0,P|141:247|190:227,1,104.999996795654,8|2,0:1|0:0,0:0:0:0:
259,179,256489,1,2,0:0:0:0:
331,221,256598,1,8,0:0:0:0:
409,55,256816,2,0,P|432:41|462:31,1,52.4999983978272,2|2,0:0|0:0,0:0:0:0:
471,178,257033,2,0,P|418:164|371:146,1,104.999996795654,8|2,0:1|0:0,0:0:0:0:
298,103,257359,1,2,0:0:0:0:
259,179,257468,2,0,P|204:184|151:192,1,104.999996795654,8|2,0:0|0:0,0:0:0:0:
115,117,257794,1,2,0:0:0:0:
132,34,257903,6,0,P|186:39|239:47,1,104.999996795654,8|2,0:1|0:0,0:0:0:0:
389,115,258337,2,0,P|373:140|362:161,1,52.4999983978272,8|0,0:0|0:0,0:0:0:0:
290,238,258555,2,0,P|270:188|248:142,1,104.999996795654,2|8,0:0|0:1,0:0:0:0:
73,26,258989,2,0,P|59:47|48:72,2,52.4999983978272,2|2|8,0:0|0:0|0:0,0:0:0:0:
189,192,259424,2,0,P|200:215|207:242,1,52.4999983978272,2|2,0:0|0:0,0:0:0:0:
149,114,259642,70,0,P|200:107|247:129,1,104.999996795654,8|2,0:1|0:0,0:0:0:0:
362,167,259968,1,2,0:0:0:0:
422,109,260076,2,0,P|375:87|324:94,1,104.999996795654,8|2,0:0|0:0,0:0:0:0:
247,129,260403,1,2,0:0:0:0:
222,208,260511,1,8,0:1:0:0:
228,292,260620,1,0,0:0:0:0:
253,372,260729,6,0,P|278:360|302:341,1,52.4999983978272,2|2,0:0|0:0,0:0:0:0:
140,321,260946,2,0,P|136:293|125:264,1,52.4999983978272,8|0,0:0|0:0,0:0:0:0:
247,129,261163,2,0,P|219:124|189:125,1,52.4999983978272,2|2,0:0|0:0,0:0:0:0:
0,37,261381,70,0,P|50:27|106:20,1,104.999996795654,8|2,0:1|0:0,0:0:0:0:
187,30,261707,1,2,0:0:0:0:
267,53,261816,2,0,P|318:45|377:31,1,104.999996795654,8|2,0:0|0:0,0:0:0:0:
440,79,262142,1,2,0:0:0:0:
445,162,262250,2,0,P|417:155|390:146,1,52.4999983978272,8|0,0:1|0:0,0:0:0:0:
224,117,262468,2,0,P|245:133|267:148,1,52.4999983978272,2|2,0:0|0:0,0:0:0:0:
409,272,262685,1,8,0:0:0:0:
198,208,262903,6,0,P|146:216|94:227,1,104.999996795654,2|8,0:0|0:1,0:0:0:0:
187,30,263337,1,2,0:0:0:0:
269,11,263446,1,2,0:0:0:0:
246,92,263555,1,8,0:0:0:0:
266,290,263772,1,2,0:0:0:0:
243,371,263881,1,2,0:0:0:0:
325,352,263990,1,8,0:1:0:0:
486,173,264207,1,2,0:0:0:0:
466,90,264316,1,2,0:0:0:0:
406,149,264424,2,0,P|354:155|299:166,1,104.999996795654,8|2,0:0|0:0,0:0:0:0:
226,202,264750,1,2,0:0:0:0:
161,255,264859,1,12,0:1:0:0:
52,127,265076,22,0,P|43:102|36:59,2,52.4999983978272,2|2|8,0:0|0:0|0:0,0:0:0:0:
216,89,265511,2,0,P|224:64|232:21,2,52.4999983978272,2|2|0,0:0|0:0|0:1,0:0:0:0:
354,184,265946,2,0,P|359:209|368:234,1,52.4999983978272,2|2,0:0|0:0,0:0:0:0:
468,266,266163,2,0,P|416:251|352:226,1,104.999996795654,8|2,0:0|0:0,0:0:0:0:
76,143,266598,54,0,P|127:129|195:117,1,104.999996795654,12|2,0:1|0:0,0:0:0:0:
247,71,266924,1,2,0:0:0:0:
258,154,267033,2,0,P|215:183|175:217,1,104.999996795654,8|2,0:0|0:0,0:0:0:0:
409,348,267468,2,0,P|387:300|369:250,1,104.999996795654,0|2,0:1|0:0,0:0:0:0:
418,231,267794,2,0,L|436:115,1,104.999996795654,2|0,0:0|0:0,0:0:0:0:
418,77,268120,1,2,0:0:0:0:
418,77,268229,1,2,0:0:0:0:
418,77,268337,22,0,L|404:33,3,40,12|0|2|2,0:1|0:0|0:0|0:0,0:0:0:0:
334,156,268772,2,0,L|328:194,3,40,0|0|2|2,0:0|0:0|0:0|0:0,0:0:0:0:
240,91,269207,2,0,L|226:47,3,40,0|0|2|2,0:0|0:0|0:0|0:0,0:0:0:0:
157,171,269642,53,0,0:0:0:0:
364,279,269859,1,12,0:1:0:0:
137,345,270076,5,0,0:0:0:0:
118,321,270184,1,0,0:0:0:0:
103,294,270293,1,2,0:0:0:0:
90,268,270402,1,2,0:0:0:0:
79,240,270511,2,0,L|38:222,3,40,0|0|2|2,0:0|0:0|0:0|0:0,0:0:0:0:
25,196,270946,5,0,0:0:0:0:
35,167,271054,1,0,0:0:0:0:
41,137,271163,1,2,0:0:0:0:
45,109,271272,1,2,0:0:0:0:
47,78,271381,1,0,0:0:0:0:
173,32,271598,1,2,0:0:0:0:
194,54,271707,1,2,0:0:0:0:
214,74,271816,70,0,B|268:135|215:153|264:225,1,160
444,355,272468,2,0,B|490:285|437:267|492:206,1,160,2|2,0:0|0:0,0:0:0:0:
364,23,273120,2,0,P|338:31|314:41,1,40,0|2,0:0|0:0,0:0:0:0:
243,153,273337,2,0,P|237:133|231:115,1,40,0|2,0:0|0:0,0:0:0:0:
149,37,273556,5,0,0:0:0:0:
136,45,273664,1,0,0:0:0:0:
125,56,273773,2,0,L|153:90,1,40,2|2,0:0|0:0,0:0:0:0:
312,139,273990,1,0,0:0:0:0:
323,148,274098,1,0,0:0:0:0:
332,160,274207,2,0,L|300:194,1,40,2|2,0:0|0:0,0:0:0:0:
140,197,274425,1,0,0:0:0:0:
137,213,274533,1,0,0:0:0:0:
136,227,274642,2,0,L|180:235,1,40,2|2,0:0|0:0,0:0:0:0:
308,275,274859,1,0,0:0:0:0:
316,286,274967,1,0,0:0:0:0:
321,300,275076,2,0,L|280:320,1,40,2|2,0:0|0:0,0:0:0:0:
168,362,275294,70,0,P|154:314|149:265,1,100
244,232,275946,2,0,P|258:184|263:134,1,100,0|0,0:0|0:0,0:0:0:0:
182,76,276598,1,0,0:0:0:0:
94,27,276816,2,0,P|71:71|58:120,1,100,0|0,0:0|0:0,0:0:0:0:
0,203,277468,2,0,L|12:262,1,50
88,314,277903,5,0,0:0:0:0:
231,270,278229,1,0,0:0:0:0:
378,241,278555,1,0,0:0:0:0:
442,164,278772,70,0,P|392:143|346:147,1,100
276,95,279424,2,0,P|234:122|185:127,1,100,0|0,0:0|0:0,0:0:0:0:
80,47,280076,2,0,P|105:54|128:64,1,50,0|0,0:0|0:0,0:0:0:0:
424,211,280729,5,0,0:0:0:0:
424,211,280946,2,0,P|399:218|376:228,1,50,0|0,0:0|0:0,0:0:0:0:
236,367,281381,2,0,P|247:345|262:325,1,50,0|0,0:0|0:0,0:0:0:0:
235,176,281816,2,0,P|220:197|204:216,1,50,0|0,0:0|0:0,0:0:0:0:
29,252,282250,69,2,0:0:0:0:
63,215,282468,1,0,0:0:0:0:
111,228,282685,1,0,0:0:0:0:
160,158,282903,5,2,0:0:0:0:
194,195,283121,1,0,0:0:0:0:
242,182,283338,1,0,0:0:0:0:
232,288,283555,69,2,0:0:0:0:
269,254,283773,1,2,0:0:0:0:
256,206,283990,1,0,0:0:0:0:
375,139,284207,5,2,0:0:0:0:
338,173,284425,1,2,0:0:0:0:
351,221,284642,1,0,0:0:0:0:
179,202,284859,6,0,P|210:194|244:174,1,63.7499991488457,2|0,0:0|0:0,0:0:0:0:
290,102,285185,1,0,0:0:0:0:
277,72,285294,2,0,L|285:3,1,63.7499991488457,2|0,0:0|0:0,0:0:0:0:
177,108,285729,69,2,0:0:0:0:
94,60,285946,1,0,0:0:0:0:
43,141,286163,1,0,0:0:0:0:
200,85,286381,69,0,0:0:0:0:
251,166,286598,1,2,0:0:0:0:
334,118,286815,1,0,0:0:0:0:
191,254,287033,5,2,0:0:0:0:
126,183,287250,1,2,0:0:0:0:
98,275,287468,1,0,0:0:0:0:
299,168,287685,69,2,0:0:0:0:
327,260,287903,1,2,0:0:0:0:
392,189,288120,1,0,0:0:0:0:
253,329,288337,21,2,0:0:0:0:
171,139,288555,1,0,0:0:0:0:
202,146,288663,1,0,0:0:0:0:
233,153,288772,1,2,0:0:0:0:
101,211,288989,1,2,0:0:0:0:
247,63,289207,54,0,P|246:108|260:152,1,85.0000016212464,2|0,0:0|0:0,0:0:0:0:
278,183,289533,1,0,0:0:0:0:
264,223,289642,1,2,0:0:0:0:
146,114,289859,5,2,0:0:0:0:
363,143,290076,1,0,0:0:0:0:
230,310,290293,1,0,0:0:0:0:
225,156,290511,69,2,0:0:0:0:
363,325,290728,1,2,0:0:0:0:
152,356,290945,1,0,0:0:0:0:
200,135,291163,5,2,0:0:0:0:
414,184,291380,1,2,0:0:0:0:
265,337,291597,1,0,0:0:0:0:
231,109,291816,6,2,L|243:66,1,42.5000008106232,2|0,0:0|0:0,0:0:0:0:
166,191,292033,1,0,0:0:0:0:
207,197,292141,1,0,0:0:0:0:
249,205,292250,2,0,B|323:220|323:220|268:228,1,127.50000243187,2|0,0:0|0:0,0:0:0:0:
187,291,292685,54,0,L|202:382,1,85.0000016212464,2|0,0:0|0:0,0:0:0:0:
286,113,293120,1,0,0:0:0:0:
106,360,293337,6,0,P|86:313|84:262,1,85.0000016212464,2|0,0:0|0:0,0:0:0:0:
190,78,293772,1,0,0:0:0:0:
346,275,293989,70,0,L|262:258,1,85.0000016212464,2|0,0:0|0:0,0:0:0:0:
68,218,294424,1,0,0:0:0:0:
401,143,294642,6,0,P|355:164|311:168,1,85.0000016212464,2|2,0:0|0:0,0:0:0:0:
60,102,295076,1,0,0:0:0:0:
304,39,295294,6,0,L|311:89,1,42.5000008106232,2|0,0:0|0:0,0:0:0:0:
192,225,295511,2,0,P|182:203|180:181,1,42.5000008106232,0|0,0:0|0:0,0:0:0:0:
275,22,295729,2,0,L|282:72,1,42.5000008106232,2|0,0:0|0:0,0:0:0:0:
88,166,295946,1,0,0:0:0:0:
70,204,296055,1,0,0:0:0:0:
83,244,296163,54,0,L|168:255,1,85.0000016212464,2|0,0:0|0:0,0:0:0:0:
272,179,296489,1,0,0:0:0:0:
272,179,296598,1,2,0:0:0:0:
213,334,296816,5,2,0:0:0:0:
305,157,297033,1,0,0:0:0:0:
305,157,297250,1,0,0:0:0:0:
341,256,297468,69,2,0:0:0:0:
233,64,297685,1,2,0:0:0:0:
233,64,297903,1,0,0:0:0:0:
390,180,298120,5,2,0:0:0:0:
157,156,298337,1,2,0:0:0:0:
157,156,298555,1,0,0:0:0:0:
259,290,298772,5,2,0:0:0:0:
333,105,298989,1,0,0:0:0:0:
340,146,299097,1,0,0:0:0:0:
348,188,299206,1,2,0:0:0:0:
187,106,299424,2,0,P|207:96|227:90,1,42.5000008106232,0|0,0:0|0:0,0:0:0:0:
430,147,299642,54,0,P|388:141|350:122,1,85.0000016212464,2|0,0:0|0:0,0:0:0:0:
287,31,299968,1,0,0:0:0:0:
287,31,300076,1,0,0:0:0:0:
349,197,300294,6,0,L|356:155,1,42.5000008106232,0|0,0:0|0:0,0:0:0:0:
229,49,300511,2,0,P|262:91|271:133,1,85.0000016212464,2|0,0:0|0:0,0:0:0:0:
215,201,300837,1,0,0:0:0:0:
215,201,300946,1,2,0:0:0:0:
264,366,301163,2,0,L|306:372,1,42.5000008106232,2|0,0:0|0:0,0:0:0:0:
193,294,301381,70,0,L|182:208,1,85.0000016212464,0|2,0:0|0:0,0:0:0:0:
71,163,301707,1,0,0:0:0:0:
71,163,301816,2,0,L|47:121,1,42.5000008106232,2|0,0:0|0:0,0:0:0:0:
269,143,302033,2,0,L|280:101,1,42.5000008106232,0|0,0:0|0:0,0:0:0:0:
175,235,302250,21,2,0:0:0:0:
82,39,302468,1,0,0:0:0:0:
175,235,302685,1,2,0:0:0:0:
224,27,302903,1,0,0:0:0:0:
38,229,303120,54,0,P|83:255|164:270,1,127.50000243187,2|0,0:0|0:0,0:0:0:0:
239,222,303555,1,2,0:0:0:0:
271,365,303772,1,2,0:0:0:0:
225,190,303989,2,0,L|356:171,1,127.50000243187,0|0,0:0|0:0,0:0:0:0:
457,160,304424,1,0,0:0:0:0:
324,280,304642,2,0,L|334:145,1,127.50000243187,2|0,0:0|0:0,0:0:0:0:
345,47,305076,1,0,0:0:0:0:
476,260,305294,6,0,P|429:280|347:277,1,127.50000243187,2|0,0:0|0:0,0:0:0:0:
264,158,305729,2,0,L|258:113,2,42.5000008106232,2|0|0,0:0|0:0|0:0,0:0:0:0:
223,324,306163,1,2,0:0:0:0:
117,99,306381,5,2,0:0:0:0:
100,137,306489,2,0,L|68:147,1,21.2500004053116,8|8,0:1|0:1,0:0:0:0:
144,127,306598,2,0,B|174:206|174:206|166:256,1,127.50000243187,8|0,0:1|0:0,0:0:0:0:
131,352,307033,1,0,0:0:0:0:
20,234,307250,1,0,0:0:0:0:
240,115,307468,6,0,P|282:174|296:265,1,157.499995193482,8|0,0:1|0:0,0:0:0:0:
257,340,307903,1,0,0:0:0:0:
387,84,308120,6,0,B|429:187|429:187|427:213|427:213|392:182|392:182|316:208|303:228|296:257|296:257|307:194|307:194|299:213|278:232|278:232|243:193|189:207|189:207|178:197|178:197|192:253|169:293|143:346|103:342|103:342|62:317|63:268|96:253|96:253|44:229|44:229|72:205|88:185|77:140|77:140|52:110,1,1019.99998638153,8|2,0:1|0:1,0:0:0:0:
119,357,310076,38,2,L|230:347,1,106.250002026558,2|0,0:1|0:0,0:1:0:0:
215,160,310729,2,2,L|326:170,1,106.250002026558,0|0,0:0|0:0,0:1:0:0:
244,334,311380,2,0,L|251:308,1,21.2500004053116,0|0,0:0|0:0,0:0:0:0:
416,177,311598,2,0,L|430:263,1,85.0000016212464,0|0,0:0|0:0,0:0:0:0:
244,301,312468,5,2,0:1:0:0:
410,244,312685,5,2,0:1:0:0:
69,205,313011,5,2,0:1:0:0:
341,106,313337,53,2,0:1:0:0:
210,358,313555,70,2,P|179:312|188:210,1,156.25,2|0,0:1|0:0,0:1:0:0:
317,124,314207,2,2,L|307:249,1,125,2|0,0:1|0:0,0:1:0:0:
178,195,314859,70,2,L|169:154,1,31.25,2|0,0:1|0:0,0:1:0:0:
324,268,315076,2,2,L|426:254,1,93.75,2|0,0:1|0:0,0:1:0:0:
512,212,315511,1,2,0:1:0:0:
388,80,315729,1,0,0:0:0:0:
311,125,316163,6,0,P|303:73|321:25,1,104.999996795654,0|0,0:0|0:0,1:0:0:0:
411,65,316489,1,0,0:0:0:0:
411,65,316598,2,0,L|467:59,1,52.4999983978272,0|0,0:0|0:0,0:0:0:0:
281,130,316816,2,2,L|225:124,1,52.4999983978272,2|2,0:1|0:1,0:1:0:0:
385,190,317033,6,2,B|508:177|508:177|425:212,1,212.500004053116,2|0,0:1|0:0,0:1:0:0:
292,260,317685,2,2,B|305:137|305:137|270:220,1,212.500004053116,0|0,0:0|0:0,0:1:0:0:
432,315,318337,2,0,L|424:274,1,42.5000008106232
204,299,318555,2,0,P|267:354|348:338,1,170.000003242493
168,211,319207,1,0,0:0:0:0:
286,60,319424,5,2,0:1:0:0:
66,153,319642,5,2,0:1:0:0:
390,127,319968,53,2,0:1:0:0:
99,0,320294,5,2,0:1:0:0:
355,141,320511,54,0,P|338:183|334:232,1,85.0000016212464,2|0,0:1|0:0,0:0:0:0:
439,331,320837,2,0,L|347:313,1,85.0000016212464,2|0,0:1|0:0,0:0:0:0:
211,379,321163,70,0,P|255:285|153:174,1,262.499991989136,2|0,0:1|0:0,0:0:0:0:
58,298,321816,6,0,L|142:289,1,85.0000016212464,2|2,0:1|0:1,0:0:0:0:
428,169,322033,2,0,P|405:73|369:267,1,765.000014591217,2|0,0:1|0:0,0:0:0:0:
292,151,323120,6,0,P|277:121|273:88,1,52.4999983978272,0|0,0:0|0:0,0:0:0:0:
442,266,323337,2,0,P|412:281|379:285,1,52.4999983978272,0|0,0:0|0:0,0:0:0:0:
169,72,323555,6,0,L|257:84,1,85.0000016212464,0|0,0:0|0:0,0:0:0:0:
378,308,323772,2,0,L|288:319,1,85.0000016212464,2|0,0:1|0:0,0:0:0:0:
33,272,323989,70,0,B|65:284|80:299|88:324|86:352|86:352|92:361|92:361|105:325|104:275|81:233|61:207|61:207|31:145|26:113|47:60|78:41|108:28,1,462.499998235703,14|0,0:1|0:0,0:0:0:0:
205,200,324642,6,0,B|210:216|210:228|210:228|218:217|238:206,1,59.9999981689454,10|0,0:1|0:0,0:0:0:0:
203,318,324859,2,0,B|234:330|268:318|287:299|303:272|303:272|352:283|352:283|357:278|357:278|359:285|359:285|528:319,1,350.00000333786,8|0,0:0|0:0,0:0:0:0:
315,193,325185,1,0,0:0:0:0:
491,81,325294,2,0,P|458:103|423:100,1,67.5000002574921,2|0,0:0|0:0,0:0:0:0:
205,313,325511,2,0,B|197:249|197:249|218:191|218:191|209:114,1,187.5,8|0,0:1|0:0,0:0:0:0:
37,32,325946,69,10,0:1:0:0:
42,58,326055,1,0,0:0:0:0:
13,21,326163,2,0,B|35:21|35:21|49:16|49:16|63:25|63:25|143:37,1,100,2|0,0:0|0:0,0:0:0:0:
114,144,326381,6,0,B|136:144|136:144|151:147|151:147|164:140|164:140|221:127,1,100,10|0,0:1|0:0,0:0:0:0:
483,55,326598,70,0,P|460:62|443:61,1,37.5000014305115,8|0,0:0|0:0,0:0:0:0:
413,42,326816,1,0,0:0:0:0:
289,112,326925,5,0,0:1:0:0:
254,114,327034,1,0,0:0:0:0:
231,140,327142,1,0,0:0:0:0:
187,258,327250,70,0,L|189:223,1,18.7500007152558
39,37,327468,22,2,B|78:92|88:163|88:163|96:166|96:166|89:173|89:173|94:273|53:334,2,322.50000492096,8|0|8,0:1|0:0|0:1,0:1:0:0:
187,260,328229,1,0,0:0:0:0:
196,249,328337,2,0,B|235:252|259:230|259:230|262:261|279:278|300:295,1,134.999995880127,8|0,0:0|0:0,0:0:0:0:
381,334,328772,2,0,L|391:285,1,44.999998626709,8|0,0:1|0:0,0:0:0:0:
481,34,328989,38,2,B|427:39|427:39|416:34|416:34|407:42|407:42|305:71|305:71|297:76|297:76|292:70|292:70|160:57,1,300,8|0,0:1|0:0,0:1:0:0:
33,252,329424,70,0,P|68:244|87:228,1,50,8|0,0:0|0:0,0:0:0:0:
211,336,329642,2,0,P|221:286|198:229,1,87.500000834465
344,58,329859,2,0,P|262:24|176:67,1,150.000005722046,8|0,0:1|0:0,0:0:0:0:
3,128,330076,22,2,P|22:52|41:163,1,300.000011444092,8|0,2:0|0:0,0:1:0:0:
112,259,330403,2,0,P|42:309|161:303,1,300.000011444092
300,299,330729,5,0,0:0:0:0:
392,181,330837,1,8,2:1:0:0:
398,192,330892,1,8,2:1:0:0:
400,205,330946,2,2,B|422:220|455:220|480:213|480:213|485:222|485:222|438:243|392:241|350:223|327:214|327:214|297:187|258:178|221:184|186:206|186:206|142:216|142:216|89:193,1,500,2|0,0:1|0:0,0:1:0:0:
28,297,331598,69,10,0:1:0:0:
194,133,331816,2,0,B|216:121|256:122|304:165|269:184|292:222|356:238|403:213,1,225.000008583069,8|0,0:0|0:0,0:0:0:0:
493,125,332250,2,0,L|440:133,1,37.5000014305115,2|0,0:0|0:0,0:0:0:0:
258,336,332468,2,0,B|268:301|269:276|269:276|279:278|279:278|283:229|291:203,1,134.999995880127,8|0,0:1|0:0,0:0:0:0:
202,35,332903,6,0,B|184:54|182:78|182:78|150:67|129:77,1,94.9999974632264,10|0,0:1|0:0,0:0:0:0:
34,162,333120,1,0,0:1:0:0:
378,233,333337,69,8,0:1:0:0:
376,217,333446,1,8,0:1:0:0:
469,345,333555,2,2,P|433:242|484:32,2,300,8|0|0,0:0|0:1|0:0,0:1:0:0:
185,72,334424,6,0,B|102:59|132:121|21:96,1,150.000005722046,10|0,0:1|0:0,0:0:0:0:
147,259,334750,1,0,0:0:0:0:
78,339,334859,2,0,L|61:254,1,75.0000028610231,2|0,0:0|0:0,0:0:0:0:
192,61,335076,6,2,P|214:84|185:72,1,87.500000834465,10|0,0:1|0:0,0:1:0:0:
336,29,335294,2,0,B|372:45|413:38|444:18|444:18|454:24|454:24|435:50|373:64|325:62|284:33|284:33|284:33|283:34|284:33|283:33|284:33|284:33|284:33|284:33,1,300.000011444092,8|0,0:0|0:0,0:1:0:0:
435,242,335620,1,0,0:0:0:0:
431,232,335729,1,2,0:0:0:0:
0,269,335946,54,2,B|73:225|86:143|52:91|52:91|53:66|53:66|71:48|71:48|94:56|94:56|110:71|110:71|113:156|186:210|260:194,1,525.00000500679,10|0,0:1|0:0,0:1:0:0:
182,324,336381,5,8,0:0:0:0:
237,81,336598,1,0,0:1:0:0:
191,336,336816,1,8,0:1:0:0:
472,268,337033,70,0,L|341:248,1,100,10|0,0:0|0:0,0:0:0:0:
203,21,337250,5,0,0:0:0:0:
289,94,337359,2,0,L|165:115,1,100,0|4,0:0|0:3,0:0:0:0:
131,235,337576,69,0,0:0:0:0:
316,344,337685,2,0,L|255:246,1,100,8|0,0:1|0:0,0:0:0:0:
42,299,337903,6,0,B|18:302|-2:318|-2:318|13:296|18:273,1,100,12|0,0:1|0:0,0:0:0:0:
120,328,338120,69,0,0:0:0:0:
147,359,338229,1,0,0:0:0:0:
162,316,338338,1,8,0:1:0:0:
362,281,338555,5,0,0:0:0:0:
347,233,338664,1,0,0:0:0:0:
315,264,338772,1,8,0:1:0:0:
489,195,338989,69,0,0:0:0:0:
449,161,339098,1,0,0:0:0:0:
498,142,339207,2,0,P|503:105|492:72,1,62.5,8|0,0:1|0:0,0:0:0:0:
229,12,339424,5,0,0:0:0:0:
295,67,339533,1,0,0:0:0:0:
275,150,339642,2,0,P|247:169|207:171,1,62.5,8|0,0:1|0:0,0:0:0:0:
341,187,339860,69,0,0:0:0:0:
303,260,339968,1,0,0:0:0:0:
340,343,340076,2,0,L|423:333,1,64.9999970245363,8|0,0:1|0:0,0:0:0:0:
290,242,340294,5,0,0:0:0:0:
260,314,340403,1,0,0:0:0:0:
191,349,340511,2,0,P|156:354|123:329,1,64.9999970245363,8|0,0:1|0:0,0:0:0:0:
35,253,340729,69,0,0:0:0:0:
58,199,340837,1,0,0:0:0:0:
52,140,340946,2,0,P|46:105|18:72,1,64.9999970245363,8|0,0:1|0:0,0:0:0:0:
379,43,341163,5,0,0:0:0:0:
336,59,341272,1,0,0:0:0:0:
290,61,341381,2,0,P|255:52|226:14,1,64.9999970245363,8|0,0:1|0:0,0:0:0:0:
307,341,341598,69,0,0:0:0:0:
291,261,341707,1,0,0:0:0:0:
334,191,341816,2,0,P|367:174|411:182,1,64.9999970245363,8|0,0:1|0:0,0:0:0:0:
415,358,342033,5,0,0:0:0:0:
401,344,342142,1,0,0:0:0:0:
396,324,342250,2,0,P|393:287|422:238,1,64.9999970245363,8|0,0:1|0:0,0:0:0:0:
70,339,342468,69,0,0:0:0:0:
300,117,342685,1,8,0:1:0:0:
198,359,342903,5,0,0:0:0:0:
133,192,343120,1,8,0:1:0:0:
209,364,343337,70,0,L|199:205,1,129.999994049073,0|8,0:0|0:1,0:0:0:0:
290,351,343772,5,0,0:0:0:0:
287,311,343881,1,0,0:0:0:0:
284,271,343989,1,8,0:1:0:0:
370,345,344207,70,0,L|366:291,1,50,0|8,0:0|0:1,0:0:0:0:
459,370,344642,1,0,0:0:0:0:
42,276,344859,69,8,0:1:0:0:
143,323,345076,1,8,0:1:0:0:
148,334,345294,1,8,0:1:0:0:
45,189,345511,5,8,0:1:0:0:
220,271,345729,1,8,0:1:0:0:
225,284,345946,1,8,0:1:0:0:
460,220,346163,69,8,0:1:0:0:
309,266,346381,1,8,0:1:0:0:
304,281,346598,1,8,0:1:0:0:
475,125,346816,5,8,0:1:0:0:
257,202,347033,1,8,0:1:0:0:
359,20,347250,1,8,0:1:0:0:
413,331,347468,69,8,0:1:0:0:
297,108,347685,1,8,0:1:0:0:
153,352,347903,5,8,0:1:0:0:
402,212,348120,1,8,0:1:0:0:
70,47,348337,69,8,0:1:0:0:
111,76,348446,1,8,0:1:0:0:
162,79,348555,1,8,0:1:0:0:
208,57,348663,1,8,0:1:0:0:
292,56,348772,5,8,0:1:0:0:
329,62,348881,1,8,0:1:0:0:
403,27,348989,5,8,0:1:0:0:
440,33,349098,1,8,0:1:0:0:
497,144,349207,53,8,0:1:0:0:
449,111,349315,1,8,0:1:0:0:
395,133,349425,1,8,0:1:0:0:
380,189,349533,1,8,0:1:0:0:
382,304,349642,5,8,0:1:0:0:
336,336,349750,1,8,0:1:0:0:
274,250,349859,5,8,0:1:0:0:
257,239,349968,2,0,L|262:282,1,25,8|8,0:1|0:1,0:0:0:0:
151,286,350076,70,0,B|151:277|149:273|149:273|156:272|165:275,1,25,8|8,0:1|0:1,0:0:0:0:
157,294,350185,6,0,B|166:294|170:292|170:292|171:299|168:308,1,25,8|8,0:1|0:1,0:0:0:0:
152,303,350294,70,0,B|152:312|154:316|154:316|147:317|138:314,1,25,8|8,0:1|0:1,0:0:0:0:
141,295,350403,6,0,B|132:295|128:297|128:297|127:290|130:281,1,25,8|8,0:1|0:1,0:0:0:0:
12,234,350511,70,0,P|21:255|23:282,1,37.5000014305115,8|8,0:1|0:1,0:0:0:0:
29,213,350620,2,0,P|30:242|21:264,1,37.5000014305115,8|8,0:1|0:1,0:0:0:0:
80,366,350729,6,0,P|73:345|74:321,1,37.5000014305115,8|8,0:1|0:1,0:0:0:0:
54,361,350837,2,0,P|62:333|80:319,1,37.5000014305115,8|8,0:1|0:1,0:0:0:0:
151,188,350946,70,0,B|175:207|175:207|159:183|158:148,7,75.0000028610231,8|8|8|8|8|8|8|8,0:1|0:1|0:1|0:1|0:1|0:1|0:1|0:1,0:0:0:0:
258,86,351381,6,0,B|239:111|239:111|263:94|298:93,7,75.0000028610231,8|8|8|8|8|8|8|8,0:1|0:1|0:1|0:1|0:1|0:1|0:1|0:1,0:0:0:0:
491,188,351816,6,2,B|367:170|367:170|357:176|357:176|268:163|268:163|277:157|277:157|185:124|185:124|127:147|30:122,1,450.000017166138,8|0,0:1|0:0,0:1:0:0:
24,351,352250,6,2,B|53:294|35:201|35:201|57:293|135:345,1,300.000011444092,2|0,0:1|0:0,0:1:0:0:
436,20,352685,37,0,3:0:0:0:
485,93,352794,2,0,B|494:144|494:144|487:140|487:140|482:183|482:183|497:213|492:246,1,150.000005722046,0|0,1:0|0:0,0:0:0:0:
246,201,353011,5,0,3:0:0:0:
337,249,353120,2,0,B|217:230|217:230|189:241|189:241|47:221,1,262.500002503395,0|0,1:0|0:0,1:0:0:0:
9,214,353337,70,0,L|-2:146,1,57.5000010967255,8|0,0:0|0:0,0:0:0:0:
207,21,353555,22,0,B|158:78|158:78|72:51,1,150.000005722046,12|2,0:1|0:0,0:0:0:0:
189,241,353881,1,2,0:0:0:0:
268,161,353989,2,0,P|290:120|283:70,1,75.0000028610231,8|0,0:0|0:0,0:0:0:0:
81,205,354207,2,0,P|46:173|35:124,1,75.0000028610231,2|2,0:0|0:0,0:0:0:0:
223,280,354424,6,0,L|26:324,1,150.000005722046,8|2,0:1|0:0,0:0:0:0:
129,108,354750,1,2,0:0:0:0:
213,137,354859,2,0,P|243:175|238:227,1,75.0000028610231,8|0,0:0|0:0,0:0:0:0:
312,357,355076,1,2,0:0:0:0:
358,279,355185,1,2,0:0:0:0:
435,325,355294,70,0,L|410:116,1,150.000005722046,8|2,0:1|0:0,0:0:0:0:
213,137,355620,1,2,0:0:0:0:
309,0,355729,2,0,L|297:99,1,75.0000028610231,8|0,0:0|0:0,0:0:0:0:
135,274,355946,2,0,L|127:200,1,75.0000028610231,2|2,0:0|0:0,0:0:0:0:
213,313,356163,6,0,P|151:361|67:326,1,150.000005722046,8|2,0:1|0:0,0:0:0:0:
263,209,356489,1,2,0:0:0:0:
213,137,356598,2,0,P|284:123|339:169,1,150.000005722046,8|2,0:0|0:0,0:0:0:0:
408,348,356924,1,2,0:0:0:0:
485,290,357033,70,0,L|412:269,1,75.0000028610231,8|0,0:1|0:0,0:0:0:0:
190,229,357250,2,0,L|263:209,1,75.0000028610231,2|2,0:0|0:0,0:0:0:0:
432,82,357468,6,0,L|418:155,1,75.0000028610231,8|0,0:0|0:0,0:0:0:0:
257,369,357685,2,0,L|243:295,1,75.0000028610231,2|2,0:0|0:0,0:0:0:0:
0,156,357903,70,0,B|47:189|47:189|136:165,1,150.000005722046,8|2,0:1|0:0,0:0:0:0:
295,143,358229,1,2,0:0:0:0:
217,19,358337,2,0,L|207:93,1,75.0000028610231,8|0,0:0|0:0,0:0:0:0:
43,305,358555,1,2,0:0:0:0:
133,273,358663,1,2,0:0:0:0:
207,335,358772,6,0,P|278:345|321:287,1,150.000005722046,8|2,0:1|0:0,0:0:0:0:
215,207,359098,1,2,0:0:0:0:
295,143,359207,2,0,L|369:154,1,75.0000028610231,8|0,0:0|0:0,0:0:0:0:
133,273,359424,2,0,L|33:261,1,75.0000028610231,2|2,0:0|0:0,0:0:0:0:
189,75,359642,69,8,0:1:0:0:
189,75,359750,1,0,0:0:0:0:
189,75,359859,2,0,P|214:102|222:125,1,50,2|2,0:0|0:0,0:0:0:0:
302,287,360076,6,0,P|330:254|333:209,1,75.0000028610231,8|0,0:0|0:0,0:0:0:0:
453,8,360294,38,0,P|454:57|423:95,1,100,2|2,0:0|0:0,0:0:0:0:
166,157,360511,22,0,L|325:180,1,150.000005722046,8|2,0:1|0:0,0:0:0:0:
435,226,360837,1,2,0:0:0:0:
423,94,360946,2,0,P|394:130|393:167,1,75.0000028610231,8|0,0:0|0:0,0:0:0:0:
274,321,361163,2,0,P|267:284|242:257,1,75.0000028610231,2|2,0:0|0:0,0:0:0:0:
17,178,361381,6,0,L|176:155,1,150.000005722046,8|2,0:1|0:0,0:0:0:0:
294,59,361707,1,2,0:0:0:0:
282,191,361816,2,0,P|253:155|252:118,1,75.0000028610231,8|0,0:0|0:0,0:0:0:0:
373,42,362033,1,2,0:0:0:0:
440,85,362142,1,2,0:0:0:0:
456,162,362250,70,0,L|434:334,1,150.000005722046,8|2,0:1|0:0,0:0:0:0:
197,240,362576,1,2,0:0:0:0:
197,240,362685,2,0,L|273:225,1,75.0000028610231,8|0,0:0|0:0,0:0:0:0:
459,384,362903,2,0,L|383:369,1,75.0000028610231,2|2,0:0|0:0,0:0:0:0:
121,272,363120,6,0,P|115:219|195:157,1,150.000005722046,8|2,0:1|0:0,0:0:0:0:
370,49,363446,1,2,0:0:0:0:
294,16,363555,2,0,P|295:88|354:130,1,150.000005722046,8|2,0:0|0:0,0:0:0:0:
501,236,363881,1,2,0:0:0:0:
508,255,363989,69,8,0:1:0:0:
431,204,364097,1,0,0:0:0:0:
339,210,364206,1,2,0:0:0:0:
270,271,364315,1,2,0:0:0:0:
252,361,364423,1,8,0:0:0:0:
14,100,364642,5,2,0:0:0:0:
14,100,364750,1,2,0:0:0:0:
14,100,364859,2,0,L|207:126,1,150.000005722046,8|2,0:1|0:0,0:0:0:0:
306,99,365185,1,2,0:0:0:0:
275,23,365294,2,0,P|237:46|226:100,1,75.0000028610231,8|0,0:0|0:0,0:0:0:0:
46,181,365511,2,0,P|84:204|95:258,1,75.0000028610231,2|2,0:0|0:0,0:0:0:0:
149,349,365729,69,8,0:1:0:0:
407,326,365946,5,2,0:0:0:0:
353,260,366054,1,2,0:0:0:0:
270,271,366163,1,8,0:0:0:0:
281,47,366381,69,2,0:0:0:0:
250,126,366489,1,2,0:0:0:0:
301,193,366598,1,8,0:1:0:0:
101,295,366816,5,2,0:0:0:0:
185,282,366924,1,2,0:0:0:0:
217,205,367033,2,0,L|201:118,1,87.500000834465,8|0,0:0|0:0,0:0:0:0:
355,298,367250,2,0,L|339:385,1,87.500000834465,2|2,0:0|0:0,0:0:0:0:
512,180,367468,70,0,B|422:207|422:207|365:163,1,150.000005722046,12|2,0:1|0:0,0:0:0:0:
356,16,367794,1,2,0:0:0:0:
435,47,367903,2,0,P|448:93|435:125,1,75.0000028610231,8|0,0:0|0:0,0:0:0:0:
292,249,368120,2,0,P|279:203|292:171,1,75.0000028610231,2|2,0:0|0:0,0:0:0:0:
171,92,368337,6,0,L|4:125,1,150.000005722046,8|2,0:1|0:0,0:0:0:0:
0,277,368663,1,2,0:0:0:0:
76,329,368772,2,0,P|118:326|146:303,1,75.0000028610231,8|0,0:0|0:0,0:0:0:0:
274,202,368989,1,2,0:0:0:0:
221,276,369098,1,2,0:0:0:0:
295,329,369207,70,0,P|354:254|426:264,1,150.000005722046,8|2,0:1|0:0,0:0:0:0:
512,207,369533,1,2,0:0:0:0:
431,151,369642,2,0,L|352:165,1,75.0000028610231,8|0,0:0|0:0,0:0:0:0:
230,46,369859,2,0,L|309:60,1,75.0000028610231,2|2,0:0|0:0,0:0:0:0:
180,124,370076,6,0,B|128:70|128:70|159:-14,1,150.000005722046,8|2,0:1|0:0,0:0:0:0:
0,190,370404,1,2,0:0:0:0:
50,268,370511,2,0,B|102:214|102:214|71:130,1,150.000005722046,8|2,0:0|0:0,0:0:0:0:
257,300,370837,1,2,0:0:0:0:
174,353,370946,70,0,L|90:336,1,75.0000028610231,8|0,0:1|0:0,0:0:0:0:
274,192,371163,2,0,L|358:175,1,75.0000028610231,2|2,0:0|0:0,0:0:0:0:
420,367,371381,6,0,L|437:290,1,75.0000028610231,8|0,0:0|0:0,0:0:0:0:
180,124,371598,2,0,L|196:197,1,75.0000028610231,2|2,0:0|0:0,0:0:0:0:
490,69,371816,70,0,P|430:17|345:32,1,150.000005722046,8|2,0:1|0:0,0:0:0:0:
324,212,372142,1,2,0:0:0:0:
180,124,372250,2,0,L|272:104,1,75.0000028610231,8|0,0:0|0:0,0:0:0:0:
474,141,372468,1,2,0:0:0:0:
414,215,372576,1,2,0:0:0:0:
469,292,372685,6,0,B|438:333|438:333|338:310,1,150.000005722046,8|2,0:1|0:0,0:0:0:0:
178,271,373011,1,2,0:0:0:0:
272,163,373120,2,0,L|256:259,1,75.0000028610231,8|0,0:0|0:0,0:0:0:0:
108,379,373337,2,0,L|92:283,1,75.0000028610231,2|2,0:0|0:0,0:0:0:0:
8,127,373555,69,8,0:1:0:0:
8,127,373663,1,0,0:0:0:0:
8,127,373772,2,0,P|34:144|61:144,1,50,2|2,0:0|0:0,0:0:0:0:
209,0,373989,6,0,P|185:36|188:93,1,75.0000028610231,8|0,0:0|0:0,0:0:0:0:
329,229,374207,38,0,P|357:182|342:121,1,100,2|2,0:0|0:0,0:0:0:0:
103,31,374424,22,0,L|134:203,1,150.000005722046,8|2,0:1|0:0,0:0:0:0:
155,325,374750,1,2,0:0:0:0:
4,292,374859,2,0,P|37:261|74:257,1,75.0000028610231,8|0,0:0|0:0,0:0:0:0:
285,242,375076,2,0,P|243:224|207:233,1,75.0000028610231,2|2,0:0|0:0,0:0:0:0:
297,344,375294,6,0,B|355:354|355:354|378:335|378:335|437:346,1,150.000005722046,8|2,0:1|0:0,0:0:0:0:
512,203,375620,1,2,0:0:0:0:
427,172,375729,2,0,P|398:186|381:223,1,75.0000028610231,8|0,0:0|0:0,0:0:0:0:
155,325,375946,69,2,0:0:0:0:
232,289,376054,1,2,0:0:0:0:
233,204,376163,2,0,L|205:49,1,150.000005722046,8|2,0:1|0:0,0:0:0:0:
9,184,376489,5,2,0:0:0:0:
86,231,376598,2,0,L|163:217,1,75.0000028610231,8|0,0:0|0:0,0:0:0:0:
353,29,376816,2,0,L|275:43,1,75.0000028610231,2|2,0:0|0:0,0:0:0:0:
379,119,377033,54,0,P|436:72|440:0,1,150.000005722046,8|2,0:1|0:0,0:0:0:0:
233,204,377359,1,2,0:0:0:0:
260,114,377468,2,0,P|316:160|320:233,1,150.000005722046,8|2,0:0|0:0,0:0:0:0:
251,294,377794,1,2,0:0:0:0:
164,265,377903,1,12,0:1:0:0:
36,70,378120,70,0,L|100:56,2,62.5,2|2|8,0:0|0:0|0:0,0:0:0:0:
184,156,378555,2,0,L|120:142,2,62.5,2|2|0,0:0|0:0|0:1,0:0:0:0:
200,28,378989,2,0,L|264:14,2,62.5,2|2|8,0:0|0:0|0:0,0:0:0:0:
347,197,379424,2,0,L|286:184,1,62.5,2|2,0:0|0:0,0:0:0:0:
412,125,379642,54,0,P|449:183|421:267,1,150.000005722046,12|2,0:1|0:0,0:0:0:0:
282,350,379968,1,2,0:0:0:0:
218,298,380076,2,0,B|257:262|257:262|351:284,1,150.000005722046,8|2,0:0|0:0,0:0:0:0:
413,338,380403,1,2,0:0:0:0:
410,357,380512,1,0,0:1:0:0:
261,47,380729,5,2,0:0:0:0:
261,47,380837,1,2,0:0:0:0:
261,47,380946,2,0,P|235:83|231:121,1,75.0000028610231,8|0,0:0|0:0,0:0:0:0:
148,258,381163,2,0,P|140:221|117:192,1,75.0000028610231,2|2,0:0|0:0,0:0:0:0:
0,151,381381,1,4,0:0:0:0:
267,374,384859,38,0,L|260:113,1,225.000008583069,12|2,0:1|0:0,0:0:0:0:
142,100,385294,2,0,P|134:136|150:186,1,75.0000028610231,8|0,0:0|0:0,0:0:0:0:
386,160,385511,2,0,P|394:123|386:87,1,75.0000028610231,2|2,0:0|0:0,0:0:0:0:
132,18,385729,6,0,P|96:35|59:69,1,75.0000028610231,8|0,0:1|0:0,0:0:0:0:
397,242,385946,2,0,P|433:225|470:191,1,75.0000028610231,2|2,0:0|0:0,0:0:0:0:
255,0,386163,2,0,L|262:168,1,150.000005722046,8|2,0:0|0:0,0:0:0:0:
282,374,386489,1,2,0:0:0:0:
457,322,386598,70,0,L|372:314,1,75.0000028610231,8|0,0:1|0:0,0:0:0:0:
137,208,386816,2,0,L|222:216,1,75.0000028610231,2|2,0:0|0:0,0:0:0:0:
435,27,387033,2,0,L|430:142,1,75.0000028610231,8|0,0:0|0:0,0:0:0:0:
284,268,387250,2,2,L|290:194,1,75.0000028610231,2|0,0:0|0:0,0:0:0:0:
512,185,387468,6,0,P|438:207|350:173,1,150.000005722046,8|2,0:1|0:0,0:0:0:0:
188,131,387794,1,2,0:0:0:0:
290,194,387903,2,0,L|284:281,1,75.0000028610231,8|0,0:0|0:0,0:0:0:0:
202,378,388120,2,0,L|118:371,1,75.0000028610231,2|2,0:0|0:0,0:0:0:0:
0,262,388337,70,0,L|177:279,1,150.000005722046,8|2,0:1|0:0,0:0:0:0:
298,113,388663,1,2,0:0:0:0:
195,56,388772,2,0,L|186:146,1,75.0000028610231,8|0,0:0|0:0,0:0:0:0:
394,219,388989,2,0,L|403:129,1,75.0000028610231,2|2,0:0|0:0,0:0:0:0:
512,50,389207,6,0,L|334:32,1,150.000005722046,8|2,0:1|0:0,0:0:0:0:
105,3,389533,1,2,0:0:0:0:
195,56,389642,2,0,L|186:146,1,75.0000028610231,8|0,0:0|0:0,0:0:0:0:
4,258,389859,70,0,P|-14:180|9:113,1,150.000005722046,2|8,0:0|0:1,0:0:0:0:
113,84,390185,1,0,0:0:0:0:
230,201,390294,2,0,L|132:192,1,75.0000028610231,2|2,0:0|0:0,0:0:0:0:
288,28,390511,2,0,L|386:37,1,75.0000028610231,8|0,0:0|0:0,0:0:0:0:
512,147,390729,6,0,L|334:129,1,150.000005722046,2|8,0:0|0:1,0:0:0:0:
230,201,391055,1,0,0:0:0:0:
347,280,391163,2,0,P|358:244|357:183,1,75.0000028610231,2|2,0:0|0:0,0:0:0:0:
113,84,391381,2,0,P|102:120|103:181,1,75.0000028610231,8|0,0:0|0:0,0:0:0:0:
4,258,391598,2,0,L|83:271,1,75.0000028610231,2|2,0:0|0:0,0:0:0:0:
201,384,391816,70,0,L|225:231,1,150.000005722046,8|2,0:1|0:0,0:0:0:0:
230,201,392142,1,2,0:0:0:0:
230,201,392250,1,8,0:0:0:0:
512,308,392468,2,0,P|448:322|359:300,1,150.000005722046,2|8,0:0|0:1,0:0:0:0:
230,201,392794,1,0,0:0:0:0:
299,247,392903,2,0,L|285:334,1,75.0000028610231,2|2,0:0|0:0,0:0:0:0:
121,384,393120,2,0,L|135:297,1,75.0000028610231,8|0,0:0|0:0,0:0:0:0:
143,62,393337,5,2,0:0:0:0:
230,201,393446,1,2,0:0:0:0:
32,276,393555,2,0,P|-19:205|48:99,1,225.000008583069,8|2,0:1|0:0,0:0:0:0:
150,197,393989,2,0,L|60:189,1,75.0000028610231,8|0,0:0|0:0,0:0:0:0:
257,13,394207,2,0,L|347:21,1,75.0000028610231,2|2,0:0|0:0,0:0:0:0:
451,88,394424,70,0,L|461:-9,1,75.0000028610231,8|0,0:1|0:0,0:0:0:0:
479,171,394642,2,0,P|443:169|390:154,1,75.0000028610231,2|2,0:0|0:0,0:0:0:0:
307,139,394859,1,8,0:0:0:0:
372,291,394968,1,0,0:0:0:0:
512,249,395076,2,0,P|509:290|493:333,1,75.0000028610231,2|2,0:0|0:0,0:0:0:0:
440,373,395294,6,0,P|366:381|286:361,1,150.000005722046,12|2,0:1|0:0,0:0:0:0:
104,268,395620,1,2,0:0:0:0:
186,384,395729,2,0,P|215:357|234:309,1,75.0000028610231,8|0,0:0|0:0,0:0:0:0:
243,25,395946,2,0,P|214:52|195:100,1,75.0000028610231,2|2,0:0|0:0,0:0:0:0:
45,223,396163,70,0,P|72:252|120:271,1,75.0000028610231,8|0,0:1|0:0,0:0:0:0:
421,197,396381,2,0,P|394:168|346:149,1,75.0000028610231,2|2,0:0|0:0,0:0:0:0:
77,40,396598,2,0,P|70:79|85:128,1,75.0000028610231,8|0,0:0|0:0,0:0:0:0:
230,325,396816,6,0,L|248:174,1,150.000005722046,2|8,0:0|0:1,0:0:0:0:
334,4,397142,1,0,0:0:0:0:
435,40,397250,2,0,P|441:79|426:128,1,75.0000028610231,2|2,0:0|0:0,0:0:0:0:
463,288,397468,2,0,P|426:294|371:283,1,75.0000028610231,8|0,0:0|0:0,0:0:0:0:
247,176,397685,70,0,L|230:325,1,150.000005722046,2|8,0:0|0:1,0:0:0:0:
46,361,398011,1,0,0:0:0:0:
9,235,398120,2,0,P|46:229|101:240,1,75.0000028610231,2|2,0:0|0:0,0:0:0:0:
313,306,398337,2,0,L|322:231,1,75.0000028610231,8|0,0:0|0:0,0:0:0:0:
162,192,398555,2,0,L|153:267,1,75.0000028610231,2|2,0:0|0:0,0:0:0:0:
451,364,398772,6,0,P|475:299|466:216,1,150.000005722046,8|2,0:1|0:0,0:0:0:0:
401,41,399098,1,2,0:0:0:0:
326,158,399207,2,0,L|416:168,1,75.0000028610231,8|0,0:0|0:0,0:0:0:0:
219,35,399424,2,0,L|209:125,1,75.0000028610231,2|2,0:0|0:0,0:0:0:0:
9,249,399642,70,0,P|-13:176|10:95,1,150.000005722046,8|2,0:1|0:0,0:0:0:0:
110,171,399968,1,2,0:0:0:0:
149,292,400076,2,0,P|109:296|59:285,1,75.0000028610231,8|0,0:0|0:0,0:0:0:0:
68,57,400294,2,0,P|108:53|158:64,1,75.0000028610231,2|2,0:0|0:0,0:0:0:0:
503,249,400511,2,0,P|525:176|502:95,1,150.000005722046,8|2,0:1|0:0,0:0:0:0:
402,171,400837,1,2,0:0:0:0:
363,292,400946,2,0,P|403:296|453:285,1,75.0000028610231,8|0,0:0|0:0,0:0:0:0:
444,57,401163,2,0,P|404:53|354:64,1,75.0000028610231,2|2,0:0|0:0,0:0:0:0:
110,171,401381,6,0,P|98:134|106:88,1,75.0000028610231,8|0,0:1|0:0,0:0:0:0:
402,171,401598,2,0,P|414:208|406:254,1,75.0000028610231,2|2,0:0|0:0,0:0:0:0:
240,384,401816,2,0,L|248:225,1,150.000005722046,8|2,0:0|0:0,0:0:0:0:
257,16,402142,1,2,0:0:0:0:
326,126,402250,70,0,P|255:141|176:121,1,150.000005722046,8|2,0:1|0:0,0:0:0:0:
0,72,402576,1,2,0:0:0:0:
64,226,402685,2,0,L|79:153,1,75.0000028610231,8|0,0:0|0:0,0:0:0:0:
75,351,402903,2,0,L|1:341,1,75.0000028610231,2|2,0:0|0:0,0:0:0:0:
170,280,403120,6,0,L|327:303,1,150.000005722046,8|2,0:1|0:0,0:0:0:0:
487,330,403446,1,2,0:0:0:0:
395,384,403555,2,0,P|386:303|425:245,1,150.000005722046,8|2,0:0|0:0,0:0:0:0:
512,177,403881,69,2,0:0:0:0:
512,177,403989,2,0,P|441:183|341:172,1,150.000005722046,8|2,0:1|0:0,0:0:0:0:
12,146,404316,5,2,0:0:0:0:
12,146,404424,2,0,P|83:140|183:151,1,150.000005722046,8|2,0:0|0:0,0:0:0:0:
292,0,404750,37,2,0:0:0:0:
292,0,404858,2,0,P|298:71|287:171,1,150.000005722046,8|2,0:1|0:0,0:0:0:0:
220,384,405185,5,2,0:0:0:0:
220,384,405293,2,0,P|214:313|225:213,1,150.000005722046,8|2,0:0|0:0,0:0:0:0:
226,179,405620,1,2,0:0:0:0:
226,179,405729,1,12,0:1:0:0:
226,179,406163,37,8,0:0:0:0:
322,291,406381,2,0,B|361:285|361:285|391:299|391:299|466:284,1,150,2|0,0:0|0:0,0:0:0:0:
506,278,406816,1,2,0:0:0:0:
367,166,407033,1,8,0:0:0:0:
486,25,407250,1,2,0:0:0:0:
512,159,407468,6,0,B|473:165|473:165|443:151|443:151|368:166,1,150,12|2,0:1|0:0,0:0:0:0:
327,174,407903,1,8,0:0:0:0:
202,0,408120,1,2,0:0:0:0:
16,109,408337,2,0,L|127:113,1,100,0|2,0:1|0:0,0:0:0:0:
327,174,408772,1,8,0:0:0:0:
87,324,408989,1,2,0:0:0:0:
225,384,409207,70,0,L|230:309,1,62.5,12|0,0:1|0:0,0:0:0:0:
294,114,409424,2,0,L|299:189,1,62.5,2|2,0:0|0:0,0:0:0:0:
257,248,409642,1,0,0:0:0:0:
188,219,409750,1,0,0:0:0:0:
173,145,409859,1,2,0:0:0:0:
223,89,409968,1,2,0:0:0:0:
294,114,410076,2,0,L|369:109,1,62.5
507,274,410294,6,0,L|512:199,1,62.5,2|2,0:0|0:0,0:0:0:0:
440,6,410511,1,0,0:0:0:0:
371,35,410619,1,0,0:0:0:0:
356,109,410728,1,8,0:1:0:0:
406,165,410837,1,2,0:0:0:0:
477,140,410946,2,0,L|482:65,1,62.5,0|0,0:0|0:0,0:0:0:0:
299,18,411163,69,2,0:0:0:0:
267,86,411272,1,2,0:0:0:0:
199,119,411381,1,0,0:0:0:0:
124,118,411489,1,0,0:0:0:0:
74,61,411598,1,2,0:0:0:0:
52,73,411707,1,2,0:0:0:0:
30,86,411816,2,0,L|35:158,1,62.5,0|0,0:0|0:0,0:0:0:0:
0,299,412033,6,0,L|72:294,1,62.5,2|2,0:0|0:0,0:0:0:0:
256,192,412250,2,0,L|184:197,1,62.5,0|0,0:0|0:0,0:0:0:0:
244,383,412468,1,2,0:0:0:0:
291,369,412577,1,2,0:0:0:0:
336,352,412686,2,0,L|331:280,1,62.5,0|0,0:0|0:0,0:0:0:0:
452,130,412903,70,0,L|457:202,1,62.5,2|2,0:0|0:0,0:0:0:0:
512,303,413120,2,0,L|431:307,1,62.5,0|0,0:0|0:0,0:0:0:0:
101,249,413337,1,2,0:0:0:0:
150,253,413446,1,2,0:0:0:0:
199,257,413555,2,0,L|280:261,1,62.5,0|0,0:0|0:0,0:0:0:0:
340,60,413772,5,2,0:0:0:0:
334,127,413881,1,2,0:0:0:0:
291,180,413989,1,0,0:0:0:0:
222,173,414098,1,0,0:0:0:0:
177,119,414207,1,2,0:0:0:0:
188,51,414316,1,2,0:0:0:0:
266,19,414424,2,0,L|262:106,1,62.5,0|0,0:0|0:0,0:0:0:0:
135,196,414642,70,0,P|105:178|88:148,1,62.5,2|2,0:0|0:0,0:0:0:0:
407,102,414859,2,0,P|437:120|454:150,1,62.5,0|0,0:0|0:0,0:0:0:0:
508,254,415076,2,0,P|504:285|486:331,1,62.5,2|2,0:0|0:0,0:0:0:0:
379,384,415294,1,0,0:0:0:0:
317,373,415403,1,0,0:0:0:0:
285,319,415511,1,2,0:0:0:0:
279,256,415620,1,2,0:0:0:0:
319,208,415729,2,0,P|355:198|397:198,1,62.5,0|0,0:0|0:0,0:0:0:0:
212,344,415946,2,0,P|176:354|134:354,1,62.5,2|2,0:0|0:0,0:0:0:0:
42,384,416163,6,0,L|27:246,1,125,12|2,0:1|0:0,0:0:0:0:
60,87,416489,1,2,0:0:0:0:
125,165,416598,2,0,L|-13:180,1,125,0|2,0:0|0:0,0:0:0:0:
288,134,416924,1,2,0:0:0:0:
212,173,417033,2,0,P|205:143|207:99,1,62.5,0|0,0:0|0:0,0:0:0:0:
366,90,417250,2,0,P|373:120|371:164,1,62.5,2|2,0:0|0:0,0:0:0:0:
302,259,417468,70,0,L|287:121,1,125,0|0,0:0|0:1,0:0:0:0:
275,13,417794,1,2,0:0:0:0:
366,90,417903,2,0,P|403:84|437:73,1,62.5,0|0,0:0|0:0,0:0:0:0:
205,111,418120,2,0,P|168:105|134:94,1,62.5,2|2,0:0|0:0,0:0:0:0:
288,134,418337,2,0,L|301:258,1,125,0|2,0:0|0:0,0:0:0:0:
315,382,418663,1,2,0:0:0:0:
186,349,418772,6,0,P|178:317|181:274,1,62.5,0|0,0:0|0:0,0:0:0:0:
434,259,418989,2,0,P|442:291|439:334,1,62.5,2|2,0:0|0:0,0:0:0:0:
315,382,419207,2,0,L|301:257,1,125,0|2,0:0|0:0,0:0:0:0:
288,134,419533,1,2,0:0:0:0:
404,161,419642,70,0,P|396:187|371:217,1,62.5
227,226,419859,2,0,P|201:218|171:193,1,62.5,2|2,0:0|0:0,0:0:0:0:
214,38,420076,2,0,P|277:14|349:20,1,125,0|2,0:0|0:0,0:0:0:0:
512,102,420403,1,2,0:0:0:0:
486,190,420511,2,0,L|505:266,1,62.5,0|0,0:0|0:0,0:0:0:0:
466,364,420729,2,0,P|438:375|389:373,1,62.5,2|2,0:0|0:0,0:0:0:0:
166,238,420946,2,0,P|194:227|243:229,1,62.5
56,384,421163,2,0,L|37:308,1,62.5,2|2,0:0|0:0,0:0:0:0:
0,153,421381,6,0,P|60:135|140:148,1,125,0|2,0:0|0:0,0:0:0:0:
415,218,421707,1,2,0:0:0:0:
415,218,421816,2,0,P|355:236|275:223,1,125,0|2,0:0|0:0,0:0:0:0:
152,56,422142,69,2,0:0:0:0:
200,136,422250,2,0,P|232:132|274:114,1,62.5,0|0,1:0|1:0,0:0:0:0:
512,14,422468,2,0,P|480:18|438:36,1,62.5,8|4,0:3|0:3,0:0:0:0:
494,173,422685,6,0,P|499:139|496:98,1,62.5,0|0,1:0|0:0,0:0:0:0:
322,12,422903,2,0,P|317:46|320:87,1,62.5,2|4,1:2|0:3,0:0:0:0:
512,150,423120,22,2,B|471:369|471:369|375:351,1,314.999990386963,12|2,0:1|0:0,0:1:0:0:
316,286,423555,2,0,B|365:284|352:246|408:241,1,104.999996795654,8|0,0:0|0:0,0:0:0:0:
460,85,423772,2,0,B|393:62|330:111|310:195,1,209.999993591309,2|8,0:1|0:1,0:0:0:0:
145,357,424207,69,2,0:0:0:0:
170,323,424316,1,2,0:0:0:0:
163,278,424424,2,0,B|146:245|114:240|70:248,1,104.999996795654,8|0,0:0|0:0,0:0:0:0:
20,174,424642,2,0,B|185:146|185:146|193:188,2,209.999993591309,2|8|2,0:0|0:1|0:0,0:0:0:0:
30,188,425185,1,2,0:0:0:0:
45,196,425294,1,8,0:0:0:0:
275,176,425511,22,0,B|313:135|270:123|312:81,1,104.999996795654,2|0,0:1|0:0,0:0:0:0:
284,0,425729,70,0,B|299:41|357:83|466:60,1,209.999993591309,8|2,0:1|0:0,0:0:0:0:
390,147,426055,1,2,0:0:0:0:
407,231,426163,70,0,P|381:226|354:226,2,52.4999983978272,10|2|2,0:0|0:0|0:0,0:0:0:0:
407,231,426381,2,0,B|381:224|351:232|312:277,1,104.999996795654,2|2,0:0|0:0,0:0:0:0:
92,320,426598,6,0,B|100:362|100:362|265:334,1,209.999993591309,10|2,0:1|0:0,0:0:0:0:
303,353,426924,1,2,0:0:0:0:
328,387,427033,1,8,0:0:0:0:
187,219,427250,70,0,B|159:147|209:85|239:114|260:77|260:38,1,209.999993591309,2|8,0:0|0:1,0:0:0:0:
330,257,427685,1,2,0:0:0:0:
296,233,427794,1,2,0:0:0:0:
291,194,427903,2,0,B|293:161|315:139|341:139|341:139|349:162|374:174,1,131.250001251698,8|0,0:0|0:0,0:0:0:0:
433,232,428120,2,0,B|450:213|478:212|478:212|437:231|429:271,1,131.250001251698,2|2,0:0|0:0,0:0:0:0:
39,353,428337,5,8,0:1:0:0:
213,221,428555,70,0,B|214:206|245:200|277:214|291:254,1,104.999996795654,2|2,0:0|0:0,0:0:0:0:
50,304,428772,1,8,0:0:0:0:
290,193,428989,6,0,B|310:211|319:242|317:270|297:276|288:271|291:255,1,104.999996795654,2|2,0:0|0:0,0:0:0:0:
93,257,429207,1,8,0:1:0:0:
157,232,429316,1,0,0:0:0:0:
207,173,429424,1,2,0:0:0:0:
222,92,429533,1,2,0:0:0:0:
193,11,429642,1,8,0:0:0:0:
483,173,429859,70,0,P|455:177|434:197,1,58.8750002245903,2|0,0:0|0:0,0:0:0:0:
432,206,430076,2,2,B|420:280|420:280|181:307,1,314.999990386963,10|2,0:1|0:0,0:1:0:0:
112,350,430511,2,0,B|90:356|90:356|90:312|108:275,1,104.999996795654,8|0,0:0|0:0,0:0:0:0:
149,157,430729,6,0,B|192:62|139:15|55:31,1,209.999993591309,2|8,0:1|0:1,0:0:0:0:
262,247,431163,1,2,0:0:0:0:
295,273,431272,1,2,0:0:0:0:
337,262,431381,2,0,B|393:237|424:292,1,104.999996795654,8|0,0:0|0:0,0:0:0:0:
486,384,431598,70,0,B|446:351|446:351|471:194,2,209.999993591309,0|8|2,0:0|0:1|0:0,0:0:0:0:
493,369,432142,1,2,0:0:0:0:
490,353,432250,1,8,0:0:0:0:
273,249,432468,22,0,B|212:255|237:280|177:288,1,104.999996795654,2|0,0:1|0:0,0:0:0:0:
99,314,432685,54,0,B|191:298|262:321|290:376,1,209.999993591309,8|2,0:1|0:0,0:0:0:0:
273,249,433011,1,2,0:0:0:0:
325,166,433120,2,0,P|297:170|273:167,2,52.4999983978272,10|2|2,0:0|0:0|0:0,0:0:0:0:
325,166,433337,2,0,B|298:163|277:141|254:94,1,104.999996795654,2|2,0:0|0:0,0:0:0:0:
226,0,433555,6,0,B|195:37|195:37|35:20,1,209.999993591309,10|2,0:1|0:0,0:0:0:0:
5,51,433881,1,2,0:0:0:0:
1,93,433989,1,8,0:0:0:0:
115,315,434207,70,0,P|113:209|80:110,2,209.999993591309,2|8|2,0:0|0:1|0:0,0:1:0:0:
317,271,434859,1,8,0:0:0:0:
358,203,434968,1,0,0:0:0:0:
418,188,435076,2,0,P|435:140|438:85,1,104.999996795654,2|2,0:0|0:0,0:0:0:0:
155,75,435294,5,8,0:1:0:0:
402,273,435511,70,0,B|403:288|434:294|466:280|480:239,1,104.999996795654,2|2,0:0|0:0,0:0:0:0:
177,119,435729,1,8,0:0:0:0:
480,301,435946,6,0,B|499:283|508:252|506:224|486:218|477:223|480:239,1,104.999996795654,2|2,0:0|0:0,0:0:0:0:
230,153,436164,1,8,0:1:0:0:
299,162,436273,1,0,0:0:0:0:
361,207,436381,1,2,0:0:0:0:
396,282,436490,1,2,0:0:0:0:
387,367,436599,1,8,0:0:0:0:
74,376,436816,70,0,P|93:355|99:326,1,58.8750002245903,2|0,0:0|0:0,0:0:0:0:
98,318,437033,2,2,B|86:271|86:271|299:221|299:221|287:171,1,314.999990386963,12|2,0:1|0:0,0:1:0:0:
251,24,437468,2,0,P|225:72|223:121,1,104.999996795654,8|0,0:0|0:0,0:0:0:0:
379,204,437685,6,0,B|444:224|478:280|460:346|460:346|428:335,1,209.999993591309,2|8,0:1|0:1,0:0:0:0:
223,381,438120,1,2,0:0:0:0:
261,363,438229,1,2,0:0:0:0:
273,323,438337,2,0,B|268:272|224:252|224:252|218:266,1,104.999996795654,8|0,0:0|0:0,0:0:0:0:
77,144,438555,70,0,B|99:140|99:140|126:304|126:304|147:300,2,209.999993591309,2|8|2,0:0|0:1|0:0,0:0:0:0:
64,155,439098,1,2,0:0:0:0:
59,171,439207,1,8,0:0:0:0:
349,281,439424,22,0,B|402:247|360:233|410:201,1,104.999996795654,2|0,0:1|0:0,0:0:0:0:
488,180,439642,54,0,B|388:169|330:137|315:82,1,209.999993591309,8|2,0:1|0:0,0:0:0:0:
309,204,439968,1,2,0:0:0:0:
251,283,440076,2,0,P|279:279|308:286,2,52.4999983978272,10|2|2,0:0|0:0|0:0,0:0:0:0:
251,283,440294,2,0,B|284:293|302:317|311:368,1,104.999996795654,2|2,0:0|0:0,0:0:0:0:
390,380,440511,6,0,B|414:383|414:383|439:221|439:221|462:225,1,209.999993591309,10|2,0:1|0:0,0:0:0:0:
505,207,440837,1,2,0:0:0:0:
512,169,440946,1,8,0:0:0:0:
307,271,441163,70,0,B|271:278|230:250|253:224|217:172|130:187,1,209.999993591309,2|8,0:0|0:1,0:0:0:0:
330,99,441598,1,2,0:0:0:0:
291,122,441707,1,2,0:0:0:0:
247,115,441816,2,0,B|208:98|235:75|196:53|196:53|223:43|231:21,1,131.250001251698,8|0,0:0|0:0,0:0:0:0:
320,19,442033,2,0,B|301:2|306:-20|306:-20|329:21|375:26,1,131.250001251698,0|2,0:0|0:0,0:0:0:0:
507,136,442250,5,8,0:1:0:0:
318,384,442468,70,0,B|326:349|326:349|321:342|321:342|333:282,1,104.999996795654,2|2,0:0|0:0,0:0:0:0:
457,133,442685,1,8,0:0:0:0:
408,349,442903,6,0,B|420:289|420:289|415:282|415:282|423:247,1,104.999996795654,2|2,0:0|0:0,0:0:0:0:
404,99,443120,1,8,0:1:0:0:
368,40,443229,1,0,0:0:0:0:
301,1,443337,1,2,0:0:0:0:
219,0,443446,1,2,0:0:0:0:
144,43,443555,1,8,0:0:0:0:
51,302,443772,70,0,P|36:276|10:263,1,58.8750002245903,2|0,0:0|0:0,0:0:0:0:
3,263,443989,2,2,B|34:203|34:203|214:176|214:176|240:116,1,314.999990386963,10|2,0:1|0:0,0:1:0:0:
122,8,444424,2,0,B|128:50|128:50|155:65|158:101,1,104.999996795654,8|0,0:0|0:0,0:0:0:0:
269,236,444642,6,0,B|216:366|216:366|210:329|187:304,1,209.999993591309,2|8,0:1|0:1,0:0:0:0:
464,168,445076,1,2,0:0:0:0:
476,208,445185,1,2,0:0:0:0:
449,240,445294,2,0,B|456:249|473:251|473:251|397:268,1,104.999996795654,8|0,0:0|0:0,0:0:0:0:
335,326,445511,70,0,B|307:283|307:283|203:266|203:266|174:221,2,209.999993591309,0|8|2,0:0|0:1|0:0,0:0:0:0:
327,341,446055,1,2,0:0:0:0:
311,346,446163,1,8,0:0:0:0:
94,203,446381,22,0,B|108:147|133:170|146:114,1,104.999996795654,2|0,0:1|0:0,0:0:0:0:
231,23,446598,54,0,B|221:71|148:113|52:82,1,209.999993591309,8|2,0:1|0:0,0:0:0:0:
221,151,446924,1,2,0:0:0:0:
222,245,447033,2,0,P|243:229|268:224,2,52.4999983978272,10|2|2,0:0|0:0|0:0,0:0:0:0:
222,245,447250,2,0,B|253:238|283:245|317:280,1,104.999996795654,2|2,0:0|0:0,0:0:0:0:
416,383,447468,6,0,B|387:337|387:337|416:236|416:236|388:192,1,209.999993591309,10|2,0:1|0:0,0:0:0:0:
401,153,447794,1,2,0:0:0:0:
438,132,447903,1,8,0:0:0:0:
304,0,448120,70,0,P|400:42|504:53,2,209.999993591309,2|8|2,0:0|0:1|0:0,0:0:0:0:
438,132,448772,1,8,0:0:0:0:
85,45,448989,6,0,P|121:9|173:10,1,104.999996795654,2|2,0:0|0:0,0:0:0:0:
242,54,449207,1,8,0:1:0:0:
46,343,449424,70,0,B|54:308|54:308|49:301|49:301|61:241,1,104.999996795654,2|2,0:0|0:0,0:0:0:0:
257,101,449642,1,8,0:0:0:0:
135,323,449859,6,0,B|147:263|147:263|142:256|142:256|150:221,1,104.999996795654,2|2,0:0|0:0,0:0:0:0:
302,144,450077,1,8,0:1:0:0:
368,165,450186,1,0,0:0:0:0:
422,221,450294,1,2,0:0:0:0:
443,300,450403,1,2,0:0:0:0:
420,383,450512,1,8,0:0:0:0:
191,217,450729,70,0,P|220:217|245:232,1,58.8750002245903,2|0,0:0|0:0,0:0:0:0:
249,240,450946,53,4,0:1:0:0:
131,271,451163,1,0,0:0:0:0:
58,202,451381,1,0,0:0:0:0:
272,203,451598,5,0,0:0:0:0:
177,257,451815,1,0,0:0:0:0:
98,214,452033,1,0,0:0:0:0:
274,163,452250,69,0,0:0:0:0:
205,231,452467,1,0,0:0:0:0:
126,213,452685,1,0,0:0:0:0:
257,123,452903,5,0,0:0:0:0:
213,198,453120,1,0,0:0:0:0:
141,200,453338,1,0,0:0:0:0:
126,213,453555,69,0,0:0:0:0:
188,169,453772,1,0,0:0:0:0:
276,180,453989,1,0,0:0:0:0:
324,240,454207,1,0,0:0:0:0:
324,240,454424,5,0,0:0:0:0:
301,151,454641,1,0,0:0:0:0:
353,96,454859,1,0,0:0:0:0:
352,257,455076,69,0,0:0:0:0:
312,186,455293,1,0,0:0:0:0:
344,126,455511,1,0,0:0:0:0:
382,258,455728,5,0,0:0:0:0:
331,206,455945,1,0,0:0:0:0:
345,147,456163,1,0,0:0:0:0:
412,245,456381,69,0,0:0:0:0:
356,213,456598,1,0,0:0:0:0:
354,158,456816,1,0,0:0:0:0:
345,147,457033,5,0,0:0:0:0:
299,114,457250,1,0,0:0:0:0:
233,122,457467,1,0,0:0:0:0:
197,167,457685,1,0,0:0:0:0:
197,167,457903,69,0,0:0:0:0:
247,197,458120,1,0,0:0:0:0:
291,180,458337,1,0,0:0:0:0:
214,211,458555,5,0,0:0:0:0:
265,225,458772,1,0,0:0:0:0:
298,199,458989,1,0,0:0:0:0:
237,239,459207,69,0,0:0:0:0:
285,239,459424,1,0,0:0:0:0:
308,209,459641,1,0,0:0:0:0:
261,256,459859,5,0,0:0:0:0:
303,244,460076,1,0,0:0:0:0:
316,213,460293,1,0,0:0:0:0:
308,209,460511,69,0,0:0:0:0:
284,179,460729,1,0,0:0:0:0:
240,173,460946,1,0,0:0:0:0:
209,195,461163,1,0,0:0:0:0:
209,195,461381,5,0,0:0:0:0:
236,206,461598,1,0,0:0:0:0:
242,229,461815,1,0,0:0:0:0:
232,188,462033,69,0,0:0:0:0:
253,205,462250,1,0,0:0:0:0:
252,226,462467,1,0,0:0:0:0:
250,190,462685,5,0,0:0:0:0:
264,209,462902,1,0,0:0:0:0:
259,227,463119,1,0,0:0:0:0:
264,195,463337,69,0,0:0:0:0:
271,215,463554,1,0,0:0:0:0:
263,229,463771,1,0,0:0:0:0:
256,226,463989,5,0,0:0:0:0:
250,200,464207,1,0,0:0:0:0:
260,169,464424,1,0,0:0:0:0:
252,139,464642,1,0,0:0:0:0:
