osu file format v14

[General]
AudioFilename: audio.mp3
AudioLeadIn: 0
PreviewTime: 50257
Countdown: 0
SampleSet: Soft
StackLeniency: 0.7
Mode: 0
LetterboxInBreaks: 0
WidescreenStoryboard: 1

[Editor]
DistanceSpacing: 1.3
BeatDivisor: 4
GridSize: 32
TimelineZoom: 1.6

[Metadata]
Title:Brand new diary (TV Size)
TitleUnicode:Brand new diary (TV Size)
Artist:Kumada Akane
ArtistUnicode:熊田茜音
Creator:dkblaze
Version:Hard
Source:転生したらスライムだった件 転スラ日記
Tags:Tensei Shitara Slime Datta Ken The Diaries 転スラ Nikki TenSura That Time I Got Reincarnated as a 8bit japanese pop jpop j-pop anime OP opening
BeatmapID:2944302
BeatmapSetID:1430243

[Difficulty]
HPDrainRate:4.5
CircleSize:3.8
OverallDifficulty:5.5
ApproachRate:7
SliderMultiplier:1.4
SliderTickRate:1

[Events]
//Background and Video events
0,0,"BG.jpg",0,0
Video,-304,"video.mp4"
//Break Periods
//Storyboard Layer 0 (Background)
//Storyboard Layer 1 (Fail)
//Storyboard Layer 2 (Pass)
//Storyboard Layer 3 (Foreground)
//Storyboard Layer 4 (Overlay)
//Storyboard Sound Samples

[TimingPoints]
4589,333.333333333333,4,2,1,60,1,0
5255,-111.111111111111,4,2,1,60,0,0
5922,-100,4,2,1,75,0,0
16588,-125,4,2,1,65,0,0
26088,-100,4,2,1,45,0,0
27255,-111.111111111111,4,2,1,70,0,0
43255,-125,4,2,1,70,0,0
45922,-100,4,2,1,70,0,0
51255,-90.9090909090909,4,2,1,80,0,1
72588,-142.857142857143,4,2,1,80,0,0
75255,-111.111111111111,4,2,1,80,0,0
77922,-90.9090909090909,4,2,1,80,0,1
85922,-100,4,2,1,80,0,0
88422,-142.857142857143,4,2,1,80,0,0
89088,-142.857142857143,4,2,1,5,0,0

[Colours]
Combo1 : 74,74,255
Combo2 : 149,255,255
Combo3 : 193,193,0

[HitObjects]
256,64,5255,6,0,P|261:112|264:137,1,62.9999980773926,2|0,0:0|0:0,0:0:0:0:
219,196,5588,2,0,P|213:251|212:291,1,62.9999980773926,2|0,0:0|0:0,0:0:0:0:
257,338,5922,6,0,P|286:319|330:325,2,70,6|2|10,3:2|3:2|0:0,0:0:0:0:
176,380,6422,2,0,P|139:370|20:338,1,140,2|0,0:0|3:0,0:0:0:0:
99,274,6922,2,0,P|103:245|117:183,1,70,8|0,0:0|3:0,0:0:0:0:
72,122,7255,1,2,0:0:0:0:
72,122,7422,2,0,P|101:101|154:103,1,70,2|8,3:2|0:0,0:0:0:0:
215,56,7755,2,0,P|248:79|257:120,1,70,2|0,0:0|3:0,0:0:0:0:
221,189,8088,1,2,3:2:0:0:
221,189,8255,2,0,P|215:238|213:263,1,70,8|0,0:0|0:0,0:0:0:0:
285,313,8588,6,0,B|354:309|332:245|414:254,1,140,2|10,3:2|0:0,0:0:0:0:
491,282,9088,1,2,0:0:0:0:
491,282,9255,2,0,P|481:340|477:370,1,70,2|2,3:2|3:2,0:0:0:0:
393,382,9588,1,10,0:0:0:0:
313,337,9755,2,0,P|306:289|296:192,1,140,2|0,3:2|3:0,0:0:0:0:
344,120,10255,6,0,P|337:92|293:71,1,70,10|2,0:0|0:0,0:0:0:0:
213,81,10588,2,0,P|216:57|225:-2,2,70,2|2|10,3:2|3:2|0:0,0:0:0:0:
154,151,11088,1,2,0:0:0:0:
215,217,11255,6,0,P|223:271|227:300,1,70,4|0,3:2|3:0,0:0:0:0:
241,375,11588,1,10,0:0:0:0:
446,283,11922,2,0,P|487:297|532:308,2,70,2|10|10,3:2|0:0|0:0,0:0:0:0:
431,196,12422,2,0,P|435:169|458:48,1,140,6|2,3:2|0:0,0:0:0:0:
382,3,12922,1,10,0:0:0:0:
382,3,13088,1,2,3:2:0:0:
294,28,13255,2,0,P|254:18|199:4,1,70,8|0,0:0|3:0,0:0:0:0:
168,81,13588,1,10,0:3:0:0:
168,81,13755,1,8,0:3:0:0:
228,149,13922,6,0,P|236:199|240:235,1,70,6|0,3:2|3:0,0:0:0:0:
290,292,14255,2,0,P|271:315|218:317,1,70,8|0,0:0|3:0,0:0:0:0:
158,374,14588,2,0,P|132:367|81:356,1,70,8|0,0:0|3:0,0:0:0:0:
25,291,14922,1,10,0:0:0:0:
66,210,15088,1,2,3:2:0:0:
66,210,15172,1,0,3:0:0:0:
66,210,15255,6,0,P|109:206|148:229,1,70,14|2,0:0|3:2,0:0:0:0:
206,269,15588,1,10,0:0:0:0:
292,239,15755,2,0,P|296:211|305:153,1,70,6|0,3:2|0:0,0:0:0:0:
371,110,16088,1,6,0:3:0:0:
371,110,16172,1,8,0:3:0:0:
371,110,16255,1,4,0:3:0:0:
460,128,16422,1,2,0:0:0:0:
501,208,16588,6,0,P|488:296|485:330,2,112,6|2|2,3:2|3:2|3:2,0:0:0:0:
501,208,17588,1,2,3:2:0:0:
405,266,17922,2,0,P|384:236|296:229,1,112,2|0,3:2|3:0,0:0:0:0:
313,221,18588,1,2,3:2:0:0:
234,301,18922,1,2,3:2:0:0:
134,249,19255,6,0,P|129:201|120:124,1,112,2|2,3:2|3:2,0:0:0:0:
218,81,19922,2,0,P|224:136|230:192,1,112,2|2,3:2|3:2,0:0:0:0:
321,257,20588,2,0,P|390:253|419:199,1,112,2|0,3:2|3:0,0:0:0:0:
392,112,21255,2,0,P|364:103|332:98,1,56,2|8,3:2|0:0,0:0:0:0:
293,133,21588,2,0,P|257:139|227:144,1,56,2|8,3:2|0:0,0:0:0:0:
184,123,21922,6,0,P|175:81|156:-7,2,112,2|2|2,3:2|3:2|3:2,0:0:0:0:
184,123,22922,1,2,3:2:0:0:
113,209,23255,2,0,P|169:207|210:254,1,112,2|0,3:2|3:0,0:0:0:0:
206,244,23922,1,2,3:2:0:0:
140,335,24255,1,2,3:2:0:0:
34,298,24588,6,0,P|31:262|20:223,1,56,2|0,3:2|0:0,0:0:0:0:
1,192,24922,2,0,P|2:178|14:115,1,56,2|2,3:2|0:0,0:0:0:0:
45,93,25255,2,0,P|40:72|32:38,2,56,2|8|10,3:2|0:0|0:0,0:0:0:0:
94,118,25755,2,0,P|147:105|211:92,1,112,4|2,3:2|0:0,0:0:0:0:
203,93,26755,1,2,3:2:0:0:
203,93,26838,1,0,3:0:0:0:
203,93,26922,1,8,0:0:0:0:
114,232,27255,6,0,P|151:239|187:245,1,62.9999980773926,6|2,3:2|0:0,0:0:0:0:
258,209,27588,2,0,P|254:258|254:295,1,62.9999980773926,10|2,0:0|0:0,0:0:0:0:
210,342,27922,2,0,P|252:313|336:329,1,125.999996154785,2|2,3:2|0:0,0:0:0:0:
385,374,28422,1,10,0:0:0:0:
498,255,28755,1,2,3:2:0:0:
498,255,28922,1,8,0:0:0:0:
446,191,29088,2,0,P|410:198|370:209,1,62.9999980773926,2|2,3:2|3:2,0:0:0:0:
312,165,29422,2,0,P|305:135|293:91,2,62.9999980773926,2|10|2,3:2|0:0|0:0,0:0:0:0:
253,223,29922,6,0,P|238:313|234:357,1,125.999996154785,2|10,3:2|0:0,0:0:0:0:
156,372,30422,1,2,0:0:0:0:
156,372,30588,2,0,P|118:365|86:361,2,62.9999980773926,2|2|2,3:2|3:2|0:0,0:0:0:0:
154,289,31088,1,10,0:0:0:0:
21,192,31422,1,2,3:2:0:0:
21,192,31588,1,8,0:0:0:0:
95,45,31922,2,0,P|131:49|171:54,1,62.9999980773926,2|2,3:2|3:2,0:0:0:0:
236,29,32255,2,0,P|251:56|244:97,1,62.9999980773926,10|2,0:0|0:0,0:0:0:0:
299,151,32588,6,0,P|287:251|284:284,1,125.999996154785,2|10,3:2|0:0,0:0:0:0:
300,356,33088,2,0,P|276:361|236:344,1,62.9999980773926,2|0,0:0|3:0,0:0:0:0:
188,283,33422,2,0,P|160:290|120:303,1,62.9999980773926,2|2,3:2|0:0,0:0:0:0:
69,358,33755,2,0,P|46:348|35:245,1,125.999996154785,8|0,0:0|3:0,0:0:0:0:
77,195,34255,1,10,0:0:0:0:
235,156,34588,2,0,P|266:180|272:215,1,62.9999980773926,2|0,3:2|3:0,0:0:0:0:
214,259,34922,2,0,P|206:306|204:332,1,62.9999980773926,10|2,0:0|0:0,0:0:0:0:
268,372,35255,6,0,P|316:360|392:347,1,125.999996154785,2|10,3:2|0:0,0:0:0:0:
473,346,35755,2,0,P|481:367|484:386,2,31.4999990386963,2|0|0,3:2|3:0|3:0,0:0:0:0:
429,276,36088,1,2,3:2:0:0:
429,276,36255,1,2,0:0:0:0:
484,215,36422,2,0,P|489:181|505:85,1,125.999996154785,8|0,0:0|3:0,0:0:0:0:
445,15,36922,2,0,P|411:14|387:42,1,62.9999980773926,12|0,0:0|3:0,0:0:0:0:
352,119,37255,1,8,0:0:0:0:
352,119,37422,1,8,0:3:0:0:
267,78,37588,2,0,P|236:71|182:59,1,62.9999980773926,8|8,0:3|0:3,0:0:0:0:
106,115,37922,5,6,3:2:0:0:
156,192,38088,1,2,0:0:0:0:
156,192,38422,5,6,3:2:0:0:
132,285,38588,1,2,0:0:0:0:
132,285,38922,6,0,P|185:273|272:258,1,125.999996154785,6|0,3:2|0:0,0:0:0:0:
330,209,39422,1,2,3:2:0:0:
330,209,39588,2,0,P|358:234|361:275,1,62.9999980773926,8|0,0:0|3:0,0:0:0:0:
450,274,39922,2,0,P|437:336|434:356,1,62.9999980773926,10|4,0:3|0:3,0:0:0:0:
359,378,40255,2,0,P|339:373|276:360,1,62.9999980773926,8|8,0:0|0:0,0:0:0:0:
210,378,40588,5,6,3:2:0:0:
155,300,40755,2,0,P|159:271|169:224,1,62.9999980773926,10|8,0:0|0:0,0:0:0:0:
248,153,41088,5,6,3:2:0:0:
339,177,41255,2,0,P|345:206|351:243,1,62.9999980773926,10|8,0:3|0:3,0:0:0:0:
282,314,41588,6,0,P|222:301|130:283,1,125.999996154785,6|0,3:2|0:0,0:0:0:0:
87,329,42088,1,10,0:0:0:0:
87,329,42255,2,0,P|75:304|87:249,1,62.9999980773926,8|0,0:0|0:0,0:0:0:0:
89,240,42505,1,8,0:0:0:0:
89,240,42588,1,10,0:0:0:0:
43,171,42755,1,10,0:0:0:0:
88,102,42922,2,0,P|91:85|98:58,3,31.4999990386963,2|0|8|8,3:2|3:0|0:0|0:0,0:0:0:0:
83,31,43255,5,4,3:2:0:0:
191,94,43588,2,0,P|179:187|178:217,2,112,2|2|2,3:2|3:2|3:2,0:0:0:0:
286,153,44588,2,0,P|329:143|405:131,1,112,2|0,3:2|3:0,0:0:0:0:
396,132,45255,1,2,3:2:0:0:
470,215,45588,1,2,3:2:0:0:
371,368,45922,6,0,P|326:365|292:334,1,70,10|0,0:0|3:0,0:0:0:0:
218,325,46255,2,0,P|212:305|231:241,1,70,10|0,0:0|3:0,0:0:0:0:
298,187,46588,2,0,P|301:162|310:106,1,70,10|0,0:0|3:0,0:0:0:0:
221,56,46922,2,0,P|215:90|211:125,1,70,10|0,0:0|3:0,0:0:0:0:
120,191,47255,6,0,P|105:186|44:173,1,70,14|0,0:0|3:0,0:0:0:0:
6,71,47588,2,0,P|33:64|77:54,1,70,12|0,0:0|3:0,0:0:0:0:
206,0,47922,2,0,P|220:49|210:90,1,70,12|0,0:0|3:0,0:0:0:0:
289,144,48255,2,0,P|272:185|230:212,1,70,12|0,0:0|3:0,0:0:0:0:
120,191,48588,5,10,0:0:0:0:
120,191,48672,1,8,0:3:0:0:
120,191,48755,2,0,P|127:219|129:235,3,35,4|4|4|4,0:3|0:3|0:3|0:3,0:0:0:0:
154,248,49088,2,0,P|150:272|147:296,5,35,10|8|4|4|4|4,0:0|0:3|0:3|0:3|0:3|0:3,0:0:0:0:
119,303,49588,2,0,P|126:331|128:347,3,35,10|8|4|4,0:0|0:3|0:3|0:3,0:0:0:0:
160,369,49922,1,14,0:0:0:0:
160,369,51255,6,0,P|241:354|321:341,1,154.000004699707,6|8,3:2|0:0,0:0:0:0:
334,245,51755,1,0,0:0:0:0:
334,245,51922,2,0,P|303:235|255:226,1,77.0000023498536,2|0,3:2|3:0,0:0:0:0:
189,155,52255,1,8,0:0:0:0:
189,155,52422,1,2,0:0:0:0:
237,68,52588,6,0,P|272:58|318:52,1,77.0000023498536,2|0,3:2|3:0,0:0:0:0:
396,107,52922,1,10,0:0:0:0:
487,66,53088,2,0,P|477:118|473:151,1,77.0000023498536,2|0,0:0|3:0,0:0:0:0:
504,237,53422,1,0,3:0:0:0:
504,237,53588,1,8,0:0:0:0:
365,382,53922,6,0,P|334:376|273:368,1,77.0000023498536,2|0,3:2|3:0,0:0:0:0:
350,290,54255,2,0,P|319:284|258:276,1,77.0000023498536,10|0,0:0|0:0,0:0:0:0:
175,295,54588,2,0,P|168:266|190:220,1,77.0000023498536,2|0,3:2|3:0,0:0:0:0:
280,189,54922,2,0,P|283:158|296:91,1,77.0000023498536,10|0,0:0|0:0,0:0:0:0:
232,30,55255,6,0,P|192:23|136:14,1,77.0000023498536,2|0,3:2|3:0,0:0:0:0:
56,8,55588,1,10,0:0:0:0:
56,8,55755,1,2,0:0:0:0:
92,101,55922,2,0,P|80:156|78:184,1,77.0000023498536,0|0,3:0|3:0,0:0:0:0:
17,256,56255,1,8,0:0:0:0:
171,382,56588,6,0,P|199:359|255:354,1,77.0000023498536,2|0,3:2|3:0,0:0:0:0:
309,277,56922,2,0,P|357:288|378:308,1,77.0000023498536,10|0,0:0|0:0,0:0:0:0:
455,367,57255,2,0,P|457:341|466:282,1,77.0000023498536,2|0,3:2|3:0,0:0:0:0:
409,206,57588,2,0,P|404:176|397:127,1,77.0000023498536,10|0,0:0|0:0,0:0:0:0:
485,80,57922,6,0,B|415:71|448:15|349:10,1,154.000004699707,2|8,3:2|0:0,0:0:0:0:
270,65,58422,1,2,0:0:0:0:
270,65,58588,2,0,P|264:114|261:144,1,77.0000023498536,2|0,3:2|3:0,0:0:0:0:
250,241,58922,1,8,0:0:0:0:
250,241,59088,1,2,0:0:0:0:
160,194,59255,6,0,P|123:200|85:208,1,77.0000023498536,2|0,3:2|3:0,0:0:0:0:
22,287,59588,1,10,0:0:0:0:
81,367,59755,2,0,P|129:379|177:388,1,77.0000023498536,2|0,0:0|3:0,0:0:0:0:
245,338,60088,1,2,3:2:0:0:
201,247,60255,2,0,P|198:212|191:154,1,77.0000023498536,10|0,0:0|3:0,0:0:0:0:
225,147,60505,1,0,3:0:0:0:
225,147,60588,6,0,P|229:115|238:61,1,77.0000023498536,14|2,0:0|3:2,0:0:0:0:
160,4,60922,2,0,P|114:1|82:21,1,77.0000023498536,14|2,0:0|3:2,0:0:0:0:
35,100,61255,1,14,0:0:0:0:
35,100,61422,1,0,0:0:0:0:
107,168,61588,2,0,P|146:159|194:148,1,77.0000023498536,2|0,3:2|3:0,0:0:0:0:
264,93,61922,6,0,P|347:102|419:121,1,154.000004699707,6|8,3:2|0:0,0:0:0:0:
458,210,62422,1,0,3:0:0:0:
363,275,62588,2,0,P|345:248|356:183,1,77.0000023498536,10|0,0:0|3:0,0:0:0:0:
465,224,62922,2,0,P|457:285|454:314,1,77.0000023498536,8|2,0:0|3:2,0:0:0:0:
365,373,63255,6,0,P|284:351|210:336,1,154.000004699707,10|10,0:0|0:0,0:0:0:0:
137,276,63755,1,2,3:2:0:0:
223,192,63922,2,0,P|252:230|247:267,1,77.0000023498536,8|0,0:0|3:0,0:0:0:0:
127,262,64255,2,0,P|130:227|138:165,1,77.0000023498536,8|0,0:0|3:0,0:0:0:0:
111,147,64505,1,0,3:0:0:0:
111,147,64588,6,0,P|108:118|100:64,1,77.0000023498536,10|0,0:0|0:0,0:0:0:0:
185,2,64922,2,0,P|234:7|263:32,1,77.0000023498536,10|0,0:0|3:0,0:0:0:0:
354,65,65255,2,0,P|358:108|337:151,1,77.0000023498536,10|0,0:0|3:0,0:0:0:0:
271,216,65588,2,0,P|218:203|171:193,1,77.0000023498536,10|0,0:0|3:0,0:0:0:0:
105,137,65922,6,0,P|74:168|75:221,1,77.0000023498536,10|0,0:0|0:0,0:0:0:0:
24,297,66255,1,10,0:0:0:0:
117,351,66422,2,0,P|182:338|280:320,1,154.000004699707,2|0,3:2|3:0,0:0:0:0:
358,381,66922,2,0,P|379:350|372:287,1,77.0000023498536,12|0,0:0|3:0,0:0:0:0:
299,241,67255,6,0,P|297:217|289:162,1,77.0000023498536,10|0,0:0|0:0,0:0:0:0:
218,83,67588,2,0,P|258:75|302:67,1,77.0000023498536,10|0,0:0|3:0,0:0:0:0:
391,21,67922,2,0,P|414:66|408:109,1,77.0000023498536,10|0,0:0|3:0,0:0:0:0:
476,179,68255,2,0,P|461:224|417:247,1,77.0000023498536,10|0,0:0|3:0,0:0:0:0:
340,196,68588,6,0,P|284:184|180:165,1,154.000004699707,10|8,0:0|0:0,0:0:0:0:
125,79,69088,1,2,3:2:0:0:
211,14,69255,2,0,P|235:63|229:96,1,77.0000023498536,10|0,0:0|3:0,0:0:0:0:
175,175,69588,2,0,P|167:231|165:260,1,77.0000023498536,8|2,0:0|3:2,0:0:0:0:
191,287,69838,1,0,3:0:0:0:
191,287,69922,6,0,P|229:279|277:271,1,77.0000023498536,10|0,0:0|0:0,0:0:0:0:
367,319,70255,1,10,0:0:0:0:
441,256,70422,2,0,P|445:222|457:162,1,77.0000023498536,2|8,3:2|0:0,0:0:0:0:
367,79,70755,1,2,3:2:0:0:
276,117,70922,2,0,P|238:109|181:98,1,77.0000023498536,10|0,0:0|3:0,0:0:0:0:
83,63,71255,6,0,P|92:123|95:153,1,77.0000023498536,8|0,0:0|3:0,0:0:0:0:
187,194,71588,2,0,P|178:242|175:285,1,77.0000023498536,10|10,0:0|0:0,0:0:0:0:
174,299,71838,1,8,0:0:0:0:
174,299,71922,1,10,0:0:0:0:
110,367,72088,1,10,0:0:0:0:
21,350,72255,2,0,P|11:331|23:272,1,77.0000023498536,10|6,0:3|0:3,0:0:0:0:
5,163,72588,6,0,B|116:120|93:219|187:193,1,195.999994018555,6|0,3:2|0:0,0:0:0:0:
186,193,73922,6,0,B|91:218|114:119|3:162,1,195.999994018555,6|2,3:2|0:0,0:0:0:0:
4,162,75255,5,10,0:0:0:0:
4,162,75422,2,0,P|12:221|15:246,1,62.9999980773926,8|0,0:0|3:0,0:0:0:0:
94,256,75755,5,8,0:0:0:0:
94,256,75922,2,0,P|99:224|108:172,1,62.9999980773926,10|0,0:0|3:0,0:0:0:0:
182,120,76255,5,8,0:0:0:0:
182,120,76422,2,0,P|190:179|193:204,1,62.9999980773926,8|2,0:0|3:2,0:0:0:0:
265,259,76755,5,8,0:0:0:0:
265,259,76922,2,0,P|270:227|279:175,1,62.9999980773926,8|8,0:0|0:0,0:0:0:0:
295,169,77172,1,8,0:0:0:0:
295,169,77255,2,0,P|337:171|361:205,1,62.9999980773926,10|8,0:0|0:0,0:0:0:0:
435,156,77588,1,4,0:3:0:0:
435,156,77755,1,4,0:3:0:0:
506,232,77922,6,0,P|492:342|488:387,1,154.000004699707,14|8,0:0|0:0,0:0:0:0:
380,378,78422,2,0,P|355:363|331:308,1,77.0000023498536,2|8,3:2|0:0,0:0:0:0:
352,223,78755,1,0,3:0:0:0:
352,223,78922,2,0,L|259:200,1,77.0000023498536,10|0,0:0|3:0,0:0:0:0:
199,267,79255,5,8,0:0:0:0:
199,267,79422,2,0,P|166:274|118:284,1,77.0000023498536,2|8,0:0|0:0,0:0:0:0:
22,245,79755,1,0,3:0:0:0:
9,137,79922,2,0,P|27:102|74:78,1,77.0000023498536,8|2,0:0|3:2,0:0:0:0:
153,131,80255,2,0,P|195:138|240:147,1,77.0000023498536,10|2,0:0|3:2,0:0:0:0:
256,125,80505,1,0,3:0:0:0:
256,125,80588,6,0,P|265:87|280:38,2,77.0000023498536,10|0|8,0:0|0:0|0:0,0:0:0:0:
336,197,81088,1,2,3:2:0:0:
336,197,81255,2,0,P|340:240|313:292,1,77.0000023498536,8|0,0:0|3:0,0:0:0:0:
227,308,81588,2,0,P|217:362|213:396,2,77.0000023498536,10|0|8,0:0|3:0|0:0,0:0:0:0:
145,236,82088,5,2,0:0:0:0:
145,236,82255,2,0,P|138:205|169:155,1,77.0000023498536,8|0,0:0|3:0,0:0:0:0:
253,102,82588,2,0,P|299:113|357:129,1,77.0000023498536,10|0,0:0|3:0,0:0:0:0:
357,148,82838,1,0,3:0:0:0:
357,148,82922,2,0,P|405:141|457:134,1,77.0000023498536,10|0,0:0|3:0,0:0:0:0:
492,37,83255,6,0,P|431:22|324:0,1,154.000004699707,14|8,0:0|0:0,0:0:0:0:
249,55,83755,2,0,P|231:94|242:132,1,77.0000023498536,2|8,3:2|0:0,0:0:0:0:
296,207,84088,1,0,3:0:0:0:
236,287,84255,2,0,P|170:299|69:323,1,154.000004699707,10|8,0:0|0:0,0:0:0:0:
17,244,84755,6,0,P|14:225|-4:162,2,77.0000023498536,2|8|0,0:0|0:0|3:0,0:0:0:0:
7,343,85255,2,0,P|41:349|85:321,1,77.0000023498536,10|2,0:0|3:2,0:0:0:0:
172,263,85588,2,0,P|173:227|132:173,1,77.0000023498536,8|2,0:0|3:2,0:0:0:0:
70,126,85922,6,0,P|39:118|-19:107,2,70,14|0|2,0:0|3:0|3:2,0:0:0:0:
174,68,86422,2,0,P|178:40|189:-26,2,70,10|0|2,0:0|3:0|3:2,0:0:0:0:
253,157,86922,5,14,0:0:0:0:
351,140,87088,1,14,0:0:0:0:
351,140,87422,5,2,3:2:0:0:
374,245,87588,1,2,3:2:0:0:
374,245,87922,5,10,0:0:0:0:
479,262,88088,1,10,0:0:0:0:
499,67,88422,6,0,P|484:192|478:275,1,195.999994018555,6|0,3:2|0:0,0:0:0:0:
