osu file format v14

[General]
AudioFilename: audio.mp3
AudioLeadIn: 0
PreviewTime: 78188
Countdown: 0
SampleSet: Normal
StackLeniency: 0.7
Mode: 1
LetterboxInBreaks: 0
WidescreenStoryboard: 1

[Editor]
Bookmarks: 990,12024,23059,45128,67197,78231,89266,100300,111335,122369,133404,138921,144438
DistanceSpacing: 1
BeatDivisor: 4
GridSize: 32
TimelineZoom: 0.9

[Metadata]
Title:Arigatou (TV Size)
TitleUnicode:ありがとう (TV Size)
Artist:Kuku (CV: Koiwai Kotori)
ArtistUnicode:クク (CV: 小岩井ことり)
Creator:Tyistiana
Version:Muzukashii
Source:スライム倒して300年、知らないうちにレベルMAXになってました
Tags:Slime Taoshite 300-nen, Shiranai Uchi ni Level Max ni Nattemashita I've Been Killing Slimes for 300 Years and Maxed Out My Level insert song in anime japanese pop j-pop
BeatmapID:3124285
BeatmapSetID:1492595

[Difficulty]
HPDrainRate:7
CircleSize:5
OverallDifficulty:3.5
ApproachRate:5
SliderMultiplier:1.4
SliderTickRate:1

[Events]
//Background and Video events
0,0,"10.png",0,0
Video,0,"in.mp4"
//Break Periods
//Storyboard Layer 0 (Background)
//Storyboard Layer 1 (Fail)
//Storyboard Layer 2 (Pass)
//Storyboard Layer 3 (Foreground)
//Storyboard Layer 4 (Overlay)
//Storyboard Sound Samples

[TimingPoints]
-10044,689.655172413793,4,1,0,60,1,0
990,-100,4,1,0,60,0,0
9180,-100,4,1,0,70,0,0
11938,-100,4,1,0,80,0,0
23145,-100,4,1,0,70,0,0
45042,-100,4,1,0,80,0,0
72887,-100,4,1,0,85,0,0
75645,-100,4,1,0,50,0,0
77111,-100,4,1,0,70,0,0
78145,-100,4,1,0,90,0,0
78231,-100,4,1,0,90,0,1
99611,-100,4,1,0,90,0,0
100300,-100,4,1,0,90,0,1
116852,-100,4,1,0,90,0,0
139266,-100,4,1,0,90,0,0
139611,-100,4,1,0,90,0,0
139955,-100,4,1,0,85,0,0
140300,-100,4,1,0,80,0,0
140645,-100,4,1,0,75,0,0
140990,-100,4,1,0,70,0,0
141335,-100,4,1,0,65,0,0
141680,-100,4,1,0,60,0,0
142024,-100,4,1,0,55,0,0
142369,-100,4,1,0,50,0,0
142714,-100,4,1,0,45,0,0
143059,-100,4,1,0,40,0,0
143404,-100,4,1,0,35,0,0
143749,-100,4,1,0,30,0,0
144093,-100,4,1,0,25,0,0
144438,-100,4,1,0,20,0,0
144783,-100,4,1,0,15,0,0
145128,-100,4,1,0,10,0,0

[HitObjects]
256,192,990,5,0,0:0:0:0:
256,192,1680,1,8,0:0:0:0:
256,192,2369,1,0,0:0:0:0:
256,192,2714,1,0,0:0:0:0:
256,192,3059,1,8,0:0:0:0:
256,192,3749,1,0,0:0:0:0:
256,192,4438,1,8,0:0:0:0:
256,192,5128,1,0,0:0:0:0:
256,192,5473,1,0,0:0:0:0:
256,192,5818,1,8,0:0:0:0:
256,192,6507,1,0,0:0:0:0:
256,192,7197,1,8,0:0:0:0:
256,192,7887,1,0,0:0:0:0:
256,192,8231,1,0,0:0:0:0:
256,192,8576,1,8,0:0:0:0:
256,192,9266,1,8,0:0:0:0:
256,192,9955,1,8,0:0:0:0:
256,192,10300,1,8,0:0:0:0:
256,192,10818,1,8,0:0:0:0:
256,192,10990,1,8,0:0:0:0:
256,192,11335,1,0,0:0:0:0:
256,192,11680,1,0,0:0:0:0:
256,192,12024,1,4,0:0:0:0:
256,192,12714,5,8,0:0:0:0:
256,192,13059,1,0,0:0:0:0:
256,192,13231,1,8,0:0:0:0:
256,192,13576,1,8,0:0:0:0:
256,192,13749,1,0,0:0:0:0:
256,192,14093,1,8,0:0:0:0:
256,192,14438,1,0,0:0:0:0:
256,192,14783,1,0,0:0:0:0:
256,192,15473,1,8,0:0:0:0:
256,192,15818,1,0,0:0:0:0:
256,192,15990,1,8,0:0:0:0:
256,192,16335,1,8,0:0:0:0:
256,192,16507,1,0,0:0:0:0:
256,192,16852,1,8,0:0:0:0:
256,192,17197,1,8,0:0:0:0:
256,192,17542,1,0,0:0:0:0:
256,192,18231,1,8,0:0:0:0:
256,192,18576,1,0,0:0:0:0:
256,192,18749,1,8,0:0:0:0:
256,192,19093,1,8,0:0:0:0:
256,192,19266,1,0,0:0:0:0:
256,192,19611,1,8,0:0:0:0:
256,192,19955,1,0,0:0:0:0:
256,192,20300,1,12,0:0:0:0:
256,192,21680,1,8,0:0:0:0:
256,192,22024,1,0,0:0:0:0:
256,192,22369,1,8,0:0:0:0:
256,192,22542,1,8,0:0:0:0:
256,192,22714,1,0,0:0:0:0:
256,192,23059,1,4,0:0:0:0:
256,192,23749,5,8,0:0:0:0:
256,192,24093,1,0,0:0:0:0:
256,192,24438,1,8,0:0:0:0:
256,192,25128,1,8,0:0:0:0:
256,192,25473,1,0,0:0:0:0:
256,192,25818,1,0,0:0:0:0:
256,192,26852,1,0,0:0:0:0:
256,192,27197,1,0,0:0:0:0:
256,192,27542,1,8,0:0:0:0:
256,192,27887,1,8,0:0:0:0:
256,192,28231,1,0,0:0:0:0:
256,192,28576,1,8,0:0:0:0:
256,192,29266,1,8,0:0:0:0:
256,192,29611,1,8,0:0:0:0:
256,192,29955,1,0,0:0:0:0:
256,192,30645,1,8,0:0:0:0:
256,192,30990,1,0,0:0:0:0:
256,192,31335,1,0,0:0:0:0:
256,192,32369,1,8,0:0:0:0:
256,192,32714,1,0,0:0:0:0:
256,192,33404,1,0,0:0:0:0:
256,192,33749,1,8,0:0:0:0:
256,192,34093,1,0,0:0:0:0:
256,192,34783,1,8,0:0:0:0:
256,192,35128,1,0,0:0:0:0:
256,192,35473,1,0,0:0:0:0:
256,192,36162,1,8,0:0:0:0:
256,192,36852,1,0,0:0:0:0:
256,192,37542,1,8,0:0:0:0:
256,192,38231,1,8,0:0:0:0:
256,192,38576,1,0,0:0:0:0:
256,192,38921,1,8,0:0:0:0:
256,192,39266,1,8,0:0:0:0:
256,192,39611,1,0,0:0:0:0:
256,192,40300,1,8,0:0:0:0:
256,192,40645,1,8,0:0:0:0:
256,192,40990,1,0,0:0:0:0:
256,192,41680,1,8,0:0:0:0:
256,192,42024,1,8,0:0:0:0:
256,192,42369,1,8,0:0:0:0:
256,192,43059,1,8,0:0:0:0:
256,192,43404,1,0,0:0:0:0:
256,192,43749,1,8,0:0:0:0:
256,192,44093,1,0,0:0:0:0:
256,192,44438,1,8,0:0:0:0:
256,192,44611,1,8,0:0:0:0:
256,192,44783,1,8,0:0:0:0:
256,192,45128,1,4,0:0:0:0:
256,192,45818,5,8,0:0:0:0:
256,192,46162,1,0,0:0:0:0:
256,192,46507,1,0,0:0:0:0:
256,192,46852,1,0,0:0:0:0:
256,192,47197,1,8,0:0:0:0:
256,192,47542,1,8,0:0:0:0:
256,192,47887,1,0,0:0:0:0:
256,192,48576,1,8,0:0:0:0:
256,192,48921,1,0,0:0:0:0:
256,192,49266,1,0,0:0:0:0:
256,192,49611,1,8,0:0:0:0:
256,192,49955,1,8,0:0:0:0:
256,192,50300,1,0,0:0:0:0:
256,192,50645,1,8,0:0:0:0:
256,192,50990,1,8,0:0:0:0:
256,192,51162,1,8,0:0:0:0:
256,192,51335,1,8,0:0:0:0:
256,192,51680,1,8,0:0:0:0:
256,192,52024,1,0,0:0:0:0:
256,192,52714,1,8,0:0:0:0:
256,192,53059,1,8,0:0:0:0:
256,192,53404,1,0,0:0:0:0:
256,192,54093,1,8,0:0:0:0:
256,192,54438,1,8,0:0:0:0:
256,192,54611,1,8,0:0:0:0:
256,192,54783,1,8,0:0:0:0:
256,192,55128,1,0,0:0:0:0:
256,192,55300,1,8,0:0:0:0:
256,192,55818,1,0,0:0:0:0:
256,192,56162,1,8,0:0:0:0:
256,192,56507,1,0,0:0:0:0:
256,192,56852,1,8,0:0:0:0:
256,192,57197,1,0,0:0:0:0:
256,192,57542,1,0,0:0:0:0:
256,192,58231,1,8,0:0:0:0:
256,192,58576,1,8,0:0:0:0:
256,192,58921,1,0,0:0:0:0:
256,192,59611,1,8,0:0:0:0:
256,192,60128,1,0,0:0:0:0:
256,192,60300,1,0,0:0:0:0:
256,192,60645,1,0,0:0:0:0:
256,192,60990,1,8,0:0:0:0:
256,192,61335,1,8,0:0:0:0:
256,192,61680,1,0,0:0:0:0:
256,192,62024,1,0,0:0:0:0:
256,192,62369,1,8,0:0:0:0:
256,192,62714,1,8,0:0:0:0:
256,192,63059,1,0,0:0:0:0:
256,192,63749,1,8,0:0:0:0:
256,192,64093,1,8,0:0:0:0:
256,192,64266,1,8,0:0:0:0:
256,192,64438,1,0,0:0:0:0:
256,192,64783,1,0,0:0:0:0:
256,192,65128,1,8,0:0:0:0:
256,192,65473,1,0,0:0:0:0:
256,192,65645,1,8,0:0:0:0:
256,192,66162,1,0,0:0:0:0:
256,192,66507,1,8,0:0:0:0:
256,192,66680,1,8,0:0:0:0:
256,192,66852,1,8,0:0:0:0:
256,192,67197,5,4,0:0:0:0:
256,192,67542,1,8,0:0:0:0:
256,192,67714,1,0,0:0:0:0:
256,192,68231,1,12,0:0:0:0:
256,192,68921,1,0,0:0:0:0:
256,192,69266,1,8,0:0:0:0:
256,192,69611,1,0,0:0:0:0:
256,192,69955,1,4,0:0:0:0:
256,192,70300,1,8,0:0:0:0:
256,192,70473,1,0,0:0:0:0:
256,192,70990,1,12,0:0:0:0:
256,192,71680,1,8,0:0:0:0:
256,192,72024,1,0,0:0:0:0:
256,192,72197,1,0,0:0:0:0:
256,192,72369,1,0,0:0:0:0:
256,192,72714,1,4,0:0:0:0:
256,192,73404,5,8,0:0:0:0:
256,192,73749,1,0,0:0:0:0:
256,192,74093,1,8,0:0:0:0:
256,192,74438,1,0,0:0:0:0:
256,192,74611,1,0,0:0:0:0:
256,192,74783,1,8,0:0:0:0:
256,192,75128,1,0,0:0:0:0:
256,192,75473,1,12,0:0:0:0:
256,192,77197,1,0,0:0:0:0:
256,192,77542,1,8,0:0:0:0:
256,192,77714,1,0,0:0:0:0:
256,192,77887,1,0,0:0:0:0:
256,192,78231,5,4,0:0:0:0:
256,192,78576,1,8,0:0:0:0:
256,192,78749,1,0,0:0:0:0:
256,192,79093,1,0,0:0:0:0:
256,192,79438,1,8,0:0:0:0:
256,192,80300,1,8,0:0:0:0:
256,192,80645,1,0,0:0:0:0:
256,192,80990,1,8,0:0:0:0:
256,192,81335,1,0,0:0:0:0:
256,192,81507,1,8,0:0:0:0:
256,192,82024,1,8,0:0:0:0:
256,192,82197,1,8,0:0:0:0:
256,192,82369,1,0,0:0:0:0:
256,192,82714,1,0,0:0:0:0:
256,192,83059,1,8,0:0:0:0:
256,192,83749,5,0,0:0:0:0:
256,192,84093,1,0,0:0:0:0:
256,192,84266,1,0,0:0:0:0:
256,192,84611,1,8,0:0:0:0:
256,192,84955,1,0,0:0:0:0:
256,192,85818,1,8,0:0:0:0:
256,192,86162,1,0,0:0:0:0:
256,192,86507,1,0,0:0:0:0:
256,192,86852,1,8,0:0:0:0:
256,192,87024,1,8,0:0:0:0:
256,192,87369,1,0,0:0:0:0:
256,192,87714,1,8,0:0:0:0:
256,192,88576,5,8,0:0:0:0:
256,192,88921,1,8,0:0:0:0:
256,192,89266,1,4,0:0:0:0:
256,192,89611,1,0,0:0:0:0:
256,192,89783,1,0,0:0:0:0:
256,192,90128,1,8,0:0:0:0:
256,192,90473,1,0,0:0:0:0:
256,192,91335,1,0,0:0:0:0:
256,192,91507,1,0,0:0:0:0:
256,192,91680,1,0,0:0:0:0:
256,192,92024,1,8,0:0:0:0:
256,192,92369,1,0,0:0:0:0:
256,192,92542,1,8,0:0:0:0:
256,192,92887,1,0,0:0:0:0:
256,192,93231,1,8,0:0:0:0:
256,192,93404,1,0,0:0:0:0:
256,192,93749,1,0,0:0:0:0:
256,192,94093,1,8,0:0:0:0:
256,192,94783,5,0,0:0:0:0:
256,192,95128,1,8,0:0:0:0:
256,192,95300,1,8,0:0:0:0:
256,192,95645,1,0,0:0:0:0:
256,192,95990,1,8,0:0:0:0:
256,192,96852,1,8,0:0:0:0:
256,192,97024,1,8,0:0:0:0:
256,192,97197,1,8,0:0:0:0:
256,192,97542,1,0,0:0:0:0:
256,192,97887,1,8,0:0:0:0:
256,192,98059,1,0,0:0:0:0:
256,192,98404,1,0,0:0:0:0:
256,192,98749,1,8,0:0:0:0:
256,192,99438,1,0,0:0:0:0:
256,192,99611,1,8,0:0:0:0:
256,192,99955,1,0,0:0:0:0:
256,192,100300,1,12,0:0:0:0:
256,192,100990,5,8,0:0:0:0:
256,192,101335,1,0,0:0:0:0:
256,192,101507,1,0,0:0:0:0:
256,192,101680,1,8,0:0:0:0:
256,192,102024,1,0,0:0:0:0:
256,192,102369,1,8,0:0:0:0:
256,192,103059,1,8,0:0:0:0:
256,192,103404,1,0,0:0:0:0:
256,192,103749,1,8,0:0:0:0:
256,192,104093,1,0,0:0:0:0:
256,192,104266,1,0,0:0:0:0:
256,192,104438,1,8,0:0:0:0:
256,192,104955,1,0,0:0:0:0:
256,192,105128,1,8,0:0:0:0:
256,192,105473,1,0,0:0:0:0:
256,192,105818,1,8,0:0:0:0:
256,192,106507,5,8,0:0:0:0:
256,192,106852,1,8,0:0:0:0:
256,192,107024,1,0,0:0:0:0:
256,192,107197,1,8,0:0:0:0:
256,192,107542,1,0,0:0:0:0:
256,192,107887,1,8,0:0:0:0:
256,192,108576,1,8,0:0:0:0:
256,192,108921,1,0,0:0:0:0:
256,192,109266,1,8,0:0:0:0:
256,192,109611,1,8,0:0:0:0:
256,192,109783,1,0,0:0:0:0:
256,192,109955,1,8,0:0:0:0:
256,192,110473,1,0,0:0:0:0:
256,192,110645,1,8,0:0:0:0:
256,192,110990,1,0,0:0:0:0:
256,192,111335,1,12,0:0:0:0:
256,192,112024,5,8,0:0:0:0:
256,192,112369,1,0,0:0:0:0:
256,192,112542,1,0,0:0:0:0:
256,192,112714,1,8,0:0:0:0:
256,192,113059,1,0,0:0:0:0:
256,192,113404,1,8,0:0:0:0:
256,192,114093,1,8,0:0:0:0:
256,192,114438,1,0,0:0:0:0:
256,192,114783,1,8,0:0:0:0:
256,192,115128,1,0,0:0:0:0:
256,192,115300,1,0,0:0:0:0:
256,192,115473,1,8,0:0:0:0:
256,192,115818,1,0,0:0:0:0:
256,192,116162,1,8,0:0:0:0:
256,192,116852,1,0,0:0:0:0:
256,192,117542,5,8,0:0:0:0:
256,192,117887,1,8,0:0:0:0:
256,192,118059,1,0,0:0:0:0:
256,192,118231,1,8,0:0:0:0:
256,192,118576,1,0,0:0:0:0:
256,192,118921,1,8,0:0:0:0:
256,192,119611,1,8,0:0:0:0:
256,192,119955,1,0,0:0:0:0:
256,192,120300,1,8,0:0:0:0:
256,192,120645,1,8,0:0:0:0:
256,192,120818,1,0,0:0:0:0:
256,192,120990,1,8,0:0:0:0:
256,192,121335,1,0,0:0:0:0:
256,192,121680,1,8,0:0:0:0:
256,192,121852,1,8,0:0:0:0:
256,192,122024,1,8,0:0:0:0:
256,192,122369,1,4,0:0:0:0:
256,192,123059,5,8,0:0:0:0:
256,192,123404,1,8,0:0:0:0:
256,192,123576,1,8,0:0:0:0:
256,192,123749,1,0,0:0:0:0:
256,192,124093,1,0,0:0:0:0:
256,192,124438,1,8,0:0:0:0:
256,192,125128,1,8,0:0:0:0:
256,192,125473,1,0,0:0:0:0:
256,192,125818,1,8,0:0:0:0:
256,192,126162,1,8,0:0:0:0:
256,192,126335,1,8,0:0:0:0:
256,192,126507,1,0,0:0:0:0:
256,192,126852,1,0,0:0:0:0:
256,192,127197,1,8,0:0:0:0:
256,192,127887,1,0,0:0:0:0:
256,192,128576,5,8,0:0:0:0:
256,192,128921,1,0,0:0:0:0:
256,192,129093,1,0,0:0:0:0:
256,192,129266,1,8,0:0:0:0:
256,192,129611,1,0,0:0:0:0:
256,192,129955,1,8,0:0:0:0:
256,192,130645,1,8,0:0:0:0:
256,192,130990,1,0,0:0:0:0:
256,192,131335,1,8,0:0:0:0:
256,192,131680,1,0,0:0:0:0:
256,192,131852,1,0,0:0:0:0:
256,192,132024,1,8,0:0:0:0:
256,192,132369,1,0,0:0:0:0:
256,192,132714,1,8,0:0:0:0:
256,192,133059,1,8,0:0:0:0:
256,192,133404,1,4,0:0:0:0:
256,192,134093,5,8,0:0:0:0:
256,192,134438,1,8,0:0:0:0:
256,192,134611,1,0,0:0:0:0:
256,192,134783,1,8,0:0:0:0:
256,192,135128,1,0,0:0:0:0:
256,192,135473,1,8,0:0:0:0:
256,192,136162,1,8,0:0:0:0:
256,192,136507,1,0,0:0:0:0:
256,192,136852,1,8,0:0:0:0:
256,192,137197,1,8,0:0:0:0:
256,192,137369,1,8,0:0:0:0:
256,192,137542,1,0,0:0:0:0:
256,192,137887,1,0,0:0:0:0:
256,192,138231,1,8,0:0:0:0:
256,192,138921,1,12,0:0:0:0:
256,192,139266,12,0,145818,0:0:0:0:
