osu file format v14

[General]
AudioFilename: audio.mp3
AudioLeadIn: 0
PreviewTime: 47616
Countdown: 0
SampleSet: Normal
StackLeniency: 0.7
Mode: 1
LetterboxInBreaks: 0
WidescreenStoryboard: 1

[Editor]
Bookmarks: 5366,10699,16032,21366,26699,32032,37366,48032,58699,69366,80032,92032,102699,114699,124032
DistanceSpacing: 1.7
BeatDivisor: 4
GridSize: 32
TimelineZoom: 2.450003

[Metadata]
Title:Ki ga Kurutta Noise
TitleUnicode:気が狂ったノイズ
Artist:Kuki Akumu
ArtistUnicode:茎悪夢
Creator:gaston_2199
Version:Oni
Source:
Tags:pm04034 ruiditos locos electronic instrumental chiptune 8-bit 8bit retro pixel
BeatmapID:2573449
BeatmapSetID:1237796

[Difficulty]
HPDrainRate:5
CircleSize:2
OverallDifficulty:6
ApproachRate:10
SliderMultiplier:1.4
SliderTickRate:1

[Events]
//Background and Video events
0,0,"BG.png",0,0
//Break Periods
//Storyboard Layer 0 (Background)
//Storyboard Layer 1 (Fail)
//Storyboard Layer 2 (Pass)
//Storyboard Layer 3 (Foreground)
//Storyboard Layer 4 (Overlay)
//Storyboard Sound Samples

[TimingPoints]
33,333.333333333333,4,1,0,80,1,0
366,-125,4,1,0,60,0,0
5366,-100,4,1,0,80,0,0
15699,-90.9090909090909,4,1,0,80,0,0
16032,-100,4,1,0,80,0,0
37032,-111.111111111111,4,1,0,80,0,0
37366,-125,4,1,0,70,0,0
42699,-100,4,1,0,80,0,0
46699,-101.449275362319,4,1,0,80,0,0
46782,-102.941176470588,4,1,0,80,0,0
46949,-104.477611940299,4,1,0,80,0,0
47116,-106.060606060606,4,1,0,80,0,0
47282,-107.692307692308,4,1,0,80,0,0
47366,-109.375,4,1,0,80,0,0
47532,-111.111111111111,4,1,0,80,0,0
48032,-100,4,1,0,90,0,1
68366,-102.040816326531,4,1,0,90,0,1
68532,-103.092783505155,4,1,0,90,0,1
68699,-105.263157894737,4,1,0,90,0,1
69032,-107.52688172043,4,1,0,90,0,1
69116,-108.695652173913,4,1,0,90,0,1
69199,-109.89010989011,4,1,0,90,0,1
69366,-111.111111111111,4,1,0,70,0,0
80032,-100,4,1,0,80,0,0
86699,-110.983356935794,4,1,0,70,0,0
90032,-133.333333333333,4,1,0,70,0,0
90699,-100,4,1,0,70,0,0
92032,-133.333333333333,4,1,0,60,0,0
102699,-111.111111111111,4,1,0,70,0,0
113032,-90.9090909090909,4,1,0,80,0,0
113366,-111.111111111111,4,1,0,70,0,0
114699,-100,4,1,0,90,0,1
132532,-99.4764397905759,4,1,0,90,0,1
132699,-98.9583333333333,4,1,0,90,0,1
132782,-98.4455958549223,4,1,0,90,0,1
132866,-97.9381443298969,4,1,0,90,0,1
133032,-97.4358974358974,4,1,0,90,0,1
133199,-96.9387755102041,4,1,0,90,0,1
133366,-96.4467005076142,4,1,0,90,0,1
133532,-95.9595959595959,4,1,0,90,0,1
133616,-95.4773869346733,4,1,0,90,0,1
133699,-95,4,1,0,90,0,1
133866,-94.5273631840796,4,1,0,90,0,1
134032,-94.0594059405941,4,1,0,90,0,1
134116,-93.5960591133005,4,1,0,90,0,1
134199,-93.1372549019608,4,1,0,90,0,1
134282,-92.6829268292683,4,1,0,90,0,1
134366,-92.2330097087379,4,1,0,90,0,1
134449,-91.7874396135266,4,1,0,90,0,1
134532,-91.3461538461538,4,1,0,90,0,1
134699,-90.9090909090909,4,1,0,90,0,0
135032,-83.3333333333333,4,1,0,90,0,1
137032,-83.3333333333333,4,1,0,80,0,0
137699,-100,4,1,0,80,0,0
137866,-101.694915254237,4,1,0,80,0,0
137949,-103.448275862069,4,1,0,80,0,0
138032,-105.263157894737,4,1,0,80,0,0
138116,-107.142857142857,4,1,0,80,0,0
138199,-109.090909090909,4,1,0,80,0,0
138282,-111.111111111111,4,1,0,80,0,0

[HitObjects]
320,0,33,5,4,0:0:0:0:
256,192,366,1,8,0:0:0:0:
256,192,699,1,8,0:0:0:0:
256,192,1032,1,8,0:0:0:0:
256,192,1366,1,8,0:0:0:0:
224,224,1699,1,8,0:0:0:0:
224,224,2032,1,8,0:0:0:0:
224,224,2366,1,8,0:0:0:0:
256,192,2699,1,0,0:0:0:0:
256,192,3032,1,8,0:0:0:0:
256,192,3366,1,0,0:0:0:0:
256,192,3699,1,8,0:0:0:0:
256,192,4032,1,0,0:0:0:0:
224,224,4366,1,8,0:0:0:0:
224,224,4699,1,0,0:0:0:0:
256,192,5032,5,0,0:0:0:0:
180,114,5199,1,8,0:0:0:0:
256,160,5366,1,4,0:0:0:0:
256,160,5699,1,8,0:0:0:0:
220,121,5866,1,8,0:0:0:0:
220,121,6032,1,0,0:0:0:0:
256,96,6199,1,8,0:0:0:0:
220,121,6366,1,0,0:0:0:0:
256,96,6699,1,8,0:0:0:0:
220,121,6866,1,0,0:0:0:0:
256,96,7032,1,8,0:0:0:0:
256,96,7199,1,8,0:0:0:0:
256,96,7282,1,8,0:0:0:0:
220,121,7366,1,0,0:0:0:0:
220,121,7532,1,0,0:0:0:0:
256,96,7699,1,8,0:0:0:0:
220,121,7866,1,8,0:0:0:0:
220,121,8032,1,0,0:0:0:0:
220,121,8366,1,8,0:0:0:0:
220,121,8532,1,8,0:0:0:0:
220,121,8699,1,0,0:0:0:0:
256,96,8866,1,8,0:0:0:0:
256,128,9032,1,0,0:0:0:0:
256,128,9366,1,0,0:0:0:0:
245,96,9532,1,8,0:0:0:0:
245,96,9699,1,0,0:0:0:0:
256,128,9782,1,0,0:0:0:0:
256,128,9866,1,0,0:0:0:0:
256,128,10032,1,8,0:0:0:0:
235,113,10199,1,0,0:0:0:0:
256,128,10366,1,8,0:0:0:0:
256,128,10532,1,8,0:0:0:0:
256,160,10699,1,4,0:0:0:0:
256,160,11032,1,8,0:0:0:0:
220,121,11199,1,8,0:0:0:0:
220,121,11366,1,0,0:0:0:0:
256,96,11532,1,8,0:0:0:0:
220,121,11699,1,8,0:0:0:0:
256,96,12032,1,8,0:0:0:0:
220,121,12199,1,0,0:0:0:0:
256,96,12366,1,8,0:0:0:0:
256,96,12532,1,8,0:0:0:0:
256,96,12616,1,8,0:0:0:0:
220,121,12699,1,0,0:0:0:0:
220,121,12866,1,0,0:0:0:0:
256,96,13032,1,8,0:0:0:0:
220,121,13199,1,8,0:0:0:0:
220,121,13366,1,0,0:0:0:0:
220,121,13699,1,8,0:0:0:0:
220,121,13866,1,8,0:0:0:0:
220,121,14032,1,0,0:0:0:0:
256,96,14199,1,8,0:0:0:0:
256,128,14366,1,8,0:0:0:0:
256,128,14699,1,8,0:0:0:0:
245,96,14866,1,0,0:0:0:0:
245,96,15032,1,8,0:0:0:0:
256,128,15116,1,0,0:0:0:0:
256,128,15199,1,0,0:0:0:0:
256,128,15366,1,8,0:0:0:0:
235,113,15532,1,0,0:0:0:0:
256,128,15699,1,12,0:0:0:0:
256,160,16032,5,4,0:0:0:0:
256,192,16366,5,8,0:0:0:0:
256,192,16532,1,0,0:0:0:0:
256,192,16699,1,0,0:0:0:0:
256,192,17032,1,8,0:0:0:0:
256,128,17199,1,0,0:0:0:0:
256,128,17366,1,8,0:0:0:0:
256,128,17699,1,8,0:0:0:0:
256,128,17782,1,0,0:0:0:0:
256,128,17866,1,8,0:0:0:0:
256,128,18032,1,8,0:0:0:0:
236,106,18199,1,0,0:0:0:0:
256,128,18366,1,8,0:0:0:0:
266,121,18449,1,8,0:0:0:0:
256,128,18532,1,0,0:0:0:0:
256,160,18699,1,8,0:0:0:0:
288,96,19032,1,8,0:0:0:0:
256,160,19199,1,0,0:0:0:0:
256,160,19366,1,8,0:0:0:0:
256,160,19699,1,8,0:0:0:0:
256,160,19866,1,8,0:0:0:0:
288,128,20032,1,8,0:0:0:0:
256,64,20366,1,8,0:0:0:0:
256,64,20532,1,0,0:0:0:0:
188,61,20616,1,0,0:0:0:0:
256,64,20699,1,8,0:0:0:0:
256,64,20866,1,0,0:0:0:0:
256,64,21032,1,8,0:0:0:0:
256,64,21116,1,0,0:0:0:0:
256,64,21199,1,8,0:0:0:0:
256,160,21366,5,0,0:0:0:0:
256,192,21699,5,8,0:0:0:0:
256,192,21866,1,0,0:0:0:0:
256,192,22032,1,0,0:0:0:0:
256,192,22366,1,8,0:0:0:0:
256,128,22532,1,0,0:0:0:0:
253,117,22699,1,8,0:0:0:0:
256,128,23032,1,8,0:0:0:0:
256,128,23116,1,0,0:0:0:0:
256,128,23199,1,8,0:0:0:0:
256,128,23366,1,8,0:0:0:0:
256,128,23532,1,0,0:0:0:0:
256,128,23699,1,8,0:0:0:0:
266,121,23782,1,8,0:0:0:0:
256,128,23866,1,0,0:0:0:0:
256,160,24032,1,8,0:0:0:0:
288,96,24366,1,8,0:0:0:0:
256,160,24532,1,0,0:0:0:0:
256,160,24699,1,8,0:0:0:0:
256,160,25032,1,8,0:0:0:0:
241,138,25199,1,8,0:0:0:0:
288,128,25366,1,8,0:0:0:0:
256,64,25699,1,8,0:0:0:0:
256,64,25782,1,0,0:0:0:0:
256,64,25866,1,8,0:0:0:0:
201,54,25949,1,8,0:0:0:0:
256,64,26032,1,0,0:0:0:0:
256,64,26199,1,8,0:0:0:0:
256,64,26366,1,8,0:0:0:0:
256,64,26449,1,0,0:0:0:0:
256,64,26532,1,8,0:0:0:0:
254,183,26699,5,4,0:0:0:0:
254,215,27032,5,8,0:0:0:0:
254,215,27199,1,0,0:0:0:0:
254,215,27366,1,0,0:0:0:0:
254,215,27699,1,8,0:0:0:0:
236,148,27866,1,0,0:0:0:0:
254,151,28032,1,8,0:0:0:0:
197,78,28199,1,0,0:0:0:0:
254,151,28366,1,8,0:0:0:0:
254,151,28449,1,0,0:0:0:0:
254,151,28532,1,8,0:0:0:0:
254,151,28699,1,8,0:0:0:0:
234,129,28866,1,0,0:0:0:0:
254,151,29032,1,8,0:0:0:0:
264,144,29116,1,8,0:0:0:0:
254,151,29199,1,0,0:0:0:0:
254,183,29366,1,8,0:0:0:0:
286,119,29699,1,8,0:0:0:0:
254,183,29866,1,0,0:0:0:0:
254,183,30032,1,8,0:0:0:0:
254,183,30366,1,8,0:0:0:0:
254,183,30532,1,8,0:0:0:0:
286,151,30699,1,8,0:0:0:0:
286,151,30866,1,0,0:0:0:0:
254,87,31032,1,8,0:0:0:0:
254,87,31199,1,0,0:0:0:0:
186,84,31282,1,0,0:0:0:0:
254,87,31366,1,8,0:0:0:0:
254,87,31532,1,0,0:0:0:0:
254,87,31699,1,8,0:0:0:0:
254,87,31782,1,0,0:0:0:0:
254,87,31866,1,8,0:0:0:0:
254,183,32032,5,0,0:0:0:0:
254,215,32366,5,8,0:0:0:0:
254,215,32532,1,0,0:0:0:0:
254,215,32699,1,0,0:0:0:0:
254,215,33032,1,8,0:0:0:0:
254,151,33199,1,0,0:0:0:0:
251,140,33366,1,8,0:0:0:0:
254,151,33532,1,0,0:0:0:0:
254,151,33699,1,8,0:0:0:0:
254,151,33782,1,0,0:0:0:0:
254,151,33866,1,8,0:0:0:0:
254,151,34032,1,8,0:0:0:0:
254,151,34199,1,0,0:0:0:0:
254,151,34366,1,8,0:0:0:0:
264,144,34449,1,8,0:0:0:0:
254,151,34532,1,0,0:0:0:0:
254,183,34699,1,8,0:0:0:0:
286,119,35032,1,8,0:0:0:0:
254,183,35199,1,0,0:0:0:0:
254,183,35366,1,8,0:0:0:0:
254,183,35699,1,8,0:0:0:0:
239,161,35866,1,8,0:0:0:0:
286,151,36032,1,8,0:0:0:0:
286,151,36199,1,0,0:0:0:0:
254,87,36366,1,8,0:0:0:0:
254,87,36449,1,0,0:0:0:0:
254,87,36532,1,8,0:0:0:0:
254,87,36699,1,8,0:0:0:0:
254,87,37032,5,0,0:0:0:0:
254,183,37366,5,4,0:0:0:0:
256,64,38366,1,0,0:0:0:0:
256,64,38699,1,12,0:0:0:0:
256,63,39699,1,8,0:0:0:0:
313,29,40032,1,0,0:0:0:0:
313,29,41032,1,0,0:0:0:0:
313,29,41366,1,12,0:0:0:0:
289,169,42699,1,4,0:0:0:0:
293,156,43032,1,8,0:0:0:0:
292,149,43199,1,0,0:0:0:0:
291,145,43282,1,0,0:0:0:0:
293,156,43366,1,0,0:0:0:0:
291,149,43532,1,0,0:0:0:0:
293,156,43699,1,8,0:0:0:0:
293,156,44032,1,0,0:0:0:0:
293,156,44366,1,8,0:0:0:0:
292,150,44532,1,0,0:0:0:0:
291,146,44616,1,8,0:0:0:0:
293,156,44699,1,0,0:0:0:0:
292,150,44866,1,0,0:0:0:0:
293,156,45032,1,8,0:0:0:0:
293,156,45366,1,0,0:0:0:0:
293,156,45699,1,8,0:0:0:0:
292,149,45866,1,8,0:0:0:0:
291,147,45949,1,8,0:0:0:0:
293,156,46032,1,0,0:0:0:0:
292,150,46199,1,0,0:0:0:0:
293,156,46366,1,8,0:0:0:0:
293,156,46699,1,0,0:0:0:0:
293,156,46782,1,0,0:0:0:0:
296,154,46949,1,8,0:0:0:0:
293,156,47116,1,0,0:0:0:0:
293,156,47282,1,0,0:0:0:0:
293,156,47366,1,0,0:0:0:0:
293,156,47532,1,8,0:0:0:0:
296,154,48032,1,4,0:0:0:0:
293,149,48199,1,0,0:0:0:0:
287,141,48366,1,8,0:0:0:0:
283,135,48532,1,0,0:0:0:0:
280,130,48699,1,8,0:0:0:0:
280,130,49032,1,0,0:0:0:0:
280,130,49116,1,8,0:0:0:0:
280,130,49199,1,0,0:0:0:0:
280,130,49366,1,8,0:0:0:0:
280,130,49532,1,0,0:0:0:0:
280,130,49699,1,8,0:0:0:0:
262,100,49782,1,0,0:0:0:0:
280,130,49866,1,8,0:0:0:0:
280,130,49949,1,8,0:0:0:0:
280,130,50032,1,0,0:0:0:0:
280,130,50199,1,0,0:0:0:0:
280,130,50366,1,8,0:0:0:0:
280,130,50532,1,0,0:0:0:0:
280,130,50699,1,8,0:0:0:0:
280,130,51032,1,8,0:0:0:0:
280,130,51199,1,0,0:0:0:0:
280,130,51366,1,8,0:0:0:0:
280,130,51449,1,0,0:0:0:0:
280,130,51532,1,0,0:0:0:0:
280,130,51699,1,8,0:0:0:0:
280,130,51866,1,0,0:0:0:0:
280,130,52032,1,8,0:0:0:0:
280,130,52199,1,0,0:0:0:0:
280,130,52282,1,0,0:0:0:0:
280,130,52366,1,8,0:0:0:0:
290,28,52532,1,0,0:0:0:0:
281,111,52866,1,0,0:0:0:0:
282,104,53032,1,8,0:0:0:0:
130,148,53199,1,8,0:0:0:0:
284,91,53366,1,0,0:0:0:0:
285,85,53532,1,0,0:0:0:0:
285,85,53699,1,8,0:0:0:0:
285,85,53866,1,8,0:0:0:0:
285,85,54032,1,0,0:0:0:0:
285,85,54366,1,0,0:0:0:0:
285,85,54449,1,8,0:0:0:0:
285,85,54532,1,0,0:0:0:0:
285,85,54699,1,8,0:0:0:0:
285,85,54866,1,0,0:0:0:0:
285,85,55032,1,8,0:0:0:0:
285,85,55116,1,0,0:0:0:0:
285,85,55199,1,8,0:0:0:0:
285,85,55366,1,0,0:0:0:0:
285,85,55699,1,8,0:0:0:0:
285,85,55866,1,0,0:0:0:0:
285,85,56032,1,8,0:0:0:0:
285,85,56116,1,0,0:0:0:0:
285,85,56199,1,0,0:0:0:0:
285,85,56366,1,8,0:0:0:0:
285,85,56532,1,0,0:0:0:0:
285,85,56699,1,8,0:0:0:0:
285,85,56782,1,0,0:0:0:0:
285,85,56866,1,0,0:0:0:0:
285,85,57032,1,8,0:0:0:0:
285,85,57366,1,8,0:0:0:0:
285,85,57532,1,0,0:0:0:0:
285,85,57616,1,0,0:0:0:0:
285,85,57699,1,8,0:0:0:0:
285,85,57866,1,0,0:0:0:0:
285,85,58032,1,8,0:0:0:0:
285,85,58199,1,0,0:0:0:0:
285,85,58366,1,8,0:0:0:0:
285,85,58449,1,8,0:0:0:0:
285,85,58532,1,8,0:0:0:0:
296,154,58699,1,4,0:0:0:0:
293,149,58866,1,0,0:0:0:0:
287,141,59032,1,8,0:0:0:0:
283,135,59199,1,0,0:0:0:0:
280,130,59366,1,8,0:0:0:0:
280,130,59699,1,0,0:0:0:0:
280,130,59782,1,8,0:0:0:0:
280,130,59866,1,0,0:0:0:0:
280,130,60032,1,8,0:0:0:0:
280,130,60199,1,0,0:0:0:0:
280,130,60366,1,8,0:0:0:0:
258,92,60449,1,0,0:0:0:0:
280,130,60532,1,8,0:0:0:0:
280,130,60616,1,8,0:0:0:0:
280,130,60699,1,0,0:0:0:0:
280,130,60866,1,0,0:0:0:0:
280,130,61032,1,8,0:0:0:0:
280,130,61199,1,0,0:0:0:0:
280,130,61366,1,8,0:0:0:0:
280,130,61699,1,8,0:0:0:0:
280,130,61866,1,0,0:0:0:0:
280,130,62032,1,8,0:0:0:0:
280,130,62116,1,0,0:0:0:0:
280,130,62199,1,0,0:0:0:0:
280,130,62366,1,8,0:0:0:0:
280,130,62532,1,0,0:0:0:0:
280,130,62699,1,8,0:0:0:0:
280,130,62866,1,0,0:0:0:0:
280,130,62949,1,0,0:0:0:0:
280,130,63032,1,8,0:0:0:0:
281,111,63532,1,0,0:0:0:0:
282,104,63699,1,8,0:0:0:0:
130,148,63866,1,8,0:0:0:0:
284,91,64032,1,0,0:0:0:0:
285,85,64199,1,0,0:0:0:0:
285,85,64366,1,8,0:0:0:0:
285,85,64532,1,8,0:0:0:0:
285,85,64699,1,0,0:0:0:0:
285,85,65032,1,0,0:0:0:0:
285,85,65116,1,8,0:0:0:0:
285,85,65199,1,0,0:0:0:0:
285,85,65366,1,8,0:0:0:0:
285,85,65532,1,0,0:0:0:0:
285,85,65699,1,8,0:0:0:0:
285,85,65782,1,0,0:0:0:0:
285,85,65866,1,8,0:0:0:0:
285,85,66032,1,0,0:0:0:0:
285,85,66366,1,8,0:0:0:0:
285,85,66532,1,0,0:0:0:0:
285,85,66699,1,8,0:0:0:0:
285,85,66782,1,0,0:0:0:0:
285,85,66866,1,0,0:0:0:0:
285,85,67032,1,8,0:0:0:0:
285,85,67199,1,0,0:0:0:0:
285,85,67366,1,8,0:0:0:0:
285,85,67449,1,0,0:0:0:0:
285,85,67532,1,0,0:0:0:0:
285,85,67699,1,8,0:0:0:0:
285,85,68032,1,8,0:0:0:0:
285,85,68366,1,8,0:0:0:0:
285,85,68532,1,0,0:0:0:0:
285,85,68699,1,8,0:0:0:0:
285,85,69032,1,8,0:0:0:0:
285,85,69116,1,8,0:0:0:0:
285,85,69199,1,8,0:0:0:0:
285,85,69366,1,4,0:0:0:0:
282,82,70032,1,8,0:0:0:0:
281,85,70255,1,0,0:0:0:0:
281,85,70477,1,0,0:0:0:0:
281,85,70699,1,8,0:0:0:0:
281,85,71366,1,8,0:0:0:0:
281,85,71699,1,0,0:0:0:0:
281,85,72032,1,8,0:0:0:0:
281,85,72699,1,0,0:0:0:0:
281,85,73366,1,8,0:0:0:0:
281,85,74699,1,0,0:0:0:0:
281,85,74921,1,0,0:0:0:0:
281,85,75144,1,8,0:0:0:0:
281,85,75366,1,0,0:0:0:0:
281,85,76032,1,8,0:0:0:0:
69,77,76366,1,0,0:0:0:0:
281,85,76699,1,8,0:0:0:0:
281,85,77366,1,0,0:0:0:0:
281,85,78699,1,8,0:0:0:0:
281,85,80032,1,4,0:0:0:0:
287,91,80255,1,0,0:0:0:0:
290,93,80366,1,8,0:0:0:0:
299,102,80699,1,8,0:0:0:0:
317,119,80921,1,0,0:0:0:0:
307,110,81032,1,8,0:0:0:0:
317,119,81366,1,8,0:0:0:0:
317,119,81477,1,0,0:0:0:0:
317,119,81588,1,0,0:0:0:0:
317,119,81699,1,8,0:0:0:0:
317,119,81921,1,8,0:0:0:0:
317,119,82032,1,8,0:0:0:0:
317,119,82255,1,8,0:0:0:0:
317,119,82477,1,8,0:0:0:0:
317,119,82699,1,0,0:0:0:0:
317,119,82921,1,0,0:0:0:0:
317,119,83032,1,8,0:0:0:0:
317,119,83366,1,8,0:0:0:0:
317,119,83588,1,0,0:0:0:0:
317,119,83699,1,8,0:0:0:0:
317,119,84032,1,8,0:0:0:0:
317,119,84144,1,0,0:0:0:0:
317,119,84255,1,0,0:0:0:0:
317,119,84366,1,8,0:0:0:0:
317,119,84588,1,8,0:0:0:0:
317,119,84699,1,8,0:0:0:0:
317,119,84921,1,8,0:0:0:0:
317,119,85144,1,8,0:0:0:0:
317,119,85366,1,4,0:0:0:0:
317,119,86699,1,0,0:0:0:0:
339,96,87366,1,0,0:0:0:0:
339,96,87588,1,8,0:0:0:0:
339,96,87810,1,0,0:0:0:0:
339,96,88032,1,8,0:0:0:0:
256,192,90032,12,0,90532,0:0:0:0:
339,96,90699,5,0,0:0:0:0:
339,96,90782,1,8,0:0:0:0:
309,255,92032,1,8,0:0:0:0:
309,255,93366,1,0,0:0:0:0:
309,255,94032,1,0,0:0:0:0:
309,255,94699,1,8,0:0:0:0:
309,255,96032,1,8,0:0:0:0:
309,255,97366,1,0,0:0:0:0:
309,255,98699,1,8,0:0:0:0:
309,255,100032,1,0,0:0:0:0:
309,255,100699,1,0,0:0:0:0:
309,255,101366,1,8,0:0:0:0:
309,255,102032,1,8,0:0:0:0:
309,255,102699,1,8,0:0:0:0:
289,169,102866,1,0,0:0:0:0:
309,255,103032,1,8,0:0:0:0:
309,255,103366,1,0,0:0:0:0:
302,238,103699,1,8,0:0:0:0:
99,173,104032,1,8,0:0:0:0:
156,88,104199,1,0,0:0:0:0:
295,221,104366,1,8,0:0:0:0:
295,221,104699,1,0,0:0:0:0:
295,221,105032,1,8,0:0:0:0:
95,171,105366,1,0,0:0:0:0:
197,197,105532,1,0,0:0:0:0:
295,221,105699,1,8,0:0:0:0:
95,171,106032,1,0,0:0:0:0:
295,221,106366,1,8,0:0:0:0:
95,171,106699,1,0,0:0:0:0:
187,194,106866,1,0,0:0:0:0:
295,221,107032,1,8,0:0:0:0:
295,221,107532,1,0,0:0:0:0:
295,221,107699,1,8,0:0:0:0:
295,221,108032,1,0,0:0:0:0:
276,110,108199,1,0,0:0:0:0:
295,221,108366,1,8,0:0:0:0:
295,221,108699,1,0,0:0:0:0:
295,221,109032,1,8,0:0:0:0:
96,172,109366,1,8,0:0:0:0:
96,172,109532,1,0,0:0:0:0:
295,221,109699,1,8,0:0:0:0:
295,221,110032,1,0,0:0:0:0:
295,221,110366,1,8,0:0:0:0:
98,172,110699,1,0,0:0:0:0:
197,197,110866,1,0,0:0:0:0:
295,221,111032,1,8,0:0:0:0:
98,172,111366,1,0,0:0:0:0:
295,221,111699,1,8,0:0:0:0:
98,172,112032,1,8,0:0:0:0:
279,125,112199,1,0,0:0:0:0:
295,221,112366,1,8,0:0:0:0:
295,221,112699,1,8,0:0:0:0:
295,221,112866,1,0,0:0:0:0:
295,221,113032,1,12,0:0:0:0:
295,221,113366,1,0,0:0:0:0:
306,152,114366,1,8,0:0:0:0:
306,152,114449,1,0,0:0:0:0:
306,152,114532,1,8,0:0:0:0:
267,264,114699,1,12,0:0:0:0:
280,130,114866,1,0,0:0:0:0:
280,130,115032,1,8,0:0:0:0:
256,90,115116,1,0,0:0:0:0:
280,130,115199,1,8,0:0:0:0:
280,130,115282,1,8,0:0:0:0:
280,130,115366,1,0,0:0:0:0:
280,130,115532,1,0,0:0:0:0:
280,130,115699,1,8,0:0:0:0:
280,130,115866,1,0,0:0:0:0:
280,130,116032,1,8,0:0:0:0:
280,130,116366,1,8,0:0:0:0:
280,130,116532,1,0,0:0:0:0:
280,130,116699,1,8,0:0:0:0:
280,130,116782,1,8,0:0:0:0:
276,127,116866,1,0,0:0:0:0:
280,130,117032,1,8,0:0:0:0:
280,130,117199,1,0,0:0:0:0:
280,130,117366,1,8,0:0:0:0:
280,130,117532,1,0,0:0:0:0:
280,130,117616,1,0,0:0:0:0:
280,130,117699,1,8,0:0:0:0:
289,43,117866,1,0,0:0:0:0:
281,111,118199,1,0,0:0:0:0:
282,104,118366,1,8,0:0:0:0:
130,148,118532,1,8,0:0:0:0:
284,91,118699,1,0,0:0:0:0:
285,85,118866,1,0,0:0:0:0:
285,85,119032,1,8,0:0:0:0:
285,85,119199,1,8,0:0:0:0:
285,85,119366,1,0,0:0:0:0:
285,85,119699,1,0,0:0:0:0:
285,85,119782,1,8,0:0:0:0:
285,85,119866,1,0,0:0:0:0:
285,85,120032,1,8,0:0:0:0:
285,85,120199,1,0,0:0:0:0:
285,85,120366,1,8,0:0:0:0:
285,85,120449,1,0,0:0:0:0:
285,85,120532,1,8,0:0:0:0:
285,85,120699,1,0,0:0:0:0:
285,85,121032,1,8,0:0:0:0:
285,85,121199,1,0,0:0:0:0:
285,85,121366,1,8,0:0:0:0:
285,85,121449,1,0,0:0:0:0:
285,85,121532,1,0,0:0:0:0:
285,85,121699,1,8,0:0:0:0:
285,85,121866,1,0,0:0:0:0:
285,85,122032,1,8,0:0:0:0:
285,85,122116,1,8,0:0:0:0:
285,85,122199,1,0,0:0:0:0:
285,85,122366,1,8,0:0:0:0:
285,85,122699,1,8,0:0:0:0:
285,85,122866,1,0,0:0:0:0:
285,85,122949,1,0,0:0:0:0:
285,85,123032,1,8,0:0:0:0:
285,85,123199,1,0,0:0:0:0:
285,85,123366,1,8,0:0:0:0:
285,85,123532,1,0,0:0:0:0:
285,85,123699,1,8,0:0:0:0:
285,85,123782,1,8,0:0:0:0:
285,85,123866,1,8,0:0:0:0:
296,154,124032,1,4,0:0:0:0:
293,149,124199,1,0,0:0:0:0:
287,141,124366,1,8,0:0:0:0:
283,135,124532,1,0,0:0:0:0:
280,130,124699,1,8,0:0:0:0:
280,130,125032,1,0,0:0:0:0:
280,130,125116,1,8,0:0:0:0:
280,130,125199,1,0,0:0:0:0:
280,130,125366,1,8,0:0:0:0:
280,130,125532,1,0,0:0:0:0:
280,130,125699,1,8,0:0:0:0:
258,92,125782,1,0,0:0:0:0:
280,130,125866,1,8,0:0:0:0:
280,130,125949,1,8,0:0:0:0:
280,130,126032,1,0,0:0:0:0:
280,130,126199,1,0,0:0:0:0:
280,130,126366,1,8,0:0:0:0:
280,130,126532,1,0,0:0:0:0:
280,130,126699,1,8,0:0:0:0:
280,130,127032,1,8,0:0:0:0:
280,130,127199,1,0,0:0:0:0:
280,130,127366,1,8,0:0:0:0:
280,130,127449,1,8,0:0:0:0:
272,80,127532,1,0,0:0:0:0:
280,130,127699,1,8,0:0:0:0:
280,130,127866,1,0,0:0:0:0:
280,130,128032,1,8,0:0:0:0:
280,130,128199,1,0,0:0:0:0:
280,130,128282,1,0,0:0:0:0:
272,110,128366,1,8,0:0:0:0:
154,135,128532,1,0,0:0:0:0:
281,111,128866,1,0,0:0:0:0:
282,104,129032,1,8,0:0:0:0:
130,148,129199,1,8,0:0:0:0:
284,91,129366,1,0,0:0:0:0:
285,85,129532,1,0,0:0:0:0:
285,85,129699,1,8,0:0:0:0:
285,85,129866,1,8,0:0:0:0:
285,85,130032,1,0,0:0:0:0:
285,85,130366,1,0,0:0:0:0:
285,85,130449,1,8,0:0:0:0:
285,85,130532,1,0,0:0:0:0:
285,85,130699,1,8,0:0:0:0:
285,85,130866,1,0,0:0:0:0:
285,85,131032,1,8,0:0:0:0:
285,85,131116,1,0,0:0:0:0:
285,85,131199,1,8,0:0:0:0:
285,85,131366,1,0,0:0:0:0:
285,85,131699,1,8,0:0:0:0:
285,85,131866,1,0,0:0:0:0:
285,85,132032,1,8,0:0:0:0:
285,85,132116,1,0,0:0:0:0:
285,85,132199,1,0,0:0:0:0:
285,85,132366,1,8,0:0:0:0:
285,85,132532,1,0,0:0:0:0:
285,85,132699,1,8,0:0:0:0:
285,85,132782,1,8,0:0:0:0:
285,85,132866,1,0,0:0:0:0:
285,85,133032,1,8,0:0:0:0:
285,85,133199,1,0,0:0:0:0:
285,85,133366,1,8,0:0:0:0:
285,85,133532,1,0,0:0:0:0:
285,85,133616,1,0,0:0:0:0:
285,85,133699,1,8,0:0:0:0:
235,90,133866,1,0,0:0:0:0:
235,90,134032,1,8,0:0:0:0:
235,90,134116,1,8,0:0:0:0:
285,85,134199,1,0,0:0:0:0:
285,85,134282,1,0,0:0:0:0:
285,85,134366,1,8,0:0:0:0:
253,146,134449,1,8,0:0:0:0:
285,85,134532,1,8,0:0:0:0:
285,85,134699,1,0,0:0:0:0:
285,85,135032,1,12,0:0:0:0:
285,85,135199,1,0,0:0:0:0:
285,85,135282,1,0,0:0:0:0:
285,85,135366,1,8,0:0:0:0:
285,85,135532,1,0,0:0:0:0:
285,85,135699,1,8,0:0:0:0:
285,85,135866,1,0,0:0:0:0:
285,85,135949,1,0,0:0:0:0:
285,85,136032,1,8,0:0:0:0:
285,85,136199,1,0,0:0:0:0:
285,85,136366,1,8,0:0:0:0:
285,85,136449,1,8,0:0:0:0:
285,85,136532,1,8,0:0:0:0:
285,85,136616,1,8,0:0:0:0:
285,85,136699,1,0,0:0:0:0:
285,85,136866,1,8,0:0:0:0:
285,85,137032,1,0,0:0:0:0:
285,85,137699,1,12,0:0:0:0:
285,85,137866,1,8,0:0:0:0:
285,85,137949,1,8,0:0:0:0:
285,85,138032,1,0,0:0:0:0:
285,85,138116,1,0,0:0:0:0:
285,85,138199,1,0,0:0:0:0:
285,85,138282,1,0,0:0:0:0:
