osu file format v14

[General]
AudioFilename: audio.mp3
AudioLeadIn: 0
PreviewTime: 47616
Countdown: 0
SampleSet: Normal
StackLeniency: 0.7
Mode: 1
LetterboxInBreaks: 0
WidescreenStoryboard: 1

[Editor]
Bookmarks: 5366,10699,16032,21366,26699,32032,37366,48032,58699,69366,80032,92032,102699,114699,124032
DistanceSpacing: 1.7
BeatDivisor: 4
GridSize: 32
TimelineZoom: 0.950003

[Metadata]
Title:Ki ga Kurutta Noise
TitleUnicode:気が狂ったノイズ
Artist:Kuki Akumu
ArtistUnicode:茎悪夢
Creator:gaston_2199
Version:Kantan
Source:
Tags:pm04034 ruiditos locos electronic instrumental chiptune 8-bit 8bit retro pixel
BeatmapID:2573447
BeatmapSetID:1237796

[Difficulty]
HPDrainRate:8
CircleSize:2
OverallDifficulty:3
ApproachRate:10
SliderMultiplier:1.4
SliderTickRate:1

[Events]
//Background and Video events
0,0,"BG.png",0,0
//Break Periods
//Storyboard Layer 0 (Background)
//Storyboard Layer 1 (Fail)
//Storyboard Layer 2 (Pass)
//Storyboard Layer 3 (Foreground)
//Storyboard Layer 4 (Overlay)
//Storyboard Sound Samples

[TimingPoints]
33,333.333333333333,4,1,0,80,1,0
366,-100,4,1,0,60,0,0
5366,-100,4,1,0,80,0,0
37366,-100,4,1,0,70,0,0
42699,-100,4,1,0,80,0,0
48032,-100,4,1,0,90,0,1
69366,-100,4,1,0,70,0,0
80032,-100,4,1,0,80,0,0
86699,-100,4,1,0,70,0,0
92032,-100,4,1,0,60,0,0
102699,-100,4,1,0,70,0,0
114699,-100,4,1,0,90,0,1
134699,-100,4,1,0,90,0,0
135032,-100,4,1,0,90,0,1
137032,-100,4,1,0,80,0,0

[HitObjects]
320,0,33,5,4,0:0:0:0:
256,192,2699,1,0,0:0:0:0:
256,160,5366,1,4,0:0:0:0:
256,96,6699,1,0,0:0:0:0:
173,45,7032,1,8,0:0:0:0:
199,280,7366,1,0,0:0:0:0:
220,121,8032,1,0,0:0:0:0:
199,44,9366,1,0,0:0:0:0:
256,128,10032,1,8,0:0:0:0:
256,128,10366,1,8,0:0:0:0:
256,160,10699,1,4,0:0:0:0:
220,121,11366,1,8,0:0:0:0:
256,96,12032,1,0,0:0:0:0:
256,96,12366,1,8,0:0:0:0:
62,80,12699,1,0,0:0:0:0:
220,121,13366,1,0,0:0:0:0:
182,18,14032,1,8,0:0:0:0:
256,128,14699,1,8,0:0:0:0:
193,41,15032,1,8,0:0:0:0:
93,250,15366,1,8,0:0:0:0:
256,160,16032,5,4,0:0:0:0:
256,128,17366,1,0,0:0:0:0:
175,45,17699,1,8,0:0:0:0:
256,128,18032,1,0,0:0:0:0:
256,160,18699,1,8,0:0:0:0:
288,128,20032,1,8,0:0:0:0:
152,2,20366,1,8,0:0:0:0:
256,64,20699,1,0,0:0:0:0:
256,160,21366,5,0,0:0:0:0:
253,117,22699,1,0,0:0:0:0:
216,45,23032,1,8,0:0:0:0:
256,128,23366,1,0,0:0:0:0:
256,160,24032,1,8,0:0:0:0:
288,128,25366,1,8,0:0:0:0:
166,54,25699,1,8,0:0:0:0:
256,64,26032,1,0,0:0:0:0:
256,160,26699,5,4,0:0:0:0:
256,192,27366,1,8,0:0:0:0:
256,128,28032,1,0,0:0:0:0:
184,49,28366,1,8,0:0:0:0:
256,128,28699,1,0,0:0:0:0:
256,160,29366,1,8,0:0:0:0:
182,88,30366,1,0,0:0:0:0:
288,128,30699,1,8,0:0:0:0:
181,30,31032,1,8,0:0:0:0:
256,64,31366,1,0,0:0:0:0:
256,160,32032,5,0,0:0:0:0:
256,192,32699,1,8,0:0:0:0:
253,117,33366,1,0,0:0:0:0:
67,40,33699,1,8,0:0:0:0:
256,128,34032,1,0,0:0:0:0:
256,160,34699,1,8,0:0:0:0:
256,160,35699,1,0,0:0:0:0:
288,128,36032,1,8,0:0:0:0:
254,183,37366,5,4,0:0:0:0:
256,64,38699,1,12,0:0:0:0:
256,96,40032,1,0,0:0:0:0:
313,29,41366,1,12,0:0:0:0:
289,169,42699,1,4,0:0:0:0:
293,156,43366,1,8,0:0:0:0:
165,44,44032,1,0,0:0:0:0:
293,156,44699,1,8,0:0:0:0:
293,156,45366,1,0,0:0:0:0:
293,156,46032,1,8,0:0:0:0:
293,156,46699,1,0,0:0:0:0:
296,154,48032,1,4,0:0:0:0:
280,130,48699,1,8,0:0:0:0:
280,130,49366,1,0,0:0:0:0:
280,130,49699,1,8,0:0:0:0:
280,130,50032,1,0,0:0:0:0:
280,130,50699,1,0,0:0:0:0:
280,130,51366,1,8,0:0:0:0:
280,130,52032,1,0,0:0:0:0:
284,91,53366,1,8,0:0:0:0:
285,85,54032,1,0,0:0:0:0:
285,85,54699,1,8,0:0:0:0:
285,85,55032,1,0,0:0:0:0:
285,85,56032,1,0,0:0:0:0:
285,85,56699,1,0,0:0:0:0:
285,85,57366,1,8,0:0:0:0:
285,85,57699,1,0,0:0:0:0:
285,85,58032,1,8,0:0:0:0:
296,154,58699,1,4,0:0:0:0:
280,130,59366,1,8,0:0:0:0:
280,130,60032,1,0,0:0:0:0:
280,130,60366,1,8,0:0:0:0:
280,130,60699,1,0,0:0:0:0:
280,130,61366,1,0,0:0:0:0:
280,130,62032,1,8,0:0:0:0:
280,130,62699,1,0,0:0:0:0:
284,91,64032,1,8,0:0:0:0:
285,85,64699,1,0,0:0:0:0:
285,85,65366,1,8,0:0:0:0:
285,85,65699,1,0,0:0:0:0:
285,85,66699,1,0,0:0:0:0:
285,85,67366,1,0,0:0:0:0:
285,85,68032,1,8,0:0:0:0:
285,85,68699,1,8,0:0:0:0:
285,85,69366,1,4,0:0:0:0:
198,41,70699,1,8,0:0:0:0:
281,85,72032,1,0,0:0:0:0:
281,85,74699,1,0,0:0:0:0:
281,85,76032,1,8,0:0:0:0:
281,85,77366,1,0,0:0:0:0:
281,85,80032,1,4,0:0:0:0:
317,119,81366,1,8,0:0:0:0:
183,29,82032,1,0,0:0:0:0:
317,119,82699,1,8,0:0:0:0:
317,119,84032,1,8,0:0:0:0:
317,119,84699,1,0,0:0:0:0:
317,119,85366,1,4,0:0:0:0:
339,96,88032,1,0,0:0:0:0:
309,255,92032,1,8,0:0:0:0:
309,255,94699,1,0,0:0:0:0:
309,255,96032,1,8,0:0:0:0:
309,255,97366,1,0,0:0:0:0:
309,255,100032,1,0,0:0:0:0:
309,255,101366,1,8,0:0:0:0:
309,255,102699,1,0,0:0:0:0:
99,173,104032,1,0,0:0:0:0:
295,221,104699,1,8,0:0:0:0:
95,171,105366,1,0,0:0:0:0:
95,171,106699,1,8,0:0:0:0:
295,221,108032,1,0,0:0:0:0:
180,104,108699,1,0,0:0:0:0:
96,172,109366,1,8,0:0:0:0:
98,172,110699,1,0,0:0:0:0:
98,172,111366,1,8,0:0:0:0:
211,57,112032,1,0,0:0:0:0:
295,221,113032,1,12,0:0:0:0:
267,264,114699,1,12,0:0:0:0:
280,130,115366,1,0,0:0:0:0:
280,130,116032,1,0,0:0:0:0:
280,130,116699,1,8,0:0:0:0:
211,26,117032,1,8,0:0:0:0:
280,130,117366,1,0,0:0:0:0:
284,91,118699,1,8,0:0:0:0:
285,85,119366,1,0,0:0:0:0:
285,85,120032,1,8,0:0:0:0:
285,85,120366,1,8,0:0:0:0:
285,85,121366,1,0,0:0:0:0:
285,85,122032,1,0,0:0:0:0:
285,85,122699,1,8,0:0:0:0:
115,188,123032,1,0,0:0:0:0:
285,85,123366,1,8,0:0:0:0:
296,154,124032,1,4,0:0:0:0:
280,130,124699,1,8,0:0:0:0:
280,130,125366,1,0,0:0:0:0:
280,130,125699,1,8,0:0:0:0:
280,130,126032,1,0,0:0:0:0:
280,130,126699,1,0,0:0:0:0:
280,130,127366,1,8,0:0:0:0:
280,130,127699,1,8,0:0:0:0:
280,130,128032,1,0,0:0:0:0:
284,91,129366,1,8,0:0:0:0:
285,85,130032,1,0,0:0:0:0:
285,85,130699,1,8,0:0:0:0:
285,85,131032,1,8,0:0:0:0:
285,85,132032,1,8,0:0:0:0:
285,85,132699,1,0,0:0:0:0:
285,85,133366,1,8,0:0:0:0:
285,85,133699,1,0,0:0:0:0:
235,90,134032,1,8,0:0:0:0:
285,85,135032,1,12,0:0:0:0:
285,85,135699,1,8,0:0:0:0:
144,16,136032,1,0,0:0:0:0:
285,85,136366,1,8,0:0:0:0:
285,85,136699,1,8,0:0:0:0:
285,85,137699,1,12,0:0:0:0:
