osu file format v14

[General]
AudioFilename: audio.mp3
AudioLeadIn: 0
PreviewTime: 47699
Countdown: 0
SampleSet: Soft
StackLeniency: 0.7
Mode: 3
LetterboxInBreaks: 0
SpecialStyle: 0
WidescreenStoryboard: 1

[Editor]
DistanceSpacing: 1.7
BeatDivisor: 2
GridSize: 32
TimelineZoom: 0.6999997

[Metadata]
Title:Ki ga Kurutta Noise
TitleUnicode:気が狂ったノイズ
Artist:Kuki Akumu
ArtistUnicode:茎悪夢
Creator:Shiro_122
Version:Normal
Source:
Tags:pm04034 Ulis- FAMoss ruiditos locos electronic instrumental chiptune 8-bit 8bit retro pixel Bitpop おかしい 宇宙 レトロ rétro テレビゲーム television console ゲーム ポップ チップチューン 綺麗な artcore 銀河 milky way
BeatmapID:3834996
BeatmapSetID:1864060

[Difficulty]
HPDrainRate:7.2
CircleSize:4
OverallDifficulty:7.2
ApproachRate:5
SliderMultiplier:1.4
SliderTickRate:1

[Events]
//Background and Video events
0,0,"BG.png",0,0
//Break Periods
//Storyboard Layer 0 (Background)
//Storyboard Layer 1 (Fail)
//Storyboard Layer 2 (Pass)
//Storyboard Layer 3 (Foreground)
//Storyboard Layer 4 (Overlay)
//Storyboard Sound Samples

[TimingPoints]
33,333.333333333333,4,2,1,80,1,0
48032,-100,4,2,1,80,0,1
69366,-100,4,2,1,80,0,0
114699,-100,4,2,1,80,0,1
134699,-100,4,2,1,80,0,0

[HitObjects]
64,192,33,5,2,0:0:0:0:
192,192,33,1,4,0:0:0:0:
448,192,366,1,0,0:0:0:0:
192,192,699,1,0,0:0:0:0:
320,192,1032,1,0,0:0:0:0:
320,192,1366,1,0,0:0:0:0:
320,192,1699,1,0,0:0:0:0:
192,192,1866,1,0,0:0:0:0:
64,192,2032,1,0,0:0:0:0:
320,192,2366,1,0,0:0:0:0:
448,192,2699,1,0,0:0:0:0:
64,192,3032,1,0,0:0:0:0:
320,192,3366,1,0,0:0:0:0:
192,192,3699,1,0,0:0:0:0:
192,192,4032,1,0,0:0:0:0:
192,192,4366,1,0,0:0:0:0:
320,192,4532,1,0,0:0:0:0:
448,192,4699,1,0,0:0:0:0:
192,192,5032,1,0,0:0:0:0:
64,192,5366,1,2,0:0:0:0:
320,192,5366,1,4,0:0:0:0:
448,192,5699,1,2,0:0:0:0:
64,192,5866,1,0,0:0:0:0:
320,192,6032,1,2,0:0:0:0:
192,192,6366,1,2,0:0:0:0:
320,192,6699,1,2,0:0:0:0:
448,192,6866,1,0,0:0:0:0:
64,192,7032,1,2,0:0:0:0:
320,192,7199,1,0,0:0:0:0:
192,192,7366,1,2,0:0:0:0:
448,192,7532,1,0,0:0:0:0:
320,192,7699,1,2,0:0:0:0:
64,192,7866,1,0,0:0:0:0:
448,192,8032,1,2,0:0:0:0:
192,192,8366,1,2,0:0:0:0:
448,192,8532,1,0,0:0:0:0:
64,192,8699,1,2,0:0:0:0:
320,192,9032,1,2,0:0:0:0:
192,192,9366,1,2,0:0:0:0:
448,192,9532,1,0,0:0:0:0:
64,192,9699,1,2,0:0:0:0:
320,192,10032,1,2,0:0:0:0:
64,192,10199,1,0,0:0:0:0:
448,192,10366,1,2,0:0:0:0:
192,192,10532,1,0,0:0:0:0:
64,192,10699,1,2,0:0:0:0:
448,192,10699,1,4,0:0:0:0:
192,192,11032,1,2,0:0:0:0:
320,192,11032,1,8,0:0:0:0:
64,192,11199,1,0,0:0:0:0:
448,192,11366,1,2,0:0:0:0:
192,192,11699,1,2,0:0:0:0:
64,192,11699,1,8,0:0:0:0:
448,192,12032,1,2,0:0:0:0:
320,192,12199,1,0,0:0:0:0:
192,192,12366,1,8,0:0:0:0:
64,192,12366,1,2,0:0:0:0:
448,192,12532,1,0,0:0:0:0:
320,192,12699,1,2,0:0:0:0:
192,192,12866,1,0,0:0:0:0:
64,192,13032,1,2,0:0:0:0:
448,192,13032,1,8,0:0:0:0:
320,192,13199,1,0,0:0:0:0:
64,192,13366,1,2,0:0:0:0:
320,192,13699,1,2,0:0:0:0:
448,192,13699,1,8,0:0:0:0:
192,192,13866,1,0,0:0:0:0:
64,192,14032,1,2,0:0:0:0:
192,192,14366,1,2,0:0:0:0:
320,192,14366,1,8,0:0:0:0:
64,192,14699,1,2,0:0:0:0:
448,192,14699,1,8,0:0:0:0:
64,192,15032,1,2,0:0:0:0:
448,192,15032,1,8,0:0:0:0:
64,192,15366,1,2,0:0:0:0:
448,192,15366,1,8,0:0:0:0:
320,192,15532,1,0,0:0:0:0:
192,192,15699,1,8,0:0:0:0:
64,192,15699,1,0,0:0:0:0:
320,192,16032,128,2,16366:0:0:0:0:
448,192,16032,1,4,0:0:0:0:
192,192,16366,1,10,0:0:0:0:
448,192,16532,1,0,0:0:0:0:
192,192,16699,128,2,17032:0:0:0:0:
320,192,17032,1,10,0:0:0:0:
64,192,17199,1,0,0:0:0:0:
448,192,17366,128,2,17699:0:0:0:0:
320,192,17699,1,10,0:0:0:0:
192,192,17866,1,0,0:0:0:0:
64,192,18032,1,2,0:0:0:0:
448,192,18199,1,0,0:0:0:0:
320,192,18366,1,10,0:0:0:0:
192,192,18532,1,0,0:0:0:0:
64,192,18699,128,2,19032:0:0:0:0:
320,192,19032,1,10,0:0:0:0:
448,192,19199,1,0,0:0:0:0:
64,192,19366,128,2,19699:0:0:0:0:
192,192,19699,1,10,0:0:0:0:
448,192,19866,1,0,0:0:0:0:
192,192,20032,128,2,20366:0:0:0:0:
320,192,20366,1,10,0:0:0:0:
448,192,20532,1,0,0:0:0:0:
64,192,20699,1,2,0:0:0:0:
192,192,20866,1,0,0:0:0:0:
320,192,21032,1,10,0:0:0:0:
448,192,21199,1,0,0:0:0:0:
64,192,21366,128,2,21699:0:0:0:0:
192,192,21699,1,10,0:0:0:0:
448,192,21866,1,0,0:0:0:0:
320,192,22032,128,2,22366:0:0:0:0:
192,192,22366,1,10,0:0:0:0:
64,192,22532,1,0,0:0:0:0:
448,192,22699,128,2,23032:0:0:0:0:
320,192,23032,1,10,0:0:0:0:
192,192,23199,1,0,0:0:0:0:
64,192,23366,1,2,0:0:0:0:
448,192,23532,1,0,0:0:0:0:
320,192,23699,1,10,0:0:0:0:
192,192,23866,1,0,0:0:0:0:
448,192,24032,128,2,24366:0:0:0:0:
320,192,24366,1,10,0:0:0:0:
64,192,24532,1,0,0:0:0:0:
448,192,24699,128,2,25032:0:0:0:0:
192,192,25032,1,10,0:0:0:0:
64,192,25199,1,0,0:0:0:0:
320,192,25366,128,2,25699:0:0:0:0:
192,192,25699,1,10,0:0:0:0:
64,192,25866,1,0,0:0:0:0:
192,192,26032,1,2,0:0:0:0:
320,192,26199,1,0,0:0:0:0:
448,192,26366,1,0,0:0:0:0:
64,192,26532,1,0,0:0:0:0:
192,192,26699,1,2,0:0:0:0:
320,192,26699,128,4,27032:0:0:0:0:
64,192,27032,1,10,0:0:0:0:
448,192,27199,1,0,0:0:0:0:
192,192,27366,128,2,27699:0:0:0:0:
320,192,27699,1,10,0:0:0:0:
448,192,27866,1,0,0:0:0:0:
320,192,28032,128,2,28366:0:0:0:0:
192,192,28366,1,10,0:0:0:0:
64,192,28532,1,0,0:0:0:0:
448,192,28699,1,2,0:0:0:0:
192,192,28866,1,0,0:0:0:0:
320,192,29032,1,10,0:0:0:0:
448,192,29199,1,0,0:0:0:0:
64,192,29366,128,2,29699:0:0:0:0:
320,192,29699,1,10,0:0:0:0:
192,192,29866,1,0,0:0:0:0:
448,192,30032,128,2,30366:0:0:0:0:
64,192,30366,1,10,0:0:0:0:
320,192,30532,1,0,0:0:0:0:
192,192,30699,128,2,31032:0:0:0:0:
64,192,31032,1,10,0:0:0:0:
320,192,31199,1,0,0:0:0:0:
192,192,31366,1,2,0:0:0:0:
448,192,31532,1,0,0:0:0:0:
64,192,31699,1,10,0:0:0:0:
320,192,31866,1,0,0:0:0:0:
192,192,32032,128,2,32366:0:0:0:0:
64,192,32366,1,10,0:0:0:0:
320,192,32532,1,0,0:0:0:0:
448,192,32699,128,2,33032:0:0:0:0:
320,192,33032,1,10,0:0:0:0:
64,192,33199,1,0,0:0:0:0:
192,192,33366,128,2,33699:0:0:0:0:
320,192,33699,1,10,0:0:0:0:
448,192,33866,1,0,0:0:0:0:
192,192,34032,1,2,0:0:0:0:
64,192,34199,1,0,0:0:0:0:
448,192,34366,1,10,0:0:0:0:
320,192,34532,1,0,0:0:0:0:
64,192,34699,128,2,35032:0:0:0:0:
192,192,35032,1,10,0:0:0:0:
448,192,35199,1,0,0:0:0:0:
320,192,35366,128,2,35699:0:0:0:0:
192,192,35699,1,10,0:0:0:0:
448,192,35866,1,0,0:0:0:0:
320,192,36032,1,2,0:0:0:0:
64,192,36032,1,8,0:0:0:0:
64,192,36366,1,2,0:0:0:0:
320,192,36366,1,8,0:0:0:0:
448,192,36532,1,0,0:0:0:0:
192,192,36699,128,0,37032:0:0:0:0:
64,192,37032,128,0,37366:0:0:0:0:
320,192,37366,1,2,0:0:0:0:
448,192,37366,128,4,38366:0:0:0:0:
192,192,38366,128,0,38699:0:0:0:0:
64,192,38699,1,8,0:0:0:0:
320,192,38699,128,0,39366:0:0:0:0:
192,192,39366,128,0,39699:0:0:0:0:
64,192,39699,128,0,40032:0:0:0:0:
320,192,40032,1,2,0:0:0:0:
448,192,40032,128,0,40366:0:0:0:0:
320,192,40366,128,0,40699:0:0:0:0:
192,192,40699,128,0,41032:0:0:0:0:
64,192,41032,128,0,41366:0:0:0:0:
448,192,41366,1,8,0:0:0:0:
320,192,41366,128,0,42032:0:0:0:0:
448,192,42032,128,0,42699:0:0:0:0:
64,192,42699,1,2,0:0:0:0:
192,192,42699,1,4,0:0:0:0:
192,192,43032,1,10,0:0:0:0:
320,192,43199,1,0,0:0:0:0:
448,192,43366,1,2,0:0:0:0:
448,192,43532,1,0,0:0:0:0:
192,192,43699,1,10,0:0:0:0:
320,192,44032,1,2,0:0:0:0:
448,192,44366,1,10,0:0:0:0:
320,192,44532,1,0,0:0:0:0:
64,192,44699,1,2,0:0:0:0:
64,192,44866,1,0,0:0:0:0:
320,192,45032,1,10,0:0:0:0:
192,192,45366,1,2,0:0:0:0:
64,192,45699,1,10,0:0:0:0:
192,192,45866,1,0,0:0:0:0:
320,192,46032,1,2,0:0:0:0:
320,192,46199,1,0,0:0:0:0:
64,192,46366,1,10,0:0:0:0:
320,192,46699,1,6,0:0:0:0:
448,192,46782,1,6,0:0:0:0:
192,192,46949,1,6,0:0:0:0:
320,192,47116,1,6,0:0:0:0:
64,192,47282,1,6,0:0:0:0:
192,192,47366,1,6,0:0:0:0:
448,192,47532,1,6,0:0:0:0:
64,192,48032,1,2,0:0:0:0:
448,192,48032,1,4,0:0:0:0:
192,192,48199,1,0,0:0:0:0:
448,192,48366,1,10,0:0:0:0:
320,192,48532,1,0,0:0:0:0:
64,192,48699,128,2,49032:0:0:0:0:
192,192,49032,1,10,0:0:0:0:
448,192,49199,1,0,0:0:0:0:
64,192,49366,1,2,0:0:0:0:
192,192,49532,1,0,0:0:0:0:
320,192,49699,1,10,0:0:0:0:
448,192,49866,1,0,0:0:0:0:
64,192,50032,1,2,0:0:0:0:
320,192,50199,1,0,0:0:0:0:
192,192,50366,1,10,0:0:0:0:
448,192,50532,1,0,0:0:0:0:
64,192,50699,128,2,51032:0:0:0:0:
192,192,51032,1,2,0:0:0:0:
448,192,51032,128,8,51366:0:0:0:0:
320,192,51366,128,2,51699:0:0:0:0:
192,192,51699,128,8,52032:0:0:0:0:
64,192,51699,1,2,0:0:0:0:
448,192,52032,128,2,52366:0:0:0:0:
320,192,52366,1,8,0:0:0:0:
64,192,52366,128,2,52699:0:0:0:0:
192,192,52699,1,2,0:0:0:0:
320,192,52866,1,0,0:0:0:0:
64,192,53032,1,2,0:0:0:0:
448,192,53032,128,8,53366:0:0:0:0:
320,192,53366,1,2,0:0:0:0:
192,192,53532,1,0,0:0:0:0:
64,192,53699,1,10,0:0:0:0:
448,192,53866,1,0,0:0:0:0:
320,192,54032,128,2,54366:0:0:0:0:
448,192,54366,1,10,0:0:0:0:
192,192,54532,1,0,0:0:0:0:
64,192,54699,1,2,0:0:0:0:
192,192,54866,1,0,0:0:0:0:
448,192,55032,1,10,0:0:0:0:
320,192,55199,1,0,0:0:0:0:
192,192,55366,128,2,55699:0:0:0:0:
64,192,55699,1,2,0:0:0:0:
320,192,55699,1,8,0:0:0:0:
448,192,55866,1,0,0:0:0:0:
192,192,56032,128,2,56366:0:0:0:0:
320,192,56366,128,8,56699:0:0:0:0:
64,192,56366,1,2,0:0:0:0:
64,192,56699,128,2,57032:0:0:0:0:
192,192,57032,128,2,57366:0:0:0:0:
448,192,57032,1,8,0:0:0:0:
320,192,57366,128,8,57699:0:0:0:0:
64,192,57366,1,2,0:0:0:0:
448,192,57699,128,8,58032:0:0:0:0:
192,192,57699,1,2,0:0:0:0:
320,192,58032,128,8,58366:0:0:0:0:
64,192,58032,1,2,0:0:0:0:
192,192,58366,128,2,58699:0:0:0:0:
448,192,58366,1,8,0:0:0:0:
64,192,58699,1,2,0:0:0:0:
320,192,58699,1,4,0:0:0:0:
448,192,58866,1,0,0:0:0:0:
192,192,59032,1,10,0:0:0:0:
320,192,59199,1,0,0:0:0:0:
64,192,59366,128,2,59699:0:0:0:0:
320,192,59699,1,10,0:0:0:0:
64,192,59866,1,0,0:0:0:0:
448,192,60032,1,2,0:0:0:0:
320,192,60199,1,0,0:0:0:0:
192,192,60366,1,10,0:0:0:0:
64,192,60532,1,0,0:0:0:0:
320,192,60699,1,2,0:0:0:0:
448,192,60866,1,0,0:0:0:0:
192,192,61032,1,10,0:0:0:0:
64,192,61199,1,0,0:0:0:0:
192,192,61366,128,2,61699:0:0:0:0:
448,192,61699,128,8,62032:0:0:0:0:
320,192,61699,1,2,0:0:0:0:
320,192,62032,128,2,62366:0:0:0:0:
192,192,62366,128,2,62699:0:0:0:0:
64,192,62366,1,8,0:0:0:0:
320,192,62699,128,2,63032:0:0:0:0:
64,192,63032,128,2,63366:0:0:0:0:
192,192,63032,1,8,0:0:0:0:
448,192,63366,1,2,0:0:0:0:
192,192,63532,1,0,0:0:0:0:
448,192,63699,128,8,64032:0:0:0:0:
64,192,63699,1,2,0:0:0:0:
192,192,64032,1,2,0:0:0:0:
448,192,64199,1,0,0:0:0:0:
320,192,64366,1,10,0:0:0:0:
64,192,64532,1,0,0:0:0:0:
192,192,64699,128,2,65032:0:0:0:0:
64,192,65032,1,10,0:0:0:0:
320,192,65199,1,0,0:0:0:0:
448,192,65366,1,2,0:0:0:0:
192,192,65532,1,0,0:0:0:0:
64,192,65699,1,10,0:0:0:0:
320,192,65866,1,0,0:0:0:0:
448,192,66032,128,2,66366:0:0:0:0:
192,192,66366,1,10,0:0:0:0:
64,192,66532,1,0,0:0:0:0:
320,192,66699,128,2,67032:0:0:0:0:
192,192,67032,128,2,67366:0:0:0:0:
448,192,67032,1,8,0:0:0:0:
448,192,67366,128,2,67699:0:0:0:0:
320,192,67699,128,8,68032:0:0:0:0:
64,192,67699,1,2,0:0:0:0:
192,192,68032,128,2,68366:0:0:0:0:
448,192,68366,128,0,68699:0:0:0:0:
320,192,68699,128,0,69032:0:0:0:0:
192,192,69032,128,0,69366:0:0:0:0:
64,192,69366,128,2,70032:0:0:0:0:
320,192,69366,1,4,0:0:0:0:
448,192,69699,1,0,0:0:0:0:
320,192,70032,128,0,70699:0:0:0:0:
64,192,70255,1,0,0:0:0:0:
448,192,70477,1,0,0:0:0:0:
192,192,70699,128,0,71032:0:0:0:0:
64,192,71032,128,0,71366:0:0:0:0:
448,192,71366,128,0,71699:0:0:0:0:
192,192,71699,128,0,72032:0:0:0:0:
320,192,72032,128,0,72699:0:0:0:0:
448,192,72366,1,0,0:0:0:0:
64,192,72699,128,0,73366:0:0:0:0:
320,192,73032,1,0,0:0:0:0:
192,192,73366,128,0,74032:0:0:0:0:
448,192,73699,1,0,0:0:0:0:
64,192,74032,128,0,74699:0:0:0:0:
320,192,74366,1,0,0:0:0:0:
320,192,74699,128,0,75366:0:0:0:0:
192,192,74921,1,0,0:0:0:0:
64,192,75144,1,0,0:0:0:0:
448,192,75366,128,0,75699:0:0:0:0:
192,192,75699,128,0,76032:0:0:0:0:
320,192,76032,128,0,76366:0:0:0:0:
64,192,76366,128,0,76699:0:0:0:0:
192,192,76699,128,0,77032:0:0:0:0:
448,192,77032,128,0,77366:0:0:0:0:
64,192,77366,128,0,78366:0:0:0:0:
320,192,77699,1,0,0:0:0:0:
448,192,78032,1,0,0:0:0:0:
320,192,78366,128,0,78699:0:0:0:0:
448,192,78699,128,0,79699:0:0:0:0:
64,192,79032,1,0,0:0:0:0:
320,192,79366,1,0,0:0:0:0:
192,192,79699,128,0,80032:0:0:0:0:
320,192,80032,1,4,0:0:0:0:
64,192,80032,128,2,80699:0:0:0:0:
448,192,80255,1,0,0:0:0:0:
192,192,80699,128,0,81366:0:0:0:0:
320,192,80921,1,0,0:0:0:0:
64,192,81144,1,0,0:0:0:0:
448,192,81366,128,0,81699:0:0:0:0:
320,192,81699,128,0,82032:0:0:0:0:
64,192,82032,128,0,82366:0:0:0:0:
192,192,82366,128,0,82699:0:0:0:0:
448,192,82699,128,0,83032:0:0:0:0:
320,192,83032,128,0,83366:0:0:0:0:
192,192,83366,128,0,84032:0:0:0:0:
320,192,83699,1,0,0:0:0:0:
64,192,84032,128,0,84699:0:0:0:0:
448,192,84366,1,0,0:0:0:0:
320,192,84699,128,0,85366:0:0:0:0:
64,192,85032,1,0,0:0:0:0:
192,192,85366,128,2,86699:0:0:0:0:
448,192,85366,128,4,86699:0:0:0:0:
64,192,86699,128,0,88032:0:0:0:0:
448,192,87366,1,0,0:0:0:0:
192,192,87588,1,0,0:0:0:0:
320,192,87810,1,0,0:0:0:0:
192,192,88032,128,0,89366:0:0:0:0:
448,192,88032,128,0,90032:0:0:0:0:
64,192,92032,1,0,0:0:0:0:
320,192,92032,1,0,0:0:0:0:
192,192,92199,1,0,0:0:0:0:
448,192,92366,1,0,0:0:0:0:
64,192,92532,1,0,0:0:0:0:
320,192,92699,1,0,0:0:0:0:
64,192,93032,1,0,0:0:0:0:
192,192,93199,1,0,0:0:0:0:
448,192,93366,1,0,0:0:0:0:
320,192,93366,1,0,0:0:0:0:
64,192,93699,1,0,0:0:0:0:
320,192,93866,1,0,0:0:0:0:
192,192,94032,1,0,0:0:0:0:
448,192,94032,1,0,0:0:0:0:
448,192,94366,1,0,0:0:0:0:
192,192,94532,1,0,0:0:0:0:
64,192,94699,1,0,0:0:0:0:
320,192,94699,1,0,0:0:0:0:
448,192,95032,1,0,0:0:0:0:
320,192,95366,1,0,0:0:0:0:
192,192,95699,1,0,0:0:0:0:
64,192,96032,1,0,0:0:0:0:
448,192,96032,1,0,0:0:0:0:
192,192,96366,1,0,0:0:0:0:
192,192,96866,1,0,0:0:0:0:
320,192,97032,1,0,0:0:0:0:
64,192,97366,1,0,0:0:0:0:
448,192,97366,1,0,0:0:0:0:
192,192,97532,1,0,0:0:0:0:
448,192,97699,1,0,0:0:0:0:
320,192,97866,1,0,0:0:0:0:
64,192,98032,1,0,0:0:0:0:
320,192,98366,1,0,0:0:0:0:
448,192,98532,1,0,0:0:0:0:
64,192,98699,1,0,0:0:0:0:
192,192,98699,1,0,0:0:0:0:
320,192,99032,1,0,0:0:0:0:
64,192,99199,1,0,0:0:0:0:
320,192,99699,1,0,0:0:0:0:
448,192,99866,1,0,0:0:0:0:
192,192,100032,1,0,0:0:0:0:
64,192,100032,1,0,0:0:0:0:
320,192,100366,1,0,0:0:0:0:
192,192,100699,1,0,0:0:0:0:
448,192,100699,1,0,0:0:0:0:
64,192,101032,1,0,0:0:0:0:
192,192,101366,1,0,0:0:0:0:
448,192,101366,1,0,0:0:0:0:
320,192,101699,1,0,0:0:0:0:
448,192,102032,1,0,0:0:0:0:
64,192,102032,1,0,0:0:0:0:
192,192,102366,1,0,0:0:0:0:
64,192,102699,1,0,0:0:0:0:
448,192,102699,1,0,0:0:0:0:
192,192,102866,1,0,0:0:0:0:
320,192,103032,1,8,0:0:0:0:
64,192,103199,1,0,0:0:0:0:
448,192,103366,1,0,0:0:0:0:
64,192,103699,1,0,0:0:0:0:
192,192,103699,1,8,0:0:0:0:
320,192,103866,1,0,0:0:0:0:
448,192,104032,1,0,0:0:0:0:
64,192,104366,1,0,0:0:0:0:
320,192,104366,1,8,0:0:0:0:
192,192,104532,1,0,0:0:0:0:
64,192,104699,1,0,0:0:0:0:
192,192,105032,1,8,0:0:0:0:
448,192,105032,1,0,0:0:0:0:
320,192,105199,1,0,0:0:0:0:
448,192,105366,1,0,0:0:0:0:
64,192,105699,1,8,0:0:0:0:
320,192,105699,1,0,0:0:0:0:
192,192,106032,1,0,0:0:0:0:
320,192,106366,1,8,0:0:0:0:
448,192,106366,1,0,0:0:0:0:
64,192,106699,1,0,0:0:0:0:
192,192,107032,1,8,0:0:0:0:
448,192,107032,1,0,0:0:0:0:
320,192,107366,1,0,0:0:0:0:
192,192,107532,1,0,0:0:0:0:
64,192,107699,1,8,0:0:0:0:
448,192,107699,1,0,0:0:0:0:
64,192,108032,1,0,0:0:0:0:
448,192,108032,1,0,0:0:0:0:
320,192,108199,1,0,0:0:0:0:
64,192,108366,1,8,0:0:0:0:
448,192,108532,1,0,0:0:0:0:
192,192,108699,1,0,0:0:0:0:
448,192,109032,1,0,0:0:0:0:
320,192,109032,1,8,0:0:0:0:
192,192,109199,1,0,0:0:0:0:
64,192,109366,1,0,0:0:0:0:
192,192,109699,1,8,0:0:0:0:
448,192,109699,1,0,0:0:0:0:
320,192,109866,1,0,0:0:0:0:
64,192,110032,1,0,0:0:0:0:
320,192,110366,1,8,0:0:0:0:
448,192,110366,1,0,0:0:0:0:
192,192,110532,1,0,0:0:0:0:
64,192,110699,1,0,0:0:0:0:
192,192,111032,1,8,0:0:0:0:
448,192,111032,1,0,0:0:0:0:
64,192,111366,1,0,0:0:0:0:
320,192,111699,1,8,0:0:0:0:
448,192,111699,1,0,0:0:0:0:
192,192,112032,1,0,0:0:0:0:
64,192,112366,1,8,0:0:0:0:
320,192,112366,1,0,0:0:0:0:
448,192,112699,1,0,0:0:0:0:
192,192,113032,1,8,0:0:0:0:
64,192,113032,1,2,0:0:0:0:
320,192,113366,1,2,0:0:0:0:
448,192,113366,128,0,113532:0:0:0:0:
192,192,113532,128,0,113699:0:0:0:0:
320,192,113699,128,0,113866:0:0:0:0:
64,192,113866,128,0,114032:0:0:0:0:
192,192,114032,128,0,114366:0:0:0:0:
64,192,114366,1,10,0:0:0:0:
320,192,114532,1,0,0:0:0:0:
448,192,114699,1,4,0:0:0:0:
192,192,114699,1,2,0:0:0:0:
64,192,114866,1,0,0:0:0:0:
320,192,115032,1,10,0:0:0:0:
448,192,115199,1,0,0:0:0:0:
192,192,115366,1,2,0:0:0:0:
320,192,115532,1,0,0:0:0:0:
64,192,115699,1,10,0:0:0:0:
448,192,115866,1,0,0:0:0:0:
192,192,116032,128,2,116366:0:0:0:0:
320,192,116366,1,2,0:0:0:0:
448,192,116366,128,8,116699:0:0:0:0:
64,192,116699,128,2,117032:0:0:0:0:
320,192,117032,128,8,117366:0:0:0:0:
192,192,117032,1,2,0:0:0:0:
448,192,117366,128,2,117699:0:0:0:0:
192,192,117699,128,2,118032:0:0:0:0:
320,192,117699,1,8,0:0:0:0:
64,192,118032,1,2,0:0:0:0:
320,192,118199,1,0,0:0:0:0:
448,192,118366,128,8,118699:0:0:0:0:
192,192,118366,1,2,0:0:0:0:
320,192,118699,1,2,0:0:0:0:
64,192,118866,1,0,0:0:0:0:
192,192,119032,1,10,0:0:0:0:
448,192,119199,1,0,0:0:0:0:
64,192,119366,128,2,119699:0:0:0:0:
192,192,119699,1,10,0:0:0:0:
320,192,119866,1,0,0:0:0:0:
448,192,120032,1,2,0:0:0:0:
64,192,120199,1,0,0:0:0:0:
192,192,120366,1,10,0:0:0:0:
320,192,120532,1,0,0:0:0:0:
448,192,120699,128,2,121032:0:0:0:0:
192,192,121032,1,10,0:0:0:0:
320,192,121199,1,0,0:0:0:0:
448,192,121366,128,2,121699:0:0:0:0:
192,192,121699,128,2,122032:0:0:0:0:
320,192,121699,1,8,0:0:0:0:
64,192,122032,128,2,122366:0:0:0:0:
320,192,122366,128,2,122699:0:0:0:0:
448,192,122366,1,8,0:0:0:0:
192,192,122699,128,8,123032:0:0:0:0:
64,192,122699,1,2,0:0:0:0:
448,192,123032,128,8,123366:0:0:0:0:
320,192,123032,1,2,0:0:0:0:
64,192,123366,128,2,123699:0:0:0:0:
192,192,123366,1,8,0:0:0:0:
320,192,123699,128,2,124032:0:0:0:0:
448,192,123699,1,8,0:0:0:0:
64,192,124032,1,2,0:0:0:0:
192,192,124032,1,4,0:0:0:0:
448,192,124199,1,0,0:0:0:0:
320,192,124366,1,10,0:0:0:0:
64,192,124532,1,0,0:0:0:0:
448,192,124699,128,2,125032:0:0:0:0:
192,192,125032,1,10,0:0:0:0:
64,192,125199,1,0,0:0:0:0:
448,192,125366,1,2,0:0:0:0:
320,192,125532,1,0,0:0:0:0:
64,192,125699,1,10,0:0:0:0:
192,192,125866,1,0,0:0:0:0:
448,192,126032,1,2,0:0:0:0:
320,192,126199,1,0,0:0:0:0:
64,192,126366,1,10,0:0:0:0:
192,192,126532,1,0,0:0:0:0:
320,192,126699,128,2,127032:0:0:0:0:
448,192,127032,128,2,127366:0:0:0:0:
192,192,127032,1,8,0:0:0:0:
64,192,127366,128,2,127699:0:0:0:0:
320,192,127699,128,2,128032:0:0:0:0:
448,192,127699,1,8,0:0:0:0:
192,192,128032,128,2,128366:0:0:0:0:
64,192,128366,128,2,128699:0:0:0:0:
320,192,128366,1,8,0:0:0:0:
448,192,128699,1,2,0:0:0:0:
192,192,128866,1,0,0:0:0:0:
64,192,129032,128,2,129366:0:0:0:0:
320,192,129032,1,8,0:0:0:0:
192,192,129366,1,2,0:0:0:0:
448,192,129532,1,0,0:0:0:0:
64,192,129699,1,10,0:0:0:0:
320,192,129866,1,0,0:0:0:0:
448,192,130032,128,2,130366:0:0:0:0:
320,192,130366,1,10,0:0:0:0:
192,192,130532,1,0,0:0:0:0:
64,192,130699,1,2,0:0:0:0:
448,192,130866,1,0,0:0:0:0:
192,192,131032,1,10,0:0:0:0:
320,192,131199,1,0,0:0:0:0:
64,192,131366,128,2,131699:0:0:0:0:
192,192,131699,1,2,0:0:0:0:
448,192,131699,1,8,0:0:0:0:
320,192,131866,1,0,0:0:0:0:
64,192,132032,128,2,132366:0:0:0:0:
192,192,132032,1,12,0:0:0:0:
320,192,132366,1,2,0:0:0:0:
448,192,132366,128,8,132699:0:0:0:0:
192,192,132699,1,8,0:0:0:0:
64,192,132699,128,2,133032:0:0:0:0:
320,192,133032,128,8,133366:0:0:0:0:
192,192,133032,1,2,0:0:0:0:
448,192,133366,128,12,133699:0:0:0:0:
64,192,133366,1,2,0:0:0:0:
192,192,133699,128,2,134032:0:0:0:0:
320,192,133699,1,8,0:0:0:0:
64,192,134032,128,2,134366:0:0:0:0:
320,192,134032,1,12,0:0:0:0:
192,192,134366,1,2,0:0:0:0:
448,192,134366,128,8,134699:0:0:0:0:
320,192,134699,1,2,0:0:0:0:
64,192,135032,1,2,0:0:0:0:
192,192,135032,1,4,0:0:0:0:
320,192,135366,1,2,0:0:0:0:
448,192,135366,1,8,0:0:0:0:
64,192,135699,1,2,0:0:0:0:
192,192,136032,1,2,0:0:0:0:
320,192,136032,1,8,0:0:0:0:
64,192,136366,1,2,0:0:0:0:
448,192,136366,1,8,0:0:0:0:
64,192,136699,1,2,0:0:0:0:
448,192,136699,1,8,0:0:0:0:
192,192,137032,1,0,0:0:0:0:
448,192,137199,1,0,0:0:0:0:
320,192,137366,1,0,0:0:0:0:
64,192,137532,1,0,0:0:0:0:
448,192,137699,1,10,0:0:0:0:
192,192,137949,1,0,0:0:0:0:
64,192,138032,1,0,0:0:0:0:
320,192,138116,1,0,0:0:0:0:
448,192,138199,1,0,0:0:0:0:
192,192,138282,1,0,0:0:0:0:
