osu file format v14

[General]
AudioFilename: audio.mp3
AudioLeadIn: 0
PreviewTime: 47699
Countdown: 0
SampleSet: Soft
StackLeniency: 0.7
Mode: 3
LetterboxInBreaks: 0
SpecialStyle: 0
WidescreenStoryboard: 1

[Editor]
DistanceSpacing: 1.7
BeatDivisor: 3
GridSize: 32
TimelineZoom: 1.4

[Metadata]
Title:Ki ga Kurutta Noise
TitleUnicode:気が狂ったノイズ
Artist:Kuki Akumu
ArtistUnicode:茎悪夢
Creator:Shiro_122
Version:Hyper
Source:
Tags:pm04034 Ulis- FAMoss ruiditos locos electronic instrumental chiptune 8-bit 8bit retro pixel Bitpop おかしい 宇宙 レトロ rétro テレビゲーム television console ゲーム ポップ チップチューン 綺麗な artcore 銀河 milky way
BeatmapID:3901534
BeatmapSetID:1864060

[Difficulty]
HPDrainRate:7.8
CircleSize:4
OverallDifficulty:7.8
ApproachRate:5
SliderMultiplier:1.4
SliderTickRate:1

[Events]
//Background and Video events
0,0,"BG.png",0,0
//Break Periods
//Storyboard Layer 0 (Background)
//Storyboard Layer 1 (Fail)
//Storyboard Layer 2 (Pass)
//Storyboard Layer 3 (Foreground)
//Storyboard Layer 4 (Overlay)
//Storyboard Sound Samples

[TimingPoints]
33,333.333333333333,4,2,1,80,1,0
48032,-100,4,2,1,80,0,1
69366,-100,4,2,1,80,0,0
114699,-100,4,2,1,80,0,1
134699,-100,4,2,1,80,0,0

[HitObjects]
64,192,33,5,2,0:0:0:0:
448,192,33,1,4,0:0:0:0:
192,192,33,1,0,0:0:0:0:
320,192,199,1,0,0:0:0:0:
192,192,282,1,0,0:0:0:0:
64,192,366,1,0,0:0:0:0:
192,192,532,1,0,0:0:0:0:
320,192,616,1,0,0:0:0:0:
448,192,699,1,0,0:0:0:0:
320,192,866,1,0,0:0:0:0:
192,192,949,1,0,0:0:0:0:
64,192,1032,1,0,0:0:0:0:
320,192,1199,1,0,0:0:0:0:
192,192,1282,1,0,0:0:0:0:
448,192,1366,1,0,0:0:0:0:
320,192,1532,1,0,0:0:0:0:
192,192,1616,1,0,0:0:0:0:
448,192,1699,1,0,0:0:0:0:
320,192,1866,1,0,0:0:0:0:
64,192,1949,1,0,0:0:0:0:
192,192,2032,1,0,0:0:0:0:
64,192,2199,1,0,0:0:0:0:
192,192,2282,1,0,0:0:0:0:
448,192,2366,1,0,0:0:0:0:
320,192,2532,1,0,0:0:0:0:
192,192,2616,1,0,0:0:0:0:
64,192,2699,1,0,0:0:0:0:
448,192,2699,1,0,0:0:0:0:
320,192,2866,1,0,0:0:0:0:
192,192,2949,1,0,0:0:0:0:
64,192,3032,1,0,0:0:0:0:
320,192,3199,1,0,0:0:0:0:
192,192,3282,1,0,0:0:0:0:
448,192,3366,1,0,0:0:0:0:
320,192,3532,1,0,0:0:0:0:
64,192,3616,1,0,0:0:0:0:
192,192,3699,1,0,0:0:0:0:
192,192,3866,1,0,0:0:0:0:
64,192,3949,1,0,0:0:0:0:
320,192,4032,1,0,0:0:0:0:
192,192,4199,1,0,0:0:0:0:
64,192,4282,1,0,0:0:0:0:
320,192,4366,1,0,0:0:0:0:
192,192,4532,1,0,0:0:0:0:
448,192,4616,1,0,0:0:0:0:
320,192,4699,1,0,0:0:0:0:
64,192,4866,1,0,0:0:0:0:
320,192,4949,1,0,0:0:0:0:
448,192,5032,1,0,0:0:0:0:
192,192,5116,1,0,0:0:0:0:
64,192,5199,1,0,0:0:0:0:
192,192,5366,1,0,0:0:0:0:
448,192,5366,128,4,5532:0:0:0:0:
64,192,5366,1,2,0:0:0:0:
320,192,5532,1,0,0:0:0:0:
192,192,5699,1,0,0:0:0:0:
64,192,5699,1,2,0:0:0:0:
448,192,5866,128,0,6032:0:0:0:0:
192,192,6032,1,0,0:0:0:0:
64,192,6032,1,2,0:0:0:0:
320,192,6199,1,0,0:0:0:0:
448,192,6366,128,0,6532:0:0:0:0:
192,192,6366,1,2,0:0:0:0:
64,192,6532,1,0,0:0:0:0:
320,192,6699,1,0,0:0:0:0:
192,192,6699,1,2,0:0:0:0:
448,192,6866,1,0,0:0:0:0:
64,192,7032,1,2,0:0:0:0:
320,192,7032,1,0,0:0:0:0:
192,192,7116,1,0,0:0:0:0:
448,192,7199,1,0,0:0:0:0:
320,192,7282,1,0,0:0:0:0:
64,192,7366,1,2,0:0:0:0:
192,192,7366,1,0,0:0:0:0:
448,192,7532,1,0,0:0:0:0:
64,192,7699,1,2,0:0:0:0:
320,192,7699,1,0,0:0:0:0:
192,192,7866,1,0,0:0:0:0:
64,192,8032,128,0,8199:0:0:0:0:
448,192,8032,1,2,0:0:0:0:
192,192,8199,1,0,0:0:0:0:
320,192,8366,1,2,0:0:0:0:
448,192,8366,1,0,0:0:0:0:
64,192,8532,128,0,8699:0:0:0:0:
192,192,8699,1,0,0:0:0:0:
320,192,8699,1,2,0:0:0:0:
448,192,8866,1,0,0:0:0:0:
64,192,9032,128,0,9199:0:0:0:0:
320,192,9032,1,2,0:0:0:0:
192,192,9199,1,0,0:0:0:0:
448,192,9366,1,2,0:0:0:0:
64,192,9366,1,0,0:0:0:0:
320,192,9532,128,0,9699:0:0:0:0:
192,192,9699,1,2,0:0:0:0:
448,192,9699,1,0,0:0:0:0:
64,192,9782,1,0,0:0:0:0:
320,192,9866,1,0,0:0:0:0:
192,192,9949,1,0,0:0:0:0:
64,192,10032,1,2,0:0:0:0:
448,192,10032,1,0,0:0:0:0:
320,192,10199,1,0,0:0:0:0:
64,192,10366,1,2,0:0:0:0:
192,192,10366,1,0,0:0:0:0:
320,192,10532,1,0,0:0:0:0:
192,192,10699,128,4,10866:0:0:0:0:
448,192,10699,1,2,0:0:0:0:
320,192,10699,1,0,0:0:0:0:
64,192,10866,1,0,0:0:0:0:
320,192,11032,1,2,0:0:0:0:
448,192,11032,1,8,0:0:0:0:
192,192,11199,128,0,11366:0:0:0:0:
64,192,11366,1,2,0:0:0:0:
320,192,11366,1,0,0:0:0:0:
448,192,11532,1,0,0:0:0:0:
192,192,11699,128,8,11866:0:0:0:0:
64,192,11699,1,2,0:0:0:0:
320,192,11866,1,0,0:0:0:0:
64,192,12032,1,2,0:0:0:0:
192,192,12032,1,0,0:0:0:0:
320,192,12199,1,0,0:0:0:0:
64,192,12366,1,8,0:0:0:0:
448,192,12366,1,2,0:0:0:0:
320,192,12449,1,0,0:0:0:0:
192,192,12532,1,0,0:0:0:0:
448,192,12616,1,0,0:0:0:0:
64,192,12699,1,2,0:0:0:0:
320,192,12699,1,0,0:0:0:0:
448,192,12866,1,0,0:0:0:0:
192,192,13032,1,8,0:0:0:0:
64,192,13032,1,2,0:0:0:0:
448,192,13199,1,0,0:0:0:0:
320,192,13366,128,0,13532:0:0:0:0:
192,192,13366,1,2,0:0:0:0:
64,192,13532,1,0,0:0:0:0:
192,192,13699,1,2,0:0:0:0:
448,192,13699,1,8,0:0:0:0:
320,192,13866,128,0,14032:0:0:0:0:
192,192,14032,1,2,0:0:0:0:
64,192,14032,1,0,0:0:0:0:
448,192,14199,1,0,0:0:0:0:
320,192,14366,128,8,14532:0:0:0:0:
192,192,14366,1,2,0:0:0:0:
64,192,14532,1,0,0:0:0:0:
192,192,14699,1,2,0:0:0:0:
448,192,14699,1,8,0:0:0:0:
320,192,14866,128,0,15032:0:0:0:0:
64,192,15032,1,2,0:0:0:0:
448,192,15032,1,8,0:0:0:0:
320,192,15116,1,0,0:0:0:0:
192,192,15199,1,0,0:0:0:0:
448,192,15282,1,0,0:0:0:0:
64,192,15366,1,8,0:0:0:0:
320,192,15366,1,2,0:0:0:0:
192,192,15532,1,0,0:0:0:0:
448,192,15699,1,8,0:0:0:0:
320,192,15699,1,2,0:0:0:0:
192,192,16032,128,4,16366:0:0:0:0:
64,192,16032,1,2,0:0:0:0:
448,192,16032,1,0,0:0:0:0:
320,192,16199,1,0,0:0:0:0:
448,192,16366,1,8,0:0:0:0:
64,192,16366,1,2,0:0:0:0:
320,192,16532,1,0,0:0:0:0:
192,192,16699,128,0,17032:0:0:0:0:
64,192,16699,1,2,0:0:0:0:
320,192,16866,1,0,0:0:0:0:
448,192,17032,1,8,0:0:0:0:
64,192,17032,1,2,0:0:0:0:
192,192,17199,1,0,0:0:0:0:
448,192,17366,128,0,17699:0:0:0:0:
320,192,17366,1,2,0:0:0:0:
192,192,17532,1,0,0:0:0:0:
64,192,17699,1,8,0:0:0:0:
320,192,17699,1,2,0:0:0:0:
192,192,17782,1,0,0:0:0:0:
448,192,17866,1,0,0:0:0:0:
320,192,17949,1,0,0:0:0:0:
64,192,18032,1,2,0:0:0:0:
448,192,18116,1,0,0:0:0:0:
320,192,18199,1,0,0:0:0:0:
192,192,18282,1,0,0:0:0:0:
448,192,18366,1,8,0:0:0:0:
64,192,18366,1,2,0:0:0:0:
320,192,18421,1,0,0:0:0:0:
192,192,18477,1,0,0:0:0:0:
64,192,18532,1,0,0:0:0:0:
448,192,18588,1,0,0:0:0:0:
320,192,18644,1,0,0:0:0:0:
192,192,18699,128,2,19032:0:0:0:0:
64,192,18866,1,0,0:0:0:0:
320,192,19032,1,2,0:0:0:0:
448,192,19032,1,8,0:0:0:0:
192,192,19199,1,0,0:0:0:0:
448,192,19366,128,0,19699:0:0:0:0:
64,192,19366,1,2,0:0:0:0:
320,192,19532,1,0,0:0:0:0:
192,192,19699,1,8,0:0:0:0:
64,192,19699,1,2,0:0:0:0:
320,192,19866,1,0,0:0:0:0:
192,192,20032,128,2,20366:0:0:0:0:
448,192,20032,1,0,0:0:0:0:
64,192,20199,1,0,0:0:0:0:
448,192,20366,1,2,0:0:0:0:
320,192,20366,1,8,0:0:0:0:
64,192,20449,1,0,0:0:0:0:
192,192,20532,1,0,0:0:0:0:
320,192,20616,1,0,0:0:0:0:
448,192,20699,1,2,0:0:0:0:
64,192,20782,1,0,0:0:0:0:
448,192,20866,1,0,0:0:0:0:
192,192,20949,1,0,0:0:0:0:
64,192,21032,1,2,0:0:0:0:
320,192,21032,1,8,0:0:0:0:
192,192,21088,1,0,0:0:0:0:
448,192,21144,1,0,0:0:0:0:
320,192,21199,1,0,0:0:0:0:
192,192,21255,1,0,0:0:0:0:
64,192,21310,1,0,0:0:0:0:
320,192,21366,128,2,21699:0:0:0:0:
192,192,21532,1,0,0:0:0:0:
448,192,21699,1,8,0:0:0:0:
64,192,21699,1,2,0:0:0:0:
320,192,21866,1,0,0:0:0:0:
192,192,22032,128,0,22366:0:0:0:0:
64,192,22032,1,2,0:0:0:0:
448,192,22199,1,0,0:0:0:0:
320,192,22366,1,8,0:0:0:0:
64,192,22366,1,2,0:0:0:0:
192,192,22532,1,0,0:0:0:0:
448,192,22699,128,0,23032:0:0:0:0:
320,192,22699,1,2,0:0:0:0:
192,192,22866,1,0,0:0:0:0:
64,192,23032,1,2,0:0:0:0:
320,192,23032,1,8,0:0:0:0:
448,192,23116,1,0,0:0:0:0:
192,192,23199,1,0,0:0:0:0:
320,192,23282,1,0,0:0:0:0:
64,192,23366,1,2,0:0:0:0:
192,192,23449,1,0,0:0:0:0:
320,192,23532,1,0,0:0:0:0:
64,192,23616,1,0,0:0:0:0:
448,192,23699,1,2,0:0:0:0:
320,192,23699,1,8,0:0:0:0:
192,192,23755,1,0,0:0:0:0:
64,192,23810,1,0,0:0:0:0:
448,192,23866,1,0,0:0:0:0:
320,192,23921,1,0,0:0:0:0:
192,192,23977,1,0,0:0:0:0:
64,192,24032,128,2,24366:0:0:0:0:
192,192,24199,1,0,0:0:0:0:
320,192,24366,1,2,0:0:0:0:
448,192,24366,1,8,0:0:0:0:
192,192,24532,1,0,0:0:0:0:
64,192,24699,128,0,25032:0:0:0:0:
320,192,24699,1,2,0:0:0:0:
448,192,24866,1,0,0:0:0:0:
192,192,25032,1,2,0:0:0:0:
320,192,25032,1,8,0:0:0:0:
64,192,25199,1,0,0:0:0:0:
320,192,25366,128,0,25699:0:0:0:0:
448,192,25366,1,2,0:0:0:0:
192,192,25532,1,0,0:0:0:0:
448,192,25699,1,8,0:0:0:0:
64,192,25699,1,2,0:0:0:0:
320,192,25782,1,0,0:0:0:0:
192,192,25866,1,0,0:0:0:0:
64,192,25949,1,0,0:0:0:0:
192,192,26032,1,2,0:0:0:0:
320,192,26116,1,0,0:0:0:0:
448,192,26199,1,0,0:0:0:0:
192,192,26282,1,0,0:0:0:0:
64,192,26366,1,0,0:0:0:0:
320,192,26421,1,0,0:0:0:0:
192,192,26477,1,0,0:0:0:0:
448,192,26532,1,0,0:0:0:0:
320,192,26588,1,0,0:0:0:0:
64,192,26644,1,0,0:0:0:0:
192,192,26699,128,2,27032:0:0:0:0:
448,192,26699,1,4,0:0:0:0:
320,192,26866,1,0,0:0:0:0:
448,192,27032,1,8,0:0:0:0:
64,192,27032,1,2,0:0:0:0:
192,192,27199,1,0,0:0:0:0:
320,192,27366,128,0,27699:0:0:0:0:
448,192,27366,1,2,0:0:0:0:
192,192,27532,1,0,0:0:0:0:
64,192,27699,128,8,28032:0:0:0:0:
448,192,27699,1,2,0:0:0:0:
320,192,27866,1,0,0:0:0:0:
448,192,28032,128,0,28366:0:0:0:0:
192,192,28032,1,2,0:0:0:0:
64,192,28199,1,0,0:0:0:0:
192,192,28366,1,2,0:0:0:0:
320,192,28366,1,8,0:0:0:0:
64,192,28449,1,0,0:0:0:0:
448,192,28532,1,0,0:0:0:0:
320,192,28616,1,0,0:0:0:0:
64,192,28699,1,2,0:0:0:0:
448,192,28782,1,0,0:0:0:0:
192,192,28866,1,0,0:0:0:0:
448,192,28949,1,0,0:0:0:0:
64,192,29032,1,2,0:0:0:0:
192,192,29032,1,8,0:0:0:0:
320,192,29088,1,0,0:0:0:0:
448,192,29144,1,0,0:0:0:0:
64,192,29199,1,0,0:0:0:0:
320,192,29255,1,0,0:0:0:0:
448,192,29310,1,0,0:0:0:0:
192,192,29366,128,2,29699:0:0:0:0:
64,192,29532,1,0,0:0:0:0:
320,192,29699,1,8,0:0:0:0:
448,192,29699,1,2,0:0:0:0:
192,192,29866,1,0,0:0:0:0:
320,192,30032,128,0,30366:0:0:0:0:
448,192,30032,1,2,0:0:0:0:
64,192,30199,1,0,0:0:0:0:
448,192,30366,128,8,30699:0:0:0:0:
192,192,30366,1,2,0:0:0:0:
320,192,30532,1,0,0:0:0:0:
192,192,30699,128,0,31032:0:0:0:0:
64,192,30699,1,2,0:0:0:0:
448,192,30866,1,0,0:0:0:0:
64,192,31032,1,2,0:0:0:0:
320,192,31032,1,8,0:0:0:0:
448,192,31116,1,0,0:0:0:0:
192,192,31199,1,0,0:0:0:0:
64,192,31282,1,0,0:0:0:0:
320,192,31366,1,2,0:0:0:0:
192,192,31449,1,0,0:0:0:0:
64,192,31532,1,0,0:0:0:0:
320,192,31616,1,0,0:0:0:0:
448,192,31699,1,2,0:0:0:0:
64,192,31699,1,8,0:0:0:0:
192,192,31755,1,0,0:0:0:0:
320,192,31810,1,0,0:0:0:0:
448,192,31866,1,0,0:0:0:0:
64,192,31921,1,0,0:0:0:0:
320,192,31977,1,0,0:0:0:0:
192,192,32032,128,2,32366:0:0:0:0:
448,192,32199,1,0,0:0:0:0:
320,192,32366,1,2,0:0:0:0:
64,192,32366,1,8,0:0:0:0:
192,192,32532,1,0,0:0:0:0:
320,192,32699,128,0,33032:0:0:0:0:
64,192,32699,1,2,0:0:0:0:
192,192,32866,1,0,0:0:0:0:
64,192,33032,128,8,33366:0:0:0:0:
448,192,33032,1,2,0:0:0:0:
320,192,33199,1,0,0:0:0:0:
448,192,33366,128,0,33699:0:0:0:0:
192,192,33366,1,2,0:0:0:0:
64,192,33532,1,0,0:0:0:0:
192,192,33699,1,2,0:0:0:0:
320,192,33699,1,8,0:0:0:0:
64,192,33782,1,0,0:0:0:0:
320,192,33866,1,0,0:0:0:0:
448,192,33949,1,0,0:0:0:0:
192,192,34032,1,2,0:0:0:0:
320,192,34116,1,0,0:0:0:0:
448,192,34199,1,0,0:0:0:0:
192,192,34282,1,0,0:0:0:0:
64,192,34366,1,2,0:0:0:0:
320,192,34366,1,8,0:0:0:0:
448,192,34421,1,0,0:0:0:0:
192,192,34477,1,0,0:0:0:0:
320,192,34532,1,0,0:0:0:0:
64,192,34588,1,0,0:0:0:0:
448,192,34644,1,0,0:0:0:0:
192,192,34699,128,2,35032:0:0:0:0:
320,192,34866,1,0,0:0:0:0:
64,192,35032,1,2,0:0:0:0:
448,192,35032,1,8,0:0:0:0:
192,192,35199,1,0,0:0:0:0:
448,192,35366,128,0,35699:0:0:0:0:
64,192,35366,1,2,0:0:0:0:
320,192,35532,1,0,0:0:0:0:
64,192,35699,128,2,36032:0:0:0:0:
192,192,35699,1,8,0:0:0:0:
448,192,35866,1,0,0:0:0:0:
320,192,36032,128,8,36366:0:0:0:0:
192,192,36032,1,2,0:0:0:0:
64,192,36199,1,0,0:0:0:0:
448,192,36366,1,8,0:0:0:0:
192,192,36366,1,2,0:0:0:0:
64,192,36449,1,0,0:0:0:0:
320,192,36532,1,0,0:0:0:0:
192,192,36616,1,0,0:0:0:0:
448,192,36699,128,0,37032:0:0:0:0:
192,192,37032,128,0,37366:0:0:0:0:
448,192,37366,128,6,38366:0:0:0:0:
320,192,37366,1,0,0:0:0:0:
64,192,37366,1,0,0:0:0:0:
64,192,37699,128,0,38032:0:0:0:0:
192,192,38032,128,0,38366:0:0:0:0:
320,192,38366,128,0,38699:0:0:0:0:
192,192,38699,128,0,39032:0:0:0:0:
448,192,38699,128,8,38866:0:0:0:0:
64,192,39032,128,0,39366:0:0:0:0:
448,192,39366,128,0,39699:0:0:0:0:
192,192,39699,128,0,40032:0:0:0:0:
320,192,40032,128,2,40366:0:0:0:0:
64,192,40032,1,0,0:0:0:0:
192,192,40366,128,0,40699:0:0:0:0:
448,192,40699,128,0,41032:0:0:0:0:
64,192,41032,128,0,41366:0:0:0:0:
320,192,41366,128,8,42699:0:0:0:0:
192,192,41366,128,0,42032:0:0:0:0:
448,192,42032,128,0,42699:0:0:0:0:
64,192,42699,1,2,0:0:0:0:
192,192,42699,1,4,0:0:0:0:
448,192,42866,1,0,0:0:0:0:
192,192,42949,1,0,0:0:0:0:
64,192,43032,1,2,0:0:0:0:
320,192,43032,1,8,0:0:0:0:
192,192,43199,1,0,0:0:0:0:
448,192,43366,1,0,0:0:0:0:
320,192,43366,1,2,0:0:0:0:
448,192,43532,1,0,0:0:0:0:
64,192,43699,1,2,0:0:0:0:
320,192,43699,1,8,0:0:0:0:
192,192,43866,1,0,0:0:0:0:
320,192,44032,1,2,0:0:0:0:
448,192,44032,1,0,0:0:0:0:
192,192,44199,1,0,0:0:0:0:
64,192,44282,1,0,0:0:0:0:
320,192,44366,1,8,0:0:0:0:
448,192,44366,1,2,0:0:0:0:
192,192,44532,1,0,0:0:0:0:
64,192,44699,1,2,0:0:0:0:
320,192,44699,1,0,0:0:0:0:
64,192,44866,1,0,0:0:0:0:
192,192,45032,1,2,0:0:0:0:
448,192,45032,1,8,0:0:0:0:
320,192,45199,1,0,0:0:0:0:
64,192,45366,1,2,0:0:0:0:
192,192,45366,1,0,0:0:0:0:
448,192,45532,1,0,0:0:0:0:
320,192,45616,1,0,0:0:0:0:
192,192,45699,1,8,0:0:0:0:
64,192,45699,1,2,0:0:0:0:
448,192,45866,1,0,0:0:0:0:
320,192,46032,1,0,0:0:0:0:
192,192,46032,1,2,0:0:0:0:
320,192,46199,1,0,0:0:0:0:
64,192,46366,1,2,0:0:0:0:
448,192,46366,1,8,0:0:0:0:
320,192,46532,1,0,0:0:0:0:
64,192,46699,1,2,0:0:0:0:
192,192,46699,1,4,0:0:0:0:
320,192,46782,1,2,0:0:0:0:
448,192,46782,1,4,0:0:0:0:
320,192,46949,1,2,0:0:0:0:
448,192,46949,1,4,0:0:0:0:
192,192,47116,1,4,0:0:0:0:
64,192,47116,1,2,0:0:0:0:
448,192,47282,1,4,0:0:0:0:
320,192,47282,1,2,0:0:0:0:
192,192,47366,1,4,0:0:0:0:
64,192,47366,1,2,0:0:0:0:
192,192,47532,1,4,0:0:0:0:
64,192,47532,1,2,0:0:0:0:
448,192,47699,1,0,0:0:0:0:
320,192,47782,1,0,0:0:0:0:
192,192,47866,1,0,0:0:0:0:
64,192,48032,1,6,0:0:0:0:
448,192,48032,1,0,0:0:0:0:
320,192,48032,1,0,0:0:0:0:
192,192,48116,1,0,0:0:0:0:
320,192,48199,1,0,0:0:0:0:
448,192,48282,1,0,0:0:0:0:
320,192,48366,1,2,0:0:0:0:
64,192,48366,1,8,0:0:0:0:
192,192,48449,1,0,0:0:0:0:
448,192,48532,1,0,0:0:0:0:
320,192,48616,1,0,0:0:0:0:
64,192,48699,128,2,49032:0:0:0:0:
448,192,48782,1,0,0:0:0:0:
192,192,48866,1,0,0:0:0:0:
320,192,48949,1,0,0:0:0:0:
448,192,49032,1,2,0:0:0:0:
192,192,49032,1,8,0:0:0:0:
64,192,49116,1,0,0:0:0:0:
192,192,49199,1,0,0:0:0:0:
320,192,49282,1,0,0:0:0:0:
448,192,49366,1,2,0:0:0:0:
64,192,49449,1,0,0:0:0:0:
320,192,49532,1,0,0:0:0:0:
192,192,49616,1,0,0:0:0:0:
448,192,49699,1,2,0:0:0:0:
64,192,49699,1,8,0:0:0:0:
320,192,49755,1,0,0:0:0:0:
192,192,49810,1,0,0:0:0:0:
64,192,49866,1,0,0:0:0:0:
320,192,49921,1,0,0:0:0:0:
448,192,49977,1,0,0:0:0:0:
192,192,50032,1,2,0:0:0:0:
64,192,50116,1,0,0:0:0:0:
320,192,50199,1,0,0:0:0:0:
192,192,50282,1,0,0:0:0:0:
448,192,50366,1,2,0:0:0:0:
320,192,50366,1,8,0:0:0:0:
64,192,50449,1,0,0:0:0:0:
320,192,50532,1,0,0:0:0:0:
448,192,50616,1,0,0:0:0:0:
192,192,50699,128,2,51032:0:0:0:0:
320,192,50866,1,0,0:0:0:0:
64,192,50949,1,0,0:0:0:0:
448,192,51032,128,2,51366:0:0:0:0:
320,192,51032,1,8,0:0:0:0:
64,192,51199,1,0,0:0:0:0:
192,192,51282,1,0,0:0:0:0:
320,192,51366,128,2,51699:0:0:0:0:
448,192,51532,1,0,0:0:0:0:
192,192,51616,1,0,0:0:0:0:
64,192,51699,128,8,52032:0:0:0:0:
448,192,51699,1,2,0:0:0:0:
320,192,51866,1,0,0:0:0:0:
192,192,51949,1,0,0:0:0:0:
448,192,52032,128,2,52366:0:0:0:0:
64,192,52199,1,0,0:0:0:0:
320,192,52282,1,0,0:0:0:0:
192,192,52366,128,8,52699:0:0:0:0:
64,192,52366,1,2,0:0:0:0:
448,192,52449,1,0,0:0:0:0:
320,192,52532,1,0,0:0:0:0:
64,192,52616,1,0,0:0:0:0:
448,192,52699,1,2,0:0:0:0:
320,192,52782,1,0,0:0:0:0:
64,192,52866,1,0,0:0:0:0:
192,192,52949,1,0,0:0:0:0:
320,192,53032,128,8,53366:0:0:0:0:
64,192,53032,1,2,0:0:0:0:
448,192,53116,1,0,0:0:0:0:
64,192,53199,1,0,0:0:0:0:
448,192,53282,1,0,0:0:0:0:
192,192,53366,1,2,0:0:0:0:
320,192,53449,1,0,0:0:0:0:
64,192,53532,1,0,0:0:0:0:
448,192,53616,1,0,0:0:0:0:
192,192,53699,1,8,0:0:0:0:
320,192,53699,1,2,0:0:0:0:
64,192,53782,1,0,0:0:0:0:
448,192,53866,1,0,0:0:0:0:
320,192,53949,1,0,0:0:0:0:
192,192,54032,128,2,54366:0:0:0:0:
64,192,54116,1,0,0:0:0:0:
448,192,54199,1,0,0:0:0:0:
320,192,54282,1,0,0:0:0:0:
448,192,54366,1,8,0:0:0:0:
64,192,54366,1,2,0:0:0:0:
192,192,54449,1,0,0:0:0:0:
64,192,54532,1,0,0:0:0:0:
320,192,54616,1,0,0:0:0:0:
448,192,54699,1,2,0:0:0:0:
192,192,54782,1,0,0:0:0:0:
64,192,54866,1,0,0:0:0:0:
320,192,54949,1,0,0:0:0:0:
192,192,55032,1,8,0:0:0:0:
64,192,55032,1,2,0:0:0:0:
448,192,55088,1,0,0:0:0:0:
320,192,55144,1,0,0:0:0:0:
192,192,55199,1,0,0:0:0:0:
64,192,55255,1,0,0:0:0:0:
320,192,55310,1,0,0:0:0:0:
448,192,55366,128,2,55699:0:0:0:0:
192,192,55532,1,0,0:0:0:0:
320,192,55616,1,0,0:0:0:0:
64,192,55699,1,10,0:0:0:0:
192,192,55699,1,0,0:0:0:0:
448,192,55782,1,0,0:0:0:0:
320,192,55866,1,0,0:0:0:0:
64,192,55949,1,0,0:0:0:0:
192,192,56032,128,2,56366:0:0:0:0:
320,192,56199,1,0,0:0:0:0:
448,192,56282,1,0,0:0:0:0:
320,192,56366,128,8,56699:0:0:0:0:
64,192,56366,1,2,0:0:0:0:
64,192,56532,1,0,0:0:0:0:
448,192,56616,1,0,0:0:0:0:
192,192,56699,128,2,57032:0:0:0:0:
320,192,56866,1,0,0:0:0:0:
448,192,56949,1,0,0:0:0:0:
64,192,57032,128,8,57366:0:0:0:0:
320,192,57032,1,2,0:0:0:0:
192,192,57199,1,0,0:0:0:0:
320,192,57282,1,0,0:0:0:0:
192,192,57366,1,2,0:0:0:0:
448,192,57366,1,8,0:0:0:0:
320,192,57449,1,0,0:0:0:0:
64,192,57532,1,0,0:0:0:0:
192,192,57616,1,0,0:0:0:0:
320,192,57699,1,2,0:0:0:0:
448,192,57699,1,8,0:0:0:0:
64,192,57782,1,0,0:0:0:0:
320,192,57866,1,0,0:0:0:0:
448,192,57949,1,0,0:0:0:0:
192,192,58032,1,8,0:0:0:0:
64,192,58032,1,2,0:0:0:0:
320,192,58116,1,0,0:0:0:0:
448,192,58199,1,0,0:0:0:0:
192,192,58282,1,0,0:0:0:0:
320,192,58366,1,8,0:0:0:0:
64,192,58366,1,2,0:0:0:0:
448,192,58449,1,0,0:0:0:0:
192,192,58532,1,0,0:0:0:0:
64,192,58616,1,0,0:0:0:0:
320,192,58699,1,2,0:0:0:0:
448,192,58699,1,4,0:0:0:0:
192,192,58699,1,0,0:0:0:0:
64,192,58782,1,0,0:0:0:0:
320,192,58866,1,0,0:0:0:0:
192,192,58949,1,0,0:0:0:0:
448,192,59032,1,8,0:0:0:0:
64,192,59032,1,2,0:0:0:0:
320,192,59116,1,0,0:0:0:0:
192,192,59199,1,0,0:0:0:0:
64,192,59282,1,0,0:0:0:0:
192,192,59366,128,2,59699:0:0:0:0:
320,192,59449,1,0,0:0:0:0:
448,192,59532,1,0,0:0:0:0:
64,192,59616,1,0,0:0:0:0:
320,192,59699,1,2,0:0:0:0:
448,192,59699,1,8,0:0:0:0:
192,192,59782,1,0,0:0:0:0:
64,192,59866,1,0,0:0:0:0:
320,192,59949,1,0,0:0:0:0:
448,192,60032,1,2,0:0:0:0:
192,192,60116,1,0,0:0:0:0:
64,192,60199,1,0,0:0:0:0:
320,192,60282,1,0,0:0:0:0:
192,192,60366,1,2,0:0:0:0:
448,192,60366,1,8,0:0:0:0:
320,192,60421,1,0,0:0:0:0:
64,192,60477,1,0,0:0:0:0:
448,192,60532,1,0,0:0:0:0:
192,192,60588,1,0,0:0:0:0:
64,192,60644,1,0,0:0:0:0:
320,192,60699,1,2,0:0:0:0:
448,192,60782,1,0,0:0:0:0:
192,192,60866,1,0,0:0:0:0:
64,192,60949,1,0,0:0:0:0:
320,192,61032,1,8,0:0:0:0:
192,192,61032,1,2,0:0:0:0:
448,192,61116,1,0,0:0:0:0:
320,192,61199,1,0,0:0:0:0:
64,192,61282,1,0,0:0:0:0:
192,192,61366,128,2,61699:0:0:0:0:
320,192,61532,1,0,0:0:0:0:
64,192,61616,1,0,0:0:0:0:
448,192,61699,128,8,62032:0:0:0:0:
320,192,61699,1,2,0:0:0:0:
192,192,61866,1,0,0:0:0:0:
64,192,61949,1,0,0:0:0:0:
320,192,62032,128,2,62366:0:0:0:0:
448,192,62199,1,0,0:0:0:0:
192,192,62282,1,0,0:0:0:0:
64,192,62366,128,2,62699:0:0:0:0:
448,192,62366,1,8,0:0:0:0:
320,192,62532,1,0,0:0:0:0:
448,192,62616,1,0,0:0:0:0:
192,192,62699,128,2,63032:0:0:0:0:
64,192,62866,1,0,0:0:0:0:
448,192,62949,1,0,0:0:0:0:
320,192,63032,128,8,63366:0:0:0:0:
64,192,63032,1,2,0:0:0:0:
192,192,63199,1,0,0:0:0:0:
64,192,63282,1,0,0:0:0:0:
448,192,63366,1,2,0:0:0:0:
192,192,63449,1,0,0:0:0:0:
64,192,63532,1,0,0:0:0:0:
448,192,63616,1,0,0:0:0:0:
320,192,63699,128,8,64032:0:0:0:0:
64,192,63699,1,2,0:0:0:0:
192,192,63782,1,0,0:0:0:0:
64,192,63866,1,0,0:0:0:0:
448,192,63949,1,0,0:0:0:0:
192,192,64032,1,2,0:0:0:0:
320,192,64116,1,0,0:0:0:0:
64,192,64199,1,0,0:0:0:0:
448,192,64282,1,0,0:0:0:0:
192,192,64366,1,2,0:0:0:0:
320,192,64366,1,8,0:0:0:0:
64,192,64449,1,0,0:0:0:0:
320,192,64532,1,0,0:0:0:0:
448,192,64616,1,0,0:0:0:0:
192,192,64699,128,2,65032:0:0:0:0:
320,192,64782,1,0,0:0:0:0:
448,192,64866,1,0,0:0:0:0:
64,192,64949,1,0,0:0:0:0:
320,192,65032,1,2,0:0:0:0:
448,192,65032,1,8,0:0:0:0:
192,192,65116,1,0,0:0:0:0:
64,192,65199,1,0,0:0:0:0:
448,192,65282,1,0,0:0:0:0:
320,192,65366,1,2,0:0:0:0:
64,192,65449,1,0,0:0:0:0:
192,192,65532,1,0,0:0:0:0:
448,192,65616,1,0,0:0:0:0:
64,192,65699,1,2,0:0:0:0:
320,192,65699,1,8,0:0:0:0:
192,192,65755,1,0,0:0:0:0:
320,192,65810,1,0,0:0:0:0:
448,192,65866,1,0,0:0:0:0:
64,192,65921,1,0,0:0:0:0:
320,192,65977,1,0,0:0:0:0:
192,192,66032,128,2,66366:0:0:0:0:
64,192,66116,1,0,0:0:0:0:
320,192,66199,1,0,0:0:0:0:
448,192,66282,1,0,0:0:0:0:
64,192,66366,1,2,0:0:0:0:
320,192,66366,1,8,0:0:0:0:
192,192,66449,1,0,0:0:0:0:
320,192,66532,1,0,0:0:0:0:
64,192,66616,1,0,0:0:0:0:
448,192,66699,128,2,67032:0:0:0:0:
320,192,66866,1,0,0:0:0:0:
64,192,66949,1,0,0:0:0:0:
192,192,67032,128,2,67366:0:0:0:0:
320,192,67032,1,8,0:0:0:0:
448,192,67199,1,0,0:0:0:0:
64,192,67282,1,0,0:0:0:0:
320,192,67366,128,2,67699:0:0:0:0:
192,192,67532,1,0,0:0:0:0:
448,192,67616,1,0,0:0:0:0:
64,192,67699,128,2,68032:0:0:0:0:
192,192,67699,1,8,0:0:0:0:
320,192,67866,1,0,0:0:0:0:
448,192,67949,1,0,0:0:0:0:
192,192,68032,128,2,68366:0:0:0:0:
64,192,68199,1,0,0:0:0:0:
320,192,68282,1,0,0:0:0:0:
448,192,68366,128,0,68699:0:0:0:0:
192,192,68532,1,0,0:0:0:0:
64,192,68616,1,0,0:0:0:0:
320,192,68699,128,0,69032:0:0:0:0:
448,192,68866,1,0,0:0:0:0:
64,192,68949,1,0,0:0:0:0:
192,192,69032,128,0,69366:0:0:0:0:
448,192,69199,1,0,0:0:0:0:
320,192,69282,1,0,0:0:0:0:
64,192,69366,1,2,0:0:0:0:
448,192,69366,128,4,70032:0:0:0:0:
192,192,69477,1,0,0:0:0:0:
64,192,69588,1,0,0:0:0:0:
320,192,69699,1,0,0:0:0:0:
192,192,69810,1,0,0:0:0:0:
64,192,69921,1,0,0:0:0:0:
320,192,70032,128,0,70255:0:0:0:0:
448,192,70144,1,0,0:0:0:0:
192,192,70255,128,0,70477:0:0:0:0:
64,192,70366,1,0,0:0:0:0:
448,192,70477,128,0,70699:0:0:0:0:
320,192,70588,1,0,0:0:0:0:
64,192,70699,128,0,71032:0:0:0:0:
192,192,70810,1,0,0:0:0:0:
320,192,70921,1,0,0:0:0:0:
448,192,71032,128,0,71199:0:0:0:0:
192,192,71144,1,0,0:0:0:0:
320,192,71255,1,0,0:0:0:0:
448,192,71366,128,0,71699:0:0:0:0:
320,192,71477,1,0,0:0:0:0:
64,192,71588,1,0,0:0:0:0:
192,192,71699,128,0,72032:0:0:0:0:
448,192,71810,1,0,0:0:0:0:
64,192,71921,1,0,0:0:0:0:
448,192,72032,128,0,72699:0:0:0:0:
320,192,72144,1,0,0:0:0:0:
192,192,72255,1,0,0:0:0:0:
64,192,72366,1,0,0:0:0:0:
320,192,72477,1,0,0:0:0:0:
192,192,72588,1,0,0:0:0:0:
64,192,72699,128,0,73366:0:0:0:0:
320,192,72810,1,0,0:0:0:0:
192,192,72921,1,0,0:0:0:0:
448,192,73032,1,0,0:0:0:0:
320,192,73144,1,0,0:0:0:0:
192,192,73255,1,0,0:0:0:0:
320,192,73366,128,0,74032:0:0:0:0:
448,192,73477,1,0,0:0:0:0:
192,192,73588,1,0,0:0:0:0:
64,192,73699,1,0,0:0:0:0:
192,192,73810,1,0,0:0:0:0:
448,192,73921,1,0,0:0:0:0:
192,192,74032,128,0,74699:0:0:0:0:
64,192,74144,1,0,0:0:0:0:
448,192,74255,1,0,0:0:0:0:
320,192,74366,1,0,0:0:0:0:
64,192,74477,1,0,0:0:0:0:
448,192,74588,1,0,0:0:0:0:
64,192,74699,128,0,74921:0:0:0:0:
320,192,74810,1,0,0:0:0:0:
448,192,74921,128,0,75144:0:0:0:0:
192,192,75032,1,0,0:0:0:0:
64,192,75144,128,0,75366:0:0:0:0:
192,192,75255,1,0,0:0:0:0:
320,192,75366,128,0,75699:0:0:0:0:
448,192,75477,1,0,0:0:0:0:
64,192,75588,1,0,0:0:0:0:
448,192,75699,128,0,76032:0:0:0:0:
192,192,75810,1,0,0:0:0:0:
64,192,75921,1,0,0:0:0:0:
320,192,76032,128,0,76366:0:0:0:0:
192,192,76144,1,0,0:0:0:0:
448,192,76255,1,0,0:0:0:0:
192,192,76366,128,0,76699:0:0:0:0:
64,192,76477,1,0,0:0:0:0:
448,192,76588,1,0,0:0:0:0:
64,192,76699,128,0,77032:0:0:0:0:
320,192,76810,1,0,0:0:0:0:
448,192,76921,1,0,0:0:0:0:
320,192,77032,128,0,77366:0:0:0:0:
192,192,77144,1,0,0:0:0:0:
448,192,77255,1,0,0:0:0:0:
192,192,77366,128,0,78366:0:0:0:0:
64,192,77477,1,0,0:0:0:0:
448,192,77588,1,0,0:0:0:0:
320,192,77699,1,0,0:0:0:0:
64,192,77810,1,0,0:0:0:0:
448,192,77921,1,0,0:0:0:0:
64,192,78032,1,0,0:0:0:0:
320,192,78144,1,0,0:0:0:0:
448,192,78255,1,0,0:0:0:0:
64,192,78366,128,0,78699:0:0:0:0:
320,192,78477,1,0,0:0:0:0:
192,192,78588,1,0,0:0:0:0:
448,192,78699,128,0,79699:0:0:0:0:
192,192,78810,1,0,0:0:0:0:
320,192,78921,1,0,0:0:0:0:
64,192,79032,1,0,0:0:0:0:
320,192,79144,1,0,0:0:0:0:
192,192,79255,1,0,0:0:0:0:
64,192,79366,1,0,0:0:0:0:
192,192,79477,1,0,0:0:0:0:
320,192,79588,1,0,0:0:0:0:
64,192,79699,128,0,79921:0:0:0:0:
320,192,79810,1,0,0:0:0:0:
448,192,79921,1,0,0:0:0:0:
64,192,80032,1,2,0:0:0:0:
320,192,80032,1,4,0:0:0:0:
192,192,80032,1,0,0:0:0:0:
448,192,80144,1,0,0:0:0:0:
64,192,80255,1,0,0:0:0:0:
192,192,80310,1,0,0:0:0:0:
320,192,80366,1,0,0:0:0:0:
448,192,80477,1,0,0:0:0:0:
320,192,80588,1,0,0:0:0:0:
192,192,80699,1,0,0:0:0:0:
64,192,80810,1,0,0:0:0:0:
320,192,80921,1,0,0:0:0:0:
448,192,80977,1,0,0:0:0:0:
192,192,81032,1,0,0:0:0:0:
64,192,81144,1,0,0:0:0:0:
320,192,81255,1,0,0:0:0:0:
64,192,81366,1,0,0:0:0:0:
448,192,81477,1,0,0:0:0:0:
320,192,81588,1,0,0:0:0:0:
192,192,81644,1,0,0:0:0:0:
64,192,81699,1,0,0:0:0:0:
448,192,81810,1,0,0:0:0:0:
64,192,81921,1,0,0:0:0:0:
448,192,82032,1,0,0:0:0:0:
192,192,82144,1,0,0:0:0:0:
320,192,82255,1,0,0:0:0:0:
64,192,82366,1,0,0:0:0:0:
320,192,82477,1,0,0:0:0:0:
448,192,82588,1,0,0:0:0:0:
64,192,82699,1,0,0:0:0:0:
320,192,82810,1,0,0:0:0:0:
192,192,82921,1,0,0:0:0:0:
320,192,82977,1,0,0:0:0:0:
448,192,83032,1,0,0:0:0:0:
64,192,83144,1,0,0:0:0:0:
192,192,83255,1,0,0:0:0:0:
320,192,83366,1,0,0:0:0:0:
448,192,83477,1,0,0:0:0:0:
64,192,83588,1,0,0:0:0:0:
192,192,83644,1,0,0:0:0:0:
320,192,83699,1,0,0:0:0:0:
448,192,83810,1,0,0:0:0:0:
192,192,83921,1,0,0:0:0:0:
64,192,84032,1,0,0:0:0:0:
320,192,84144,1,0,0:0:0:0:
64,192,84255,1,0,0:0:0:0:
192,192,84310,1,0,0:0:0:0:
448,192,84366,1,0,0:0:0:0:
64,192,84477,1,0,0:0:0:0:
448,192,84588,1,0,0:0:0:0:
192,192,84699,1,0,0:0:0:0:
320,192,84810,1,0,0:0:0:0:
64,192,84921,1,0,0:0:0:0:
192,192,85032,1,0,0:0:0:0:
320,192,85144,1,0,0:0:0:0:
448,192,85255,1,0,0:0:0:0:
64,192,85366,128,2,86699:0:0:0:0:
320,192,85366,128,4,86699:0:0:0:0:
192,192,85366,1,0,0:0:0:0:
192,192,86699,128,0,88032:0:0:0:0:
448,192,86699,128,0,87366:0:0:0:0:
320,192,87366,128,0,87588:0:0:0:0:
64,192,87588,128,0,87810:0:0:0:0:
320,192,87810,128,0,88032:0:0:0:0:
64,192,88032,128,0,89366:0:0:0:0:
448,192,88032,128,0,90032:0:0:0:0:
64,192,91699,128,0,92032:0:0:0:0:
192,192,92032,1,0,0:0:0:0:
448,192,92032,1,0,0:0:0:0:
320,192,92199,1,0,0:0:0:0:
64,192,92366,1,0,0:0:0:0:
448,192,92532,1,0,0:0:0:0:
192,192,92699,1,0,0:0:0:0:
64,192,93032,1,0,0:0:0:0:
192,192,93116,1,0,0:0:0:0:
320,192,93199,1,0,0:0:0:0:
448,192,93282,1,0,0:0:0:0:
192,192,93366,1,0,0:0:0:0:
64,192,93366,1,0,0:0:0:0:
320,192,93532,1,0,0:0:0:0:
192,192,93699,1,0,0:0:0:0:
448,192,93866,1,0,0:0:0:0:
320,192,94032,1,0,0:0:0:0:
64,192,94032,1,0,0:0:0:0:
448,192,94199,1,0,0:0:0:0:
192,192,94366,1,0,0:0:0:0:
64,192,94532,1,0,0:0:0:0:
320,192,94699,1,0,0:0:0:0:
448,192,94699,1,0,0:0:0:0:
192,192,95032,1,0,0:0:0:0:
64,192,95366,1,0,0:0:0:0:
320,192,95699,1,0,0:0:0:0:
192,192,96032,1,0,0:0:0:0:
448,192,96032,1,0,0:0:0:0:
64,192,96366,1,0,0:0:0:0:
320,192,96866,1,0,0:0:0:0:
448,192,97032,1,0,0:0:0:0:
448,192,97366,1,0,0:0:0:0:
320,192,97366,1,0,0:0:0:0:
192,192,97532,1,0,0:0:0:0:
320,192,97699,1,0,0:0:0:0:
192,192,97866,1,0,0:0:0:0:
64,192,98032,1,0,0:0:0:0:
448,192,98366,1,0,0:0:0:0:
320,192,98449,1,0,0:0:0:0:
192,192,98532,1,0,0:0:0:0:
320,192,98616,1,0,0:0:0:0:
64,192,98699,1,0,0:0:0:0:
448,192,98699,1,0,0:0:0:0:
192,192,98866,1,0,0:0:0:0:
448,192,99032,1,0,0:0:0:0:
64,192,99199,1,0,0:0:0:0:
192,192,99699,1,0,0:0:0:0:
320,192,99866,1,0,0:0:0:0:
64,192,100032,1,0,0:0:0:0:
448,192,100032,1,0,0:0:0:0:
320,192,100366,1,0,0:0:0:0:
192,192,100699,1,0,0:0:0:0:
448,192,100699,1,0,0:0:0:0:
64,192,101032,1,0,0:0:0:0:
192,192,101366,1,0,0:0:0:0:
320,192,101366,1,0,0:0:0:0:
448,192,101699,1,0,0:0:0:0:
192,192,102032,1,0,0:0:0:0:
64,192,102032,1,0,0:0:0:0:
320,192,102366,1,0,0:0:0:0:
64,192,102699,1,0,0:0:0:0:
192,192,102699,1,0,0:0:0:0:
448,192,102866,1,0,0:0:0:0:
192,192,103032,1,8,0:0:0:0:
320,192,103032,1,0,0:0:0:0:
64,192,103199,1,0,0:0:0:0:
320,192,103366,1,0,0:0:0:0:
448,192,103366,1,0,0:0:0:0:
64,192,103532,1,0,0:0:0:0:
320,192,103699,1,8,0:0:0:0:
448,192,103699,1,0,0:0:0:0:
192,192,103782,1,0,0:0:0:0:
64,192,103866,1,0,0:0:0:0:
448,192,103949,1,0,0:0:0:0:
192,192,104032,1,0,0:0:0:0:
320,192,104032,1,0,0:0:0:0:
64,192,104199,1,0,0:0:0:0:
192,192,104366,1,8,0:0:0:0:
448,192,104366,1,0,0:0:0:0:
320,192,104532,1,0,0:0:0:0:
64,192,104699,1,0,0:0:0:0:
192,192,104699,1,0,0:0:0:0:
448,192,104866,1,0,0:0:0:0:
320,192,105032,1,0,0:0:0:0:
64,192,105032,1,8,0:0:0:0:
192,192,105199,1,0,0:0:0:0:
448,192,105366,1,0,0:0:0:0:
320,192,105366,1,0,0:0:0:0:
64,192,105532,1,0,0:0:0:0:
192,192,105699,1,8,0:0:0:0:
448,192,105699,1,0,0:0:0:0:
320,192,105866,1,0,0:0:0:0:
64,192,106032,1,0,0:0:0:0:
448,192,106032,1,0,0:0:0:0:
192,192,106199,1,0,0:0:0:0:
320,192,106366,1,8,0:0:0:0:
448,192,106366,1,0,0:0:0:0:
64,192,106532,1,0,0:0:0:0:
192,192,106699,1,0,0:0:0:0:
320,192,106699,1,0,0:0:0:0:
448,192,106866,1,0,0:0:0:0:
64,192,107032,1,0,0:0:0:0:
320,192,107032,1,8,0:0:0:0:
192,192,107199,1,0,0:0:0:0:
448,192,107366,1,0,0:0:0:0:
64,192,107366,1,0,0:0:0:0:
320,192,107532,1,0,0:0:0:0:
192,192,107699,1,8,0:0:0:0:
448,192,107699,1,0,0:0:0:0:
64,192,107866,1,0,0:0:0:0:
192,192,108032,1,0,0:0:0:0:
320,192,108032,1,0,0:0:0:0:
448,192,108199,1,0,0:0:0:0:
64,192,108366,1,0,0:0:0:0:
192,192,108366,1,8,0:0:0:0:
320,192,108532,1,0,0:0:0:0:
448,192,108699,1,0,0:0:0:0:
192,192,108699,1,0,0:0:0:0:
64,192,108866,1,0,0:0:0:0:
320,192,109032,1,8,0:0:0:0:
448,192,109032,1,0,0:0:0:0:
64,192,109116,1,0,0:0:0:0:
192,192,109199,1,0,0:0:0:0:
320,192,109282,1,0,0:0:0:0:
64,192,109366,1,0,0:0:0:0:
448,192,109366,1,0,0:0:0:0:
192,192,109532,1,0,0:0:0:0:
448,192,109699,1,0,0:0:0:0:
320,192,109699,1,8,0:0:0:0:
64,192,109866,1,0,0:0:0:0:
192,192,110032,1,0,0:0:0:0:
320,192,110032,1,0,0:0:0:0:
448,192,110199,1,0,0:0:0:0:
64,192,110366,1,0,0:0:0:0:
320,192,110366,1,8,0:0:0:0:
192,192,110532,1,0,0:0:0:0:
320,192,110699,1,0,0:0:0:0:
448,192,110699,1,0,0:0:0:0:
64,192,110866,1,0,0:0:0:0:
192,192,111032,1,8,0:0:0:0:
320,192,111032,1,0,0:0:0:0:
448,192,111199,1,0,0:0:0:0:
64,192,111366,1,0,0:0:0:0:
192,192,111366,1,0,0:0:0:0:
448,192,111532,1,0,0:0:0:0:
192,192,111699,1,8,0:0:0:0:
320,192,111699,1,0,0:0:0:0:
64,192,111866,1,0,0:0:0:0:
320,192,112032,1,0,0:0:0:0:
448,192,112032,1,0,0:0:0:0:
192,192,112199,1,0,0:0:0:0:
64,192,112366,1,0,0:0:0:0:
320,192,112366,1,8,0:0:0:0:
448,192,112532,1,0,0:0:0:0:
192,192,112699,1,0,0:0:0:0:
64,192,112699,1,0,0:0:0:0:
320,192,112866,1,0,0:0:0:0:
192,192,113032,1,8,0:0:0:0:
448,192,113032,1,0,0:0:0:0:
64,192,113032,1,2,0:0:0:0:
64,192,113366,128,0,113532:0:0:0:0:
320,192,113366,1,2,0:0:0:0:
192,192,113532,128,0,113699:0:0:0:0:
448,192,113699,128,0,113866:0:0:0:0:
320,192,113866,128,0,114032:0:0:0:0:
64,192,114032,128,0,114366:0:0:0:0:
448,192,114366,1,8,0:0:0:0:
192,192,114366,1,2,0:0:0:0:
320,192,114449,1,0,0:0:0:0:
64,192,114532,1,0,0:0:0:0:
192,192,114616,1,0,0:0:0:0:
448,192,114699,1,4,0:0:0:0:
320,192,114699,1,2,0:0:0:0:
64,192,114699,1,0,0:0:0:0:
192,192,114866,1,0,0:0:0:0:
64,192,114949,1,0,0:0:0:0:
448,192,115032,1,8,0:0:0:0:
192,192,115032,1,2,0:0:0:0:
320,192,115088,1,0,0:0:0:0:
64,192,115144,1,0,0:0:0:0:
192,192,115199,1,0,0:0:0:0:
320,192,115255,1,0,0:0:0:0:
448,192,115310,1,0,0:0:0:0:
192,192,115366,1,2,0:0:0:0:
64,192,115449,1,0,0:0:0:0:
320,192,115532,1,0,0:0:0:0:
192,192,115616,1,0,0:0:0:0:
448,192,115699,1,8,0:0:0:0:
320,192,115699,1,2,0:0:0:0:
64,192,115782,1,0,0:0:0:0:
192,192,115866,1,0,0:0:0:0:
320,192,115949,1,0,0:0:0:0:
448,192,116032,128,2,116366:0:0:0:0:
64,192,116199,1,0,0:0:0:0:
320,192,116282,1,0,0:0:0:0:
192,192,116366,128,8,116699:0:0:0:0:
64,192,116366,1,2,0:0:0:0:
448,192,116532,1,0,0:0:0:0:
64,192,116616,1,0,0:0:0:0:
320,192,116699,128,2,117032:0:0:0:0:
192,192,116866,1,0,0:0:0:0:
64,192,116949,1,0,0:0:0:0:
448,192,117032,128,8,117366:0:0:0:0:
192,192,117032,1,2,0:0:0:0:
320,192,117199,1,0,0:0:0:0:
192,192,117282,1,0,0:0:0:0:
64,192,117366,128,2,117699:0:0:0:0:
448,192,117532,1,0,0:0:0:0:
192,192,117616,1,0,0:0:0:0:
320,192,117699,128,2,118032:0:0:0:0:
448,192,117699,1,8,0:0:0:0:
64,192,117866,1,0,0:0:0:0:
448,192,117949,1,0,0:0:0:0:
192,192,118032,1,2,0:0:0:0:
64,192,118116,1,0,0:0:0:0:
448,192,118199,1,0,0:0:0:0:
192,192,118282,1,0,0:0:0:0:
320,192,118366,128,8,118699:0:0:0:0:
64,192,118366,1,2,0:0:0:0:
448,192,118449,1,0,0:0:0:0:
192,192,118532,1,0,0:0:0:0:
64,192,118616,1,0,0:0:0:0:
448,192,118699,1,2,0:0:0:0:
320,192,118782,1,0,0:0:0:0:
192,192,118866,1,0,0:0:0:0:
64,192,118949,1,0,0:0:0:0:
448,192,119032,1,8,0:0:0:0:
320,192,119032,1,2,0:0:0:0:
192,192,119116,1,0,0:0:0:0:
320,192,119199,1,0,0:0:0:0:
448,192,119282,1,0,0:0:0:0:
192,192,119366,1,2,0:0:0:0:
64,192,119449,1,0,0:0:0:0:
320,192,119532,1,0,0:0:0:0:
192,192,119616,1,0,0:0:0:0:
448,192,119699,1,8,0:0:0:0:
320,192,119699,1,2,0:0:0:0:
64,192,119782,1,0,0:0:0:0:
192,192,119866,1,0,0:0:0:0:
320,192,119949,1,0,0:0:0:0:
448,192,120032,1,2,0:0:0:0:
64,192,120116,1,0,0:0:0:0:
320,192,120199,1,0,0:0:0:0:
192,192,120282,1,0,0:0:0:0:
64,192,120366,1,2,0:0:0:0:
320,192,120366,1,8,0:0:0:0:
192,192,120421,1,0,0:0:0:0:
448,192,120477,1,0,0:0:0:0:
320,192,120532,1,0,0:0:0:0:
192,192,120588,1,0,0:0:0:0:
64,192,120644,1,0,0:0:0:0:
448,192,120699,128,2,121032:0:0:0:0:
320,192,120782,1,0,0:0:0:0:
192,192,120866,1,0,0:0:0:0:
64,192,120949,1,0,0:0:0:0:
320,192,121032,1,8,0:0:0:0:
192,192,121032,1,2,0:0:0:0:
448,192,121116,1,0,0:0:0:0:
192,192,121199,1,0,0:0:0:0:
320,192,121282,1,0,0:0:0:0:
448,192,121366,128,2,121699:0:0:0:0:
64,192,121532,1,0,0:0:0:0:
320,192,121616,1,0,0:0:0:0:
192,192,121699,128,8,122032:0:0:0:0:
64,192,121699,1,2,0:0:0:0:
448,192,121866,1,0,0:0:0:0:
64,192,121949,1,0,0:0:0:0:
320,192,122032,128,2,122366:0:0:0:0:
448,192,122199,1,0,0:0:0:0:
192,192,122282,1,0,0:0:0:0:
64,192,122366,128,2,122699:0:0:0:0:
448,192,122366,1,8,0:0:0:0:
320,192,122449,1,0,0:0:0:0:
192,192,122532,1,0,0:0:0:0:
448,192,122616,1,0,0:0:0:0:
192,192,122699,1,2,0:0:0:0:
320,192,122699,1,8,0:0:0:0:
448,192,122782,1,0,0:0:0:0:
320,192,122866,1,0,0:0:0:0:
192,192,122949,1,0,0:0:0:0:
64,192,123032,1,8,0:0:0:0:
320,192,123032,1,2,0:0:0:0:
448,192,123116,1,0,0:0:0:0:
192,192,123199,1,0,0:0:0:0:
320,192,123282,1,0,0:0:0:0:
64,192,123366,1,2,0:0:0:0:
448,192,123366,1,8,0:0:0:0:
192,192,123449,1,0,0:0:0:0:
320,192,123532,1,0,0:0:0:0:
64,192,123616,1,0,0:0:0:0:
448,192,123699,1,2,0:0:0:0:
192,192,123699,1,8,0:0:0:0:
320,192,123782,1,0,0:0:0:0:
64,192,123866,1,0,0:0:0:0:
320,192,123949,1,0,0:0:0:0:
64,192,124032,1,2,0:0:0:0:
192,192,124032,1,4,0:0:0:0:
448,192,124032,1,0,0:0:0:0:
320,192,124116,1,0,0:0:0:0:
192,192,124199,1,0,0:0:0:0:
64,192,124282,1,0,0:0:0:0:
448,192,124366,1,8,0:0:0:0:
192,192,124366,1,2,0:0:0:0:
320,192,124449,1,0,0:0:0:0:
64,192,124532,1,0,0:0:0:0:
448,192,124616,1,0,0:0:0:0:
320,192,124699,128,2,125032:0:0:0:0:
64,192,124782,1,0,0:0:0:0:
192,192,124866,1,0,0:0:0:0:
448,192,124949,1,0,0:0:0:0:
64,192,125032,1,2,0:0:0:0:
192,192,125032,1,8,0:0:0:0:
320,192,125116,1,0,0:0:0:0:
448,192,125199,1,0,0:0:0:0:
192,192,125282,1,0,0:0:0:0:
64,192,125366,1,2,0:0:0:0:
320,192,125449,1,0,0:0:0:0:
448,192,125532,1,0,0:0:0:0:
192,192,125616,1,0,0:0:0:0:
448,192,125699,1,8,0:0:0:0:
64,192,125699,1,2,0:0:0:0:
320,192,125755,1,0,0:0:0:0:
192,192,125810,1,0,0:0:0:0:
64,192,125866,1,0,0:0:0:0:
448,192,125921,1,0,0:0:0:0:
320,192,125977,1,0,0:0:0:0:
192,192,126032,1,2,0:0:0:0:
64,192,126116,1,0,0:0:0:0:
192,192,126199,1,0,0:0:0:0:
320,192,126282,1,0,0:0:0:0:
64,192,126366,1,2,0:0:0:0:
448,192,126366,1,8,0:0:0:0:
320,192,126449,1,0,0:0:0:0:
192,192,126532,1,0,0:0:0:0:
64,192,126616,1,0,0:0:0:0:
320,192,126699,128,2,127032:0:0:0:0:
64,192,126866,1,0,0:0:0:0:
192,192,126949,1,0,0:0:0:0:
448,192,127032,128,8,127366:0:0:0:0:
64,192,127032,1,2,0:0:0:0:
320,192,127199,1,0,0:0:0:0:
64,192,127282,1,0,0:0:0:0:
192,192,127366,128,2,127699:0:0:0:0:
448,192,127532,1,0,0:0:0:0:
320,192,127616,1,0,0:0:0:0:
64,192,127699,128,2,128032:0:0:0:0:
448,192,127699,1,8,0:0:0:0:
192,192,127866,1,0,0:0:0:0:
448,192,127949,1,0,0:0:0:0:
320,192,128032,128,2,128366:0:0:0:0:
64,192,128199,1,0,0:0:0:0:
448,192,128282,1,0,0:0:0:0:
192,192,128366,128,8,128699:0:0:0:0:
64,192,128366,1,2,0:0:0:0:
320,192,128532,1,0,0:0:0:0:
64,192,128616,1,0,0:0:0:0:
448,192,128699,1,2,0:0:0:0:
320,192,128782,1,0,0:0:0:0:
64,192,128866,1,0,0:0:0:0:
192,192,128949,1,0,0:0:0:0:
320,192,129032,128,2,129366:0:0:0:0:
448,192,129032,1,8,0:0:0:0:
64,192,129116,1,0,0:0:0:0:
448,192,129199,1,0,0:0:0:0:
192,192,129282,1,0,0:0:0:0:
64,192,129366,1,2,0:0:0:0:
448,192,129449,1,0,0:0:0:0:
192,192,129532,1,0,0:0:0:0:
64,192,129616,1,0,0:0:0:0:
320,192,129699,1,8,0:0:0:0:
192,192,129699,1,2,0:0:0:0:
448,192,129782,1,0,0:0:0:0:
192,192,129866,1,0,0:0:0:0:
64,192,129949,1,0,0:0:0:0:
320,192,130032,1,2,0:0:0:0:
192,192,130116,1,0,0:0:0:0:
448,192,130199,1,0,0:0:0:0:
320,192,130282,1,0,0:0:0:0:
64,192,130366,1,2,0:0:0:0:
448,192,130366,1,8,0:0:0:0:
192,192,130449,1,0,0:0:0:0:
448,192,130532,1,0,0:0:0:0:
320,192,130616,1,0,0:0:0:0:
64,192,130699,1,2,0:0:0:0:
448,192,130782,1,0,0:0:0:0:
192,192,130866,1,0,0:0:0:0:
320,192,130949,1,0,0:0:0:0:
64,192,131032,1,2,0:0:0:0:
448,192,131032,1,8,0:0:0:0:
192,192,131088,1,0,0:0:0:0:
320,192,131144,1,0,0:0:0:0:
448,192,131199,1,0,0:0:0:0:
192,192,131255,1,0,0:0:0:0:
320,192,131310,1,0,0:0:0:0:
64,192,131366,128,2,131699:0:0:0:0:
448,192,131449,1,0,0:0:0:0:
192,192,131532,1,0,0:0:0:0:
448,192,131616,1,0,0:0:0:0:
320,192,131699,1,8,0:0:0:0:
192,192,131699,1,2,0:0:0:0:
64,192,131782,1,0,0:0:0:0:
448,192,131866,1,0,0:0:0:0:
320,192,131949,1,0,0:0:0:0:
64,192,132032,128,2,132366:0:0:0:0:
192,192,132032,1,12,0:0:0:0:
448,192,132199,1,0,0:0:0:0:
320,192,132282,1,0,0:0:0:0:
448,192,132366,128,8,132699:0:0:0:0:
192,192,132366,1,2,0:0:0:0:
64,192,132532,1,0,0:0:0:0:
320,192,132616,1,0,0:0:0:0:
192,192,132699,128,8,133032:0:0:0:0:
64,192,132699,1,2,0:0:0:0:
448,192,132866,1,0,0:0:0:0:
64,192,132949,1,0,0:0:0:0:
320,192,133032,128,2,133366:0:0:0:0:
448,192,133032,1,8,0:0:0:0:
192,192,133199,1,0,0:0:0:0:
448,192,133282,1,0,0:0:0:0:
64,192,133366,5,2,0:0:0:0:
192,192,133366,1,12,0:0:0:0:
320,192,133449,1,0,0:0:0:0:
448,192,133532,1,0,0:0:0:0:
64,192,133616,1,0,0:0:0:0:
192,192,133699,1,8,0:0:0:0:
448,192,133699,1,2,0:0:0:0:
320,192,133782,1,0,0:0:0:0:
64,192,133866,1,0,0:0:0:0:
192,192,133949,1,0,0:0:0:0:
320,192,134032,1,2,0:0:0:0:
448,192,134032,1,12,0:0:0:0:
64,192,134116,1,0,0:0:0:0:
448,192,134199,1,0,0:0:0:0:
192,192,134282,1,0,0:0:0:0:
320,192,134366,1,8,0:0:0:0:
64,192,134366,1,2,0:0:0:0:
448,192,134449,1,0,0:0:0:0:
192,192,134532,1,0,0:0:0:0:
448,192,134616,1,0,0:0:0:0:
192,192,134699,1,0,0:0:0:0:
64,192,134699,1,2,0:0:0:0:
448,192,135032,1,2,0:0:0:0:
64,192,135032,1,4,0:0:0:0:
320,192,135116,1,0,0:0:0:0:
192,192,135199,1,0,0:0:0:0:
64,192,135282,1,0,0:0:0:0:
320,192,135366,1,8,0:0:0:0:
192,192,135366,1,2,0:0:0:0:
448,192,135449,1,0,0:0:0:0:
192,192,135532,1,0,0:0:0:0:
64,192,135616,1,0,0:0:0:0:
448,192,135699,1,2,0:0:0:0:
192,192,135782,1,0,0:0:0:0:
320,192,135866,1,0,0:0:0:0:
448,192,135949,1,0,0:0:0:0:
320,192,136032,1,8,0:0:0:0:
64,192,136032,1,2,0:0:0:0:
192,192,136116,1,0,0:0:0:0:
320,192,136199,1,0,0:0:0:0:
448,192,136282,1,0,0:0:0:0:
64,192,136366,1,8,0:0:0:0:
192,192,136366,1,2,0:0:0:0:
320,192,136449,1,0,0:0:0:0:
64,192,136532,1,0,0:0:0:0:
192,192,136616,1,0,0:0:0:0:
448,192,136699,1,8,0:0:0:0:
320,192,136699,1,2,0:0:0:0:
192,192,136782,1,0,0:0:0:0:
448,192,136866,1,0,0:0:0:0:
320,192,136949,1,0,0:0:0:0:
64,192,137032,1,0,0:0:0:0:
64,192,137199,1,0,0:0:0:0:
320,192,137282,1,0,0:0:0:0:
448,192,137366,1,0,0:0:0:0:
64,192,137532,1,0,0:0:0:0:
320,192,137616,1,0,0:0:0:0:
192,192,137699,1,2,0:0:0:0:
448,192,137699,1,8,0:0:0:0:
64,192,137782,1,0,0:0:0:0:
320,192,137866,1,0,0:0:0:0:
192,192,137949,1,0,0:0:0:0:
448,192,138032,1,0,0:0:0:0:
320,192,138116,1,0,0:0:0:0:
192,192,138199,1,0,0:0:0:0:
64,192,138282,1,0,0:0:0:0:
