osu file format v14

[General]
AudioFilename: audio.mp3
AudioLeadIn: 0
PreviewTime: 47699
Countdown: 0
SampleSet: Soft
StackLeniency: 0.7
Mode: 3
LetterboxInBreaks: 0
SpecialStyle: 0
WidescreenStoryboard: 1

[Editor]
Bookmarks: 5366,10699,16032,21366,26699,32032,37366,48032,58699,69366,80032,92032,102699,114699,124032
DistanceSpacing: 1.7
BeatDivisor: 4
GridSize: 32
TimelineZoom: 1.1

[Metadata]
Title:Ki ga Kurutta Noise
TitleUnicode:気が狂ったノイズ
Artist:Kuki Akumu
ArtistUnicode:茎悪夢
Creator:Irone OSU
Version:Hyper
Source:
Tags:pm04034 ruiditos locos electronic instrumental chiptune 8-bit 8bit retro pixel Bitpop おかしい 宇宙 レトロ rétro テレビゲーム television console ゲーム ポップ チップチューン 綺麗な artcore 銀河 milky way
BeatmapID:3605512
BeatmapSetID:1608039

[Difficulty]
HPDrainRate:7.5
CircleSize:7
OverallDifficulty:7.5
ApproachRate:5
SliderMultiplier:1.4
SliderTickRate:1

[Events]
//Background and Video events
0,0,"BG.png",0,0
//Break Periods
//Storyboard Layer 0 (Background)
//Storyboard Layer 1 (Fail)
//Storyboard Layer 2 (Pass)
//Storyboard Layer 3 (Foreground)
//Storyboard Layer 4 (Overlay)
//Storyboard Sound Samples

[TimingPoints]
33,333.333333333333,4,2,1,80,1,0
366,-100,4,2,1,60,0,0
5366,-100,4,2,1,80,0,0
37366,-100,4,2,1,70,0,0
42699,-100,4,2,1,80,0,0
48032,-100,4,2,1,90,0,1
69366,-105.263157894737,4,2,1,70,0,0
80032,-100,4,2,1,80,0,0
85366,-111.111111111111,4,2,1,80,0,0
86699,-111.111111111111,4,2,1,70,0,0
91699,-109.89010989011,4,2,1,70,0,0
91782,-108.695652173913,4,2,1,70,0,0
91866,-107.52688172043,4,2,1,70,0,0
91949,-106.382978723404,4,2,1,70,0,0
92032,-105.263157894737,4,2,1,60,0,0
102699,-100,4,2,1,70,0,0
113032,-100,4,2,1,80,0,0
114699,-100,4,2,1,90,0,1
134699,-100,4,2,1,90,0,0
135032,-100,4,2,1,90,0,1
137032,-100,4,2,1,80,0,0

[HitObjects]
109,192,33,5,0,0:0:0:0:
182,192,33,1,0,0:0:0:0:
329,192,33,1,0,0:0:0:0:
402,192,33,1,0,0:0:0:0:
256,192,366,1,0,0:0:0:0:
475,192,532,1,0,0:0:0:0:
402,192,616,1,0,0:0:0:0:
329,192,699,1,0,0:0:0:0:
402,192,866,1,0,0:0:0:0:
329,192,949,1,0,0:0:0:0:
256,192,1032,1,0,0:0:0:0:
109,192,1199,1,0,0:0:0:0:
182,192,1282,1,0,0:0:0:0:
256,192,1366,1,0,0:0:0:0:
36,192,1532,1,0,0:0:0:0:
109,192,1616,1,0,0:0:0:0:
182,192,1699,1,0,0:0:0:0:
402,192,1866,1,0,0:0:0:0:
329,192,1949,1,0,0:0:0:0:
182,192,2032,1,0,0:0:0:0:
475,192,2199,1,0,0:0:0:0:
402,192,2282,1,0,0:0:0:0:
256,192,2366,1,0,0:0:0:0:
475,192,2532,1,0,0:0:0:0:
329,192,2616,1,0,0:0:0:0:
182,192,2699,1,0,0:0:0:0:
36,192,2866,1,0,0:0:0:0:
109,192,2949,1,0,0:0:0:0:
182,192,3032,1,0,0:0:0:0:
109,192,3199,1,0,0:0:0:0:
182,192,3282,1,0,0:0:0:0:
256,192,3366,1,0,0:0:0:0:
402,192,3532,1,0,0:0:0:0:
329,192,3616,1,0,0:0:0:0:
256,192,3699,1,0,0:0:0:0:
475,192,3866,1,0,0:0:0:0:
402,192,3949,1,0,0:0:0:0:
329,192,4032,1,0,0:0:0:0:
109,192,4199,1,0,0:0:0:0:
182,192,4282,1,0,0:0:0:0:
329,192,4366,1,0,0:0:0:0:
36,192,4532,1,0,0:0:0:0:
109,192,4616,1,0,0:0:0:0:
256,192,4699,1,0,0:0:0:0:
36,192,4866,1,0,0:0:0:0:
182,192,4949,1,0,0:0:0:0:
329,192,5032,1,0,0:0:0:0:
475,192,5116,1,0,0:0:0:0:
329,192,5199,1,0,0:0:0:0:
182,192,5366,1,0,0:0:0:0:
36,192,5366,1,0,0:0:0:0:
402,192,5366,1,0,0:0:0:0:
109,192,5366,1,0,0:0:0:0:
109,192,5699,1,0,0:0:0:0:
475,192,5699,1,0,0:0:0:0:
256,192,5866,1,0,0:0:0:0:
402,192,6032,1,0,0:0:0:0:
36,192,6032,1,0,0:0:0:0:
109,192,6199,1,0,0:0:0:0:
182,192,6366,1,0,0:0:0:0:
329,192,6366,1,0,0:0:0:0:
256,192,6532,1,0,0:0:0:0:
109,192,6699,1,0,0:0:0:0:
402,192,6699,1,0,0:0:0:0:
182,192,6866,1,0,0:0:0:0:
36,192,7032,1,0,0:0:0:0:
475,192,7032,1,0,0:0:0:0:
402,192,7116,1,0,0:0:0:0:
329,192,7199,1,0,0:0:0:0:
256,192,7282,1,0,0:0:0:0:
182,192,7366,1,0,0:0:0:0:
475,192,7366,1,0,0:0:0:0:
402,192,7532,1,0,0:0:0:0:
36,192,7699,1,0,0:0:0:0:
182,192,7699,1,0,0:0:0:0:
109,192,7866,1,0,0:0:0:0:
256,192,8032,1,0,0:0:0:0:
402,192,8032,1,0,0:0:0:0:
182,192,8199,1,0,0:0:0:0:
109,192,8366,1,0,0:0:0:0:
329,192,8366,1,0,0:0:0:0:
182,192,8532,1,0,0:0:0:0:
256,192,8699,1,0,0:0:0:0:
475,192,8699,1,0,0:0:0:0:
36,192,8866,1,0,0:0:0:0:
329,192,9032,1,0,0:0:0:0:
182,192,9032,1,0,0:0:0:0:
109,192,9199,1,0,0:0:0:0:
256,192,9366,1,0,0:0:0:0:
402,192,9366,1,0,0:0:0:0:
182,192,9532,1,0,0:0:0:0:
329,192,9699,1,0,0:0:0:0:
36,192,9699,1,0,0:0:0:0:
109,192,9782,1,0,0:0:0:0:
182,192,9866,1,0,0:0:0:0:
256,192,9949,1,0,0:0:0:0:
475,192,10032,1,0,0:0:0:0:
329,192,10032,1,0,0:0:0:0:
109,192,10199,1,0,0:0:0:0:
36,192,10366,1,0,0:0:0:0:
256,192,10366,1,0,0:0:0:0:
402,192,10532,1,0,0:0:0:0:
182,192,10699,1,0,0:0:0:0:
475,192,10699,1,0,0:0:0:0:
36,192,10699,1,0,0:0:0:0:
109,192,10699,1,0,0:0:0:0:
182,192,11032,1,0,0:0:0:0:
475,192,11032,1,0,0:0:0:0:
329,192,11032,1,0,0:0:0:0:
109,192,11199,1,0,0:0:0:0:
36,192,11366,1,0,0:0:0:0:
329,192,11366,1,0,0:0:0:0:
182,192,11532,1,0,0:0:0:0:
475,192,11699,1,0,0:0:0:0:
256,192,11699,1,0,0:0:0:0:
36,192,11699,1,0,0:0:0:0:
329,192,11866,1,0,0:0:0:0:
402,192,12032,1,0,0:0:0:0:
109,192,12032,1,0,0:0:0:0:
256,192,12199,1,0,0:0:0:0:
182,192,12366,1,0,0:0:0:0:
475,192,12366,1,0,0:0:0:0:
36,192,12366,1,0,0:0:0:0:
402,192,12449,1,0,0:0:0:0:
329,192,12532,1,0,0:0:0:0:
256,192,12616,1,0,0:0:0:0:
182,192,12699,1,0,0:0:0:0:
475,192,12699,1,0,0:0:0:0:
329,192,12866,1,0,0:0:0:0:
36,192,13032,1,0,0:0:0:0:
475,192,13032,1,0,0:0:0:0:
182,192,13032,1,0,0:0:0:0:
256,192,13199,1,0,0:0:0:0:
402,192,13366,1,0,0:0:0:0:
109,192,13366,1,0,0:0:0:0:
182,192,13532,1,0,0:0:0:0:
475,192,13699,1,0,0:0:0:0:
36,192,13699,1,0,0:0:0:0:
256,192,13699,1,0,0:0:0:0:
182,192,13866,1,0,0:0:0:0:
329,192,14032,1,0,0:0:0:0:
109,192,14032,1,0,0:0:0:0:
402,192,14199,1,0,0:0:0:0:
329,192,14366,1,0,0:0:0:0:
109,192,14366,1,0,0:0:0:0:
475,192,14366,1,0,0:0:0:0:
256,192,14532,1,0,0:0:0:0:
36,192,14699,1,0,0:0:0:0:
182,192,14699,1,0,0:0:0:0:
475,192,14699,1,0,0:0:0:0:
329,192,14866,1,0,0:0:0:0:
182,192,15032,1,0,0:0:0:0:
36,192,15032,1,0,0:0:0:0:
475,192,15032,1,0,0:0:0:0:
402,192,15116,1,0,0:0:0:0:
329,192,15199,1,0,0:0:0:0:
256,192,15282,1,0,0:0:0:0:
36,192,15366,1,0,0:0:0:0:
182,192,15366,1,0,0:0:0:0:
475,192,15366,1,0,0:0:0:0:
329,192,15532,1,0,0:0:0:0:
402,192,15699,1,0,0:0:0:0:
36,192,15699,1,0,0:0:0:0:
182,192,15699,1,0,0:0:0:0:
402,192,16032,1,0,0:0:0:0:
475,192,16032,1,0,0:0:0:0:
329,192,16032,1,0,0:0:0:0:
109,192,16032,128,0,16366:0:0:0:0:
475,192,16366,1,0,0:0:0:0:
182,192,16366,1,0,0:0:0:0:
256,192,16366,1,0,0:0:0:0:
402,192,16532,1,0,0:0:0:0:
36,192,16699,128,0,17032:0:0:0:0:
329,192,16699,1,0,0:0:0:0:
256,192,17032,1,0,0:0:0:0:
109,192,17032,1,0,0:0:0:0:
402,192,17032,1,0,0:0:0:0:
182,192,17199,1,0,0:0:0:0:
329,192,17366,1,0,0:0:0:0:
475,192,17366,128,0,17699:0:0:0:0:
402,192,17699,1,0,0:0:0:0:
36,192,17699,1,0,0:0:0:0:
109,192,17782,1,0,0:0:0:0:
182,192,17866,1,0,0:0:0:0:
256,192,17949,1,0,0:0:0:0:
329,192,18032,1,0,0:0:0:0:
475,192,18032,1,0,0:0:0:0:
36,192,18116,1,0,0:0:0:0:
182,192,18199,1,0,0:0:0:0:
402,192,18282,1,0,0:0:0:0:
329,192,18366,1,0,0:0:0:0:
109,192,18366,1,0,0:0:0:0:
182,192,18449,1,0,0:0:0:0:
256,192,18532,1,0,0:0:0:0:
329,192,18616,1,0,0:0:0:0:
36,192,18699,128,0,19032:0:0:0:0:
402,192,18699,1,0,0:0:0:0:
182,192,19032,1,0,0:0:0:0:
402,192,19032,1,0,0:0:0:0:
475,192,19032,1,0,0:0:0:0:
256,192,19199,1,0,0:0:0:0:
475,192,19366,128,0,19699:0:0:0:0:
109,192,19366,1,0,0:0:0:0:
402,192,19699,1,0,0:0:0:0:
36,192,19699,1,0,0:0:0:0:
329,192,19699,1,0,0:0:0:0:
256,192,19866,1,0,0:0:0:0:
109,192,20032,128,0,20366:0:0:0:0:
182,192,20032,1,0,0:0:0:0:
256,192,20366,1,0,0:0:0:0:
475,192,20366,1,0,0:0:0:0:
402,192,20449,1,0,0:0:0:0:
36,192,20532,1,0,0:0:0:0:
182,192,20616,1,0,0:0:0:0:
329,192,20699,1,0,0:0:0:0:
475,192,20699,1,0,0:0:0:0:
109,192,20782,1,0,0:0:0:0:
182,192,20866,1,0,0:0:0:0:
256,192,20949,1,0,0:0:0:0:
36,192,21032,1,0,0:0:0:0:
402,192,21032,1,0,0:0:0:0:
329,192,21116,1,0,0:0:0:0:
182,192,21199,1,0,0:0:0:0:
109,192,21282,1,0,0:0:0:0:
256,192,21366,1,0,0:0:0:0:
475,192,21366,128,0,21699:0:0:0:0:
109,192,21699,1,0,0:0:0:0:
402,192,21699,1,0,0:0:0:0:
36,192,21699,1,0,0:0:0:0:
182,192,21866,1,0,0:0:0:0:
329,192,22032,128,0,22366:0:0:0:0:
109,192,22032,1,0,0:0:0:0:
36,192,22366,1,0,0:0:0:0:
402,192,22366,1,0,0:0:0:0:
475,192,22366,1,0,0:0:0:0:
182,192,22532,1,0,0:0:0:0:
109,192,22699,128,0,23032:0:0:0:0:
256,192,22699,1,0,0:0:0:0:
329,192,23032,1,0,0:0:0:0:
475,192,23032,1,0,0:0:0:0:
256,192,23116,1,0,0:0:0:0:
182,192,23199,1,0,0:0:0:0:
402,192,23282,1,0,0:0:0:0:
36,192,23366,1,0,0:0:0:0:
329,192,23366,1,0,0:0:0:0:
256,192,23449,1,0,0:0:0:0:
109,192,23532,1,0,0:0:0:0:
182,192,23616,1,0,0:0:0:0:
402,192,23699,1,0,0:0:0:0:
475,192,23699,1,0,0:0:0:0:
329,192,23782,1,0,0:0:0:0:
36,192,23866,1,0,0:0:0:0:
256,192,23949,1,0,0:0:0:0:
475,192,24032,128,0,24366:0:0:0:0:
182,192,24032,1,0,0:0:0:0:
329,192,24366,1,0,0:0:0:0:
109,192,24366,1,0,0:0:0:0:
36,192,24366,1,0,0:0:0:0:
182,192,24532,1,0,0:0:0:0:
475,192,24699,1,0,0:0:0:0:
36,192,24699,128,0,25032:0:0:0:0:
402,192,24699,1,0,0:0:0:0:
182,192,25032,1,0,0:0:0:0:
109,192,25032,1,0,0:0:0:0:
475,192,25032,1,0,0:0:0:0:
256,192,25199,1,0,0:0:0:0:
402,192,25366,128,0,25699:0:0:0:0:
36,192,25366,1,0,0:0:0:0:
329,192,25699,1,0,0:0:0:0:
109,192,25699,1,0,0:0:0:0:
182,192,25782,1,0,0:0:0:0:
256,192,25866,1,0,0:0:0:0:
36,192,25949,1,0,0:0:0:0:
475,192,26032,1,0,0:0:0:0:
109,192,26032,1,0,0:0:0:0:
402,192,26116,1,0,0:0:0:0:
329,192,26199,1,0,0:0:0:0:
256,192,26282,1,0,0:0:0:0:
182,192,26366,1,0,0:0:0:0:
329,192,26449,1,0,0:0:0:0:
109,192,26532,1,0,0:0:0:0:
329,192,26616,1,0,0:0:0:0:
182,192,26699,1,0,0:0:0:0:
402,192,26699,1,0,0:0:0:0:
475,192,26699,128,0,27032:0:0:0:0:
36,192,27032,1,0,0:0:0:0:
109,192,27032,1,0,0:0:0:0:
329,192,27032,1,0,0:0:0:0:
256,192,27199,1,0,0:0:0:0:
182,192,27366,1,0,0:0:0:0:
329,192,27366,128,0,27699:0:0:0:0:
36,192,27699,128,0,28032:0:0:0:0:
475,192,27699,1,0,0:0:0:0:
402,192,27699,1,0,0:0:0:0:
182,192,27866,1,0,0:0:0:0:
256,192,28032,1,0,0:0:0:0:
475,192,28032,128,0,28366:0:0:0:0:
36,192,28366,1,0,0:0:0:0:
402,192,28366,1,0,0:0:0:0:
109,192,28449,1,0,0:0:0:0:
182,192,28532,1,0,0:0:0:0:
329,192,28616,1,0,0:0:0:0:
402,192,28699,1,0,0:0:0:0:
36,192,28699,1,0,0:0:0:0:
256,192,28782,1,0,0:0:0:0:
109,192,28866,1,0,0:0:0:0:
182,192,28949,1,0,0:0:0:0:
475,192,29032,1,0,0:0:0:0:
329,192,29032,1,0,0:0:0:0:
256,192,29116,1,0,0:0:0:0:
182,192,29199,1,0,0:0:0:0:
402,192,29282,1,0,0:0:0:0:
329,192,29366,1,0,0:0:0:0:
36,192,29366,128,0,29699:0:0:0:0:
109,192,29699,1,0,0:0:0:0:
475,192,29699,1,0,0:0:0:0:
402,192,29699,1,0,0:0:0:0:
256,192,29866,1,0,0:0:0:0:
182,192,30032,128,0,30366:0:0:0:0:
36,192,30032,1,0,0:0:0:0:
475,192,30366,128,0,30699:0:0:0:0:
109,192,30366,1,0,0:0:0:0:
329,192,30366,1,0,0:0:0:0:
256,192,30532,1,0,0:0:0:0:
36,192,30699,128,0,31032:0:0:0:0:
182,192,30699,1,0,0:0:0:0:
182,192,31032,1,0,0:0:0:0:
402,192,31032,1,0,0:0:0:0:
109,192,31116,1,0,0:0:0:0:
256,192,31199,1,0,0:0:0:0:
182,192,31282,1,0,0:0:0:0:
36,192,31366,1,0,0:0:0:0:
329,192,31366,1,0,0:0:0:0:
402,192,31449,1,0,0:0:0:0:
256,192,31532,1,0,0:0:0:0:
329,192,31616,1,0,0:0:0:0:
475,192,31699,1,0,0:0:0:0:
109,192,31699,1,0,0:0:0:0:
182,192,31782,1,0,0:0:0:0:
329,192,31866,1,0,0:0:0:0:
256,192,31949,1,0,0:0:0:0:
36,192,32032,1,0,0:0:0:0:
402,192,32032,128,0,32366:0:0:0:0:
182,192,32366,1,0,0:0:0:0:
109,192,32366,1,0,0:0:0:0:
475,192,32366,1,0,0:0:0:0:
329,192,32532,1,0,0:0:0:0:
256,192,32699,128,0,33032:0:0:0:0:
36,192,32699,1,0,0:0:0:0:
36,192,33032,128,0,33366:0:0:0:0:
182,192,33032,1,0,0:0:0:0:
475,192,33032,1,0,0:0:0:0:
329,192,33199,1,0,0:0:0:0:
402,192,33366,128,0,33699:0:0:0:0:
109,192,33366,1,0,0:0:0:0:
36,192,33699,1,0,0:0:0:0:
329,192,33699,1,0,0:0:0:0:
182,192,33782,1,0,0:0:0:0:
475,192,33866,1,0,0:0:0:0:
256,192,33949,1,0,0:0:0:0:
36,192,34032,1,0,0:0:0:0:
402,192,34032,1,0,0:0:0:0:
109,192,34116,1,0,0:0:0:0:
182,192,34199,1,0,0:0:0:0:
329,192,34282,1,0,0:0:0:0:
402,192,34366,1,0,0:0:0:0:
256,192,34449,1,0,0:0:0:0:
182,192,34532,1,0,0:0:0:0:
475,192,34616,1,0,0:0:0:0:
109,192,34699,128,0,35032:0:0:0:0:
329,192,34699,1,0,0:0:0:0:
256,192,35032,1,0,0:0:0:0:
182,192,35032,1,0,0:0:0:0:
475,192,35032,1,0,0:0:0:0:
402,192,35199,1,0,0:0:0:0:
36,192,35366,1,0,0:0:0:0:
256,192,35366,128,0,35699:0:0:0:0:
109,192,35699,1,0,0:0:0:0:
475,192,35699,128,0,36032:0:0:0:0:
402,192,35699,1,0,0:0:0:0:
182,192,35866,1,0,0:0:0:0:
329,192,36032,1,0,0:0:0:0:
36,192,36032,128,0,36366:0:0:0:0:
256,192,36032,1,0,0:0:0:0:
109,192,36366,1,0,0:0:0:0:
475,192,36366,1,0,0:0:0:0:
402,192,36366,1,0,0:0:0:0:
182,192,36449,1,0,0:0:0:0:
256,192,36532,1,0,0:0:0:0:
329,192,36616,1,0,0:0:0:0:
402,192,36699,128,0,37032:0:0:0:0:
182,192,37032,128,0,37366:0:0:0:0:
36,192,37366,1,0,0:0:0:0:
402,192,37366,1,0,0:0:0:0:
256,192,37366,1,0,0:0:0:0:
475,192,37366,128,0,38366:0:0:0:0:
109,192,37699,128,0,38032:0:0:0:0:
256,192,38032,128,0,38366:0:0:0:0:
109,192,38366,128,0,38699:0:0:0:0:
329,192,38366,1,0,0:0:0:0:
475,192,38699,128,0,39366:0:0:0:0:
182,192,38699,128,0,39032:0:0:0:0:
36,192,38699,1,0,0:0:0:0:
36,192,39032,128,0,39366:0:0:0:0:
182,192,39366,128,0,39699:0:0:0:0:
329,192,39366,1,0,0:0:0:0:
36,192,39699,128,0,40032:0:0:0:0:
402,192,39699,1,0,0:0:0:0:
256,192,40032,128,0,40366:0:0:0:0:
109,192,40032,1,0,0:0:0:0:
475,192,40032,128,0,40366:0:0:0:0:
182,192,40366,128,0,41032:0:0:0:0:
329,192,40366,128,0,40699:0:0:0:0:
475,192,40699,128,0,41032:0:0:0:0:
36,192,41032,128,0,41366:0:0:0:0:
329,192,41032,1,0,0:0:0:0:
182,192,41366,128,0,42032:0:0:0:0:
402,192,41366,128,0,42699:0:0:0:0:
475,192,41366,1,0,0:0:0:0:
109,192,42032,128,0,42699:0:0:0:0:
182,192,42699,1,0,0:0:0:0:
329,192,42699,1,0,0:0:0:0:
256,192,42699,1,0,0:0:0:0:
475,192,42866,1,0,0:0:0:0:
402,192,42949,1,0,0:0:0:0:
36,192,43032,1,0,0:0:0:0:
329,192,43032,1,0,0:0:0:0:
182,192,43032,1,0,0:0:0:0:
109,192,43199,1,0,0:0:0:0:
182,192,43282,1,0,0:0:0:0:
256,192,43366,1,0,0:0:0:0:
402,192,43366,1,0,0:0:0:0:
402,192,43532,1,0,0:0:0:0:
329,192,43616,1,0,0:0:0:0:
256,192,43699,1,0,0:0:0:0:
109,192,43699,1,0,0:0:0:0:
36,192,43699,1,0,0:0:0:0:
329,192,43866,1,0,0:0:0:0:
402,192,43949,1,0,0:0:0:0:
182,192,44032,1,0,0:0:0:0:
475,192,44032,1,0,0:0:0:0:
36,192,44199,1,0,0:0:0:0:
109,192,44282,1,0,0:0:0:0:
329,192,44366,1,0,0:0:0:0:
475,192,44366,1,0,0:0:0:0:
182,192,44366,1,0,0:0:0:0:
402,192,44532,1,0,0:0:0:0:
329,192,44616,1,0,0:0:0:0:
256,192,44699,1,0,0:0:0:0:
109,192,44699,1,0,0:0:0:0:
109,192,44866,1,0,0:0:0:0:
182,192,44949,1,0,0:0:0:0:
329,192,45032,1,0,0:0:0:0:
475,192,45032,1,0,0:0:0:0:
256,192,45032,1,0,0:0:0:0:
182,192,45199,1,0,0:0:0:0:
109,192,45282,1,0,0:0:0:0:
36,192,45366,1,0,0:0:0:0:
329,192,45366,1,0,0:0:0:0:
402,192,45532,1,0,0:0:0:0:
256,192,45616,1,0,0:0:0:0:
475,192,45699,1,0,0:0:0:0:
36,192,45699,1,0,0:0:0:0:
182,192,45699,1,0,0:0:0:0:
109,192,45866,1,0,0:0:0:0:
256,192,45949,1,0,0:0:0:0:
329,192,46032,1,0,0:0:0:0:
475,192,46032,1,0,0:0:0:0:
329,192,46199,1,0,0:0:0:0:
182,192,46282,1,0,0:0:0:0:
36,192,46366,1,0,0:0:0:0:
475,192,46366,1,0,0:0:0:0:
402,192,46366,1,0,0:0:0:0:
256,192,46532,1,0,0:0:0:0:
109,192,46699,1,0,0:0:0:0:
182,192,46699,1,0,0:0:0:0:
402,192,46782,1,0,0:0:0:0:
329,192,46782,1,0,0:0:0:0:
329,192,46949,1,0,0:0:0:0:
402,192,46949,1,0,0:0:0:0:
402,192,47116,1,0,0:0:0:0:
329,192,47116,1,0,0:0:0:0:
109,192,47282,1,0,0:0:0:0:
182,192,47282,1,0,0:0:0:0:
329,192,47366,1,0,0:0:0:0:
402,192,47366,1,0,0:0:0:0:
329,192,47532,1,0,0:0:0:0:
402,192,47532,1,0,0:0:0:0:
36,192,47699,1,0,0:0:0:0:
109,192,47782,1,0,0:0:0:0:
182,192,47866,1,0,0:0:0:0:
36,192,48032,1,0,0:0:0:0:
329,192,48032,1,0,0:0:0:0:
475,192,48032,1,0,0:0:0:0:
402,192,48032,1,0,0:0:0:0:
256,192,48199,1,0,0:0:0:0:
329,192,48366,1,0,0:0:0:0:
475,192,48366,1,0,0:0:0:0:
109,192,48366,1,0,0:0:0:0:
182,192,48532,1,0,0:0:0:0:
36,192,48699,128,0,49032:0:0:0:0:
256,192,48699,1,0,0:0:0:0:
475,192,49032,1,0,0:0:0:0:
109,192,49032,1,0,0:0:0:0:
182,192,49116,1,0,0:0:0:0:
256,192,49199,1,0,0:0:0:0:
329,192,49282,1,0,0:0:0:0:
36,192,49366,1,0,0:0:0:0:
402,192,49366,1,0,0:0:0:0:
109,192,49532,1,0,0:0:0:0:
182,192,49699,1,0,0:0:0:0:
475,192,49699,1,0,0:0:0:0:
329,192,49782,1,0,0:0:0:0:
36,192,49866,1,0,0:0:0:0:
182,192,49949,1,0,0:0:0:0:
329,192,50032,1,0,0:0:0:0:
475,192,50032,1,0,0:0:0:0:
256,192,50199,1,0,0:0:0:0:
36,192,50366,1,0,0:0:0:0:
182,192,50366,1,0,0:0:0:0:
402,192,50366,1,0,0:0:0:0:
329,192,50532,1,0,0:0:0:0:
256,192,50699,1,0,0:0:0:0:
36,192,50699,128,0,51032:0:0:0:0:
475,192,51032,128,0,51366:0:0:0:0:
109,192,51032,1,0,0:0:0:0:
329,192,51032,1,0,0:0:0:0:
182,192,51199,1,0,0:0:0:0:
329,192,51366,128,0,51699:0:0:0:0:
36,192,51366,1,0,0:0:0:0:
109,192,51532,1,0,0:0:0:0:
182,192,51699,128,0,52032:0:0:0:0:
402,192,51699,1,0,0:0:0:0:
475,192,51699,1,0,0:0:0:0:
329,192,51866,1,0,0:0:0:0:
402,192,52032,128,0,52366:0:0:0:0:
36,192,52032,1,0,0:0:0:0:
256,192,52199,1,0,0:0:0:0:
109,192,52366,128,0,52699:0:0:0:0:
475,192,52366,1,0,0:0:0:0:
329,192,52366,1,0,0:0:0:0:
182,192,52532,1,0,0:0:0:0:
256,192,52699,1,0,0:0:0:0:
36,192,52699,1,0,0:0:0:0:
402,192,52866,1,0,0:0:0:0:
329,192,53032,1,0,0:0:0:0:
182,192,53032,1,0,0:0:0:0:
475,192,53032,128,0,53366:0:0:0:0:
36,192,53366,1,0,0:0:0:0:
256,192,53366,1,0,0:0:0:0:
109,192,53532,1,0,0:0:0:0:
329,192,53699,1,0,0:0:0:0:
475,192,53699,1,0,0:0:0:0:
182,192,53699,1,0,0:0:0:0:
402,192,53866,1,0,0:0:0:0:
256,192,54032,1,0,0:0:0:0:
36,192,54032,128,0,54366:0:0:0:0:
329,192,54199,1,0,0:0:0:0:
475,192,54366,1,0,0:0:0:0:
182,192,54366,1,0,0:0:0:0:
402,192,54449,1,0,0:0:0:0:
256,192,54532,1,0,0:0:0:0:
329,192,54616,1,0,0:0:0:0:
36,192,54699,1,0,0:0:0:0:
402,192,54699,1,0,0:0:0:0:
109,192,54866,1,0,0:0:0:0:
256,192,55032,1,0,0:0:0:0:
475,192,55032,1,0,0:0:0:0:
36,192,55116,1,0,0:0:0:0:
182,192,55199,1,0,0:0:0:0:
329,192,55282,1,0,0:0:0:0:
36,192,55366,1,0,0:0:0:0:
475,192,55366,128,0,55699:0:0:0:0:
256,192,55532,1,0,0:0:0:0:
109,192,55699,1,0,0:0:0:0:
402,192,55699,1,0,0:0:0:0:
36,192,55699,1,0,0:0:0:0:
182,192,55866,1,0,0:0:0:0:
475,192,56032,1,0,0:0:0:0:
36,192,56032,128,0,56366:0:0:0:0:
402,192,56199,1,0,0:0:0:0:
256,192,56366,128,0,56699:0:0:0:0:
109,192,56366,1,0,0:0:0:0:
329,192,56366,1,0,0:0:0:0:
182,192,56532,1,0,0:0:0:0:
475,192,56699,128,0,57032:0:0:0:0:
402,192,56699,1,0,0:0:0:0:
182,192,56866,1,0,0:0:0:0:
36,192,57032,128,0,57366:0:0:0:0:
329,192,57032,1,0,0:0:0:0:
109,192,57032,1,0,0:0:0:0:
256,192,57199,1,0,0:0:0:0:
182,192,57366,1,0,0:0:0:0:
475,192,57366,1,0,0:0:0:0:
402,192,57366,1,0,0:0:0:0:
329,192,57532,1,0,0:0:0:0:
109,192,57699,1,0,0:0:0:0:
402,192,57699,1,0,0:0:0:0:
475,192,57699,1,0,0:0:0:0:
182,192,57782,1,0,0:0:0:0:
256,192,57866,1,0,0:0:0:0:
329,192,57949,1,0,0:0:0:0:
109,192,58032,1,0,0:0:0:0:
36,192,58032,1,0,0:0:0:0:
402,192,58032,1,0,0:0:0:0:
182,192,58199,1,0,0:0:0:0:
36,192,58366,1,0,0:0:0:0:
402,192,58366,1,0,0:0:0:0:
109,192,58366,1,0,0:0:0:0:
329,192,58449,1,0,0:0:0:0:
256,192,58532,1,0,0:0:0:0:
182,192,58616,1,0,0:0:0:0:
475,192,58699,1,0,0:0:0:0:
329,192,58699,1,0,0:0:0:0:
109,192,58699,1,0,0:0:0:0:
36,192,58699,1,0,0:0:0:0:
256,192,58866,1,0,0:0:0:0:
182,192,59032,1,0,0:0:0:0:
36,192,59032,1,0,0:0:0:0:
402,192,59032,1,0,0:0:0:0:
329,192,59199,1,0,0:0:0:0:
256,192,59366,1,0,0:0:0:0:
475,192,59366,128,0,59699:0:0:0:0:
36,192,59699,1,0,0:0:0:0:
402,192,59699,1,0,0:0:0:0:
329,192,59782,1,0,0:0:0:0:
256,192,59866,1,0,0:0:0:0:
182,192,59949,1,0,0:0:0:0:
475,192,60032,1,0,0:0:0:0:
109,192,60032,1,0,0:0:0:0:
402,192,60199,1,0,0:0:0:0:
329,192,60366,1,0,0:0:0:0:
36,192,60366,1,0,0:0:0:0:
182,192,60449,1,0,0:0:0:0:
475,192,60532,1,0,0:0:0:0:
329,192,60616,1,0,0:0:0:0:
182,192,60699,1,0,0:0:0:0:
36,192,60699,1,0,0:0:0:0:
256,192,60866,1,0,0:0:0:0:
475,192,61032,1,0,0:0:0:0:
329,192,61032,1,0,0:0:0:0:
109,192,61032,1,0,0:0:0:0:
182,192,61199,1,0,0:0:0:0:
256,192,61366,1,0,0:0:0:0:
475,192,61366,128,0,61699:0:0:0:0:
36,192,61699,128,0,62032:0:0:0:0:
402,192,61699,1,0,0:0:0:0:
182,192,61699,1,0,0:0:0:0:
329,192,61866,1,0,0:0:0:0:
182,192,62032,128,0,62366:0:0:0:0:
475,192,62032,1,0,0:0:0:0:
402,192,62199,1,0,0:0:0:0:
329,192,62366,128,0,62699:0:0:0:0:
109,192,62366,1,0,0:0:0:0:
36,192,62366,1,0,0:0:0:0:
182,192,62532,1,0,0:0:0:0:
109,192,62699,128,0,63032:0:0:0:0:
475,192,62699,1,0,0:0:0:0:
256,192,62866,1,0,0:0:0:0:
402,192,63032,128,0,63366:0:0:0:0:
36,192,63032,1,0,0:0:0:0:
182,192,63032,1,0,0:0:0:0:
329,192,63199,1,0,0:0:0:0:
475,192,63366,1,0,0:0:0:0:
256,192,63366,1,0,0:0:0:0:
109,192,63532,1,0,0:0:0:0:
182,192,63699,1,0,0:0:0:0:
329,192,63699,1,0,0:0:0:0:
36,192,63699,128,0,64032:0:0:0:0:
475,192,64032,1,0,0:0:0:0:
256,192,64032,1,0,0:0:0:0:
402,192,64199,1,0,0:0:0:0:
182,192,64366,1,0,0:0:0:0:
36,192,64366,1,0,0:0:0:0:
329,192,64366,1,0,0:0:0:0:
109,192,64532,1,0,0:0:0:0:
256,192,64699,1,0,0:0:0:0:
475,192,64699,128,0,65032:0:0:0:0:
182,192,64866,1,0,0:0:0:0:
36,192,65032,1,0,0:0:0:0:
329,192,65032,1,0,0:0:0:0:
109,192,65116,1,0,0:0:0:0:
256,192,65199,1,0,0:0:0:0:
182,192,65282,1,0,0:0:0:0:
475,192,65366,1,0,0:0:0:0:
109,192,65366,1,0,0:0:0:0:
402,192,65532,1,0,0:0:0:0:
256,192,65699,1,0,0:0:0:0:
36,192,65699,1,0,0:0:0:0:
475,192,65782,1,0,0:0:0:0:
329,192,65866,1,0,0:0:0:0:
182,192,65949,1,0,0:0:0:0:
475,192,66032,1,0,0:0:0:0:
36,192,66032,128,0,66366:0:0:0:0:
256,192,66199,1,0,0:0:0:0:
402,192,66366,1,0,0:0:0:0:
109,192,66366,1,0,0:0:0:0:
475,192,66366,1,0,0:0:0:0:
329,192,66532,1,0,0:0:0:0:
36,192,66699,1,0,0:0:0:0:
475,192,66699,128,0,67032:0:0:0:0:
109,192,66866,1,0,0:0:0:0:
256,192,67032,128,0,67366:0:0:0:0:
402,192,67032,1,0,0:0:0:0:
182,192,67032,1,0,0:0:0:0:
329,192,67199,1,0,0:0:0:0:
36,192,67366,128,0,67699:0:0:0:0:
109,192,67366,1,0,0:0:0:0:
329,192,67532,1,0,0:0:0:0:
475,192,67699,128,0,68032:0:0:0:0:
182,192,67699,1,0,0:0:0:0:
402,192,67699,1,0,0:0:0:0:
256,192,67866,1,0,0:0:0:0:
329,192,68032,1,0,0:0:0:0:
36,192,68032,128,0,68366:0:0:0:0:
182,192,68199,1,0,0:0:0:0:
475,192,68366,128,0,68699:0:0:0:0:
329,192,68532,1,0,0:0:0:0:
109,192,68699,128,0,69032:0:0:0:0:
256,192,68866,1,0,0:0:0:0:
402,192,69032,128,0,69366:0:0:0:0:
182,192,69199,1,0,0:0:0:0:
36,192,69366,128,0,70032:0:0:0:0:
475,192,69366,1,0,0:0:0:0:
329,192,69366,1,0,0:0:0:0:
109,192,69366,1,0,0:0:0:0:
402,192,70032,128,0,70255:0:0:0:0:
256,192,70255,128,0,70477:0:0:0:0:
402,192,70477,128,0,70699:0:0:0:0:
109,192,70699,128,0,71032:0:0:0:0:
329,192,71032,128,0,71199:0:0:0:0:
329,192,71366,128,0,71699:0:0:0:0:
182,192,71699,128,0,72032:0:0:0:0:
475,192,72032,128,0,72699:0:0:0:0:
36,192,72699,128,0,73366:0:0:0:0:
329,192,73366,128,0,74032:0:0:0:0:
256,192,74032,128,0,74699:0:0:0:0:
109,192,74699,128,0,74921:0:0:0:0:
329,192,74921,128,0,75144:0:0:0:0:
475,192,75144,128,0,75366:0:0:0:0:
36,192,75366,128,0,75699:0:0:0:0:
402,192,75699,128,0,76032:0:0:0:0:
329,192,76032,128,0,76366:0:0:0:0:
182,192,76366,128,0,76699:0:0:0:0:
36,192,76699,128,0,77032:0:0:0:0:
402,192,77032,128,0,77366:0:0:0:0:
256,192,77366,128,0,78366:0:0:0:0:
109,192,78366,128,0,78699:0:0:0:0:
475,192,78699,128,0,79699:0:0:0:0:
329,192,79699,128,0,80032:0:0:0:0:
182,192,80032,1,0,0:0:0:0:
402,192,80032,1,0,0:0:0:0:
109,192,80032,1,0,0:0:0:0:
36,192,80032,1,0,0:0:0:0:
475,192,80255,128,0,80588:0:0:0:0:
36,192,80255,1,0,0:0:0:0:
182,192,80366,1,0,0:0:0:0:
329,192,80699,128,0,80921:0:0:0:0:
109,192,80699,1,0,0:0:0:0:
182,192,80921,128,0,81144:0:0:0:0:
402,192,81032,1,0,0:0:0:0:
36,192,81144,128,0,81366:0:0:0:0:
402,192,81366,128,0,81699:0:0:0:0:
182,192,81588,1,0,0:0:0:0:
36,192,81699,128,0,82032:0:0:0:0:
256,192,81810,1,0,0:0:0:0:
329,192,81921,1,0,0:0:0:0:
475,192,82032,128,0,82366:0:0:0:0:
109,192,82255,1,0,0:0:0:0:
182,192,82366,128,0,82699:0:0:0:0:
329,192,82477,1,0,0:0:0:0:
475,192,82699,128,0,83032:0:0:0:0:
36,192,82921,1,0,0:0:0:0:
329,192,83032,128,0,83366:0:0:0:0:
256,192,83366,128,0,84032:0:0:0:0:
475,192,83588,1,0,0:0:0:0:
329,192,83699,1,0,0:0:0:0:
182,192,84032,128,0,84699:0:0:0:0:
36,192,84255,1,0,0:0:0:0:
329,192,84366,1,0,0:0:0:0:
402,192,84477,1,0,0:0:0:0:
475,192,84588,1,0,0:0:0:0:
36,192,84699,128,0,85366:0:0:0:0:
329,192,84921,1,0,0:0:0:0:
256,192,85144,1,0,0:0:0:0:
475,192,85366,1,0,0:0:0:0:
182,192,85366,1,0,0:0:0:0:
109,192,85366,128,0,86699:0:0:0:0:
402,192,85366,128,0,86699:0:0:0:0:
182,192,86699,128,0,88032:0:0:0:0:
329,192,86699,128,0,87366:0:0:0:0:
402,192,87366,128,0,87588:0:0:0:0:
475,192,87588,128,0,87810:0:0:0:0:
329,192,87810,128,0,88032:0:0:0:0:
36,192,88032,128,0,89366:0:0:0:0:
475,192,88032,128,0,90032:0:0:0:0:
36,192,91699,128,0,92032:0:0:0:0:
475,192,92032,1,0,0:0:0:0:
182,192,92032,1,0,0:0:0:0:
329,192,92199,1,0,0:0:0:0:
402,192,92366,1,0,0:0:0:0:
256,192,92532,1,0,0:0:0:0:
475,192,92699,1,0,0:0:0:0:
36,192,93032,1,0,0:0:0:0:
109,192,93116,1,0,0:0:0:0:
182,192,93199,1,0,0:0:0:0:
256,192,93282,1,0,0:0:0:0:
329,192,93366,1,0,0:0:0:0:
475,192,93366,1,0,0:0:0:0:
182,192,93532,1,0,0:0:0:0:
256,192,93699,1,0,0:0:0:0:
109,192,93866,1,0,0:0:0:0:
329,192,94032,1,0,0:0:0:0:
36,192,94032,1,0,0:0:0:0:
182,192,94199,1,0,0:0:0:0:
109,192,94366,1,0,0:0:0:0:
256,192,94532,1,0,0:0:0:0:
329,192,94699,1,0,0:0:0:0:
475,192,94699,1,0,0:0:0:0:
36,192,95032,1,0,0:0:0:0:
182,192,95366,1,0,0:0:0:0:
329,192,95699,1,0,0:0:0:0:
36,192,96032,1,0,0:0:0:0:
475,192,96032,1,0,0:0:0:0:
256,192,96366,1,0,0:0:0:0:
256,192,96866,1,0,0:0:0:0:
402,192,97032,1,0,0:0:0:0:
182,192,97366,1,0,0:0:0:0:
475,192,97366,1,0,0:0:0:0:
329,192,97532,1,0,0:0:0:0:
109,192,97699,1,0,0:0:0:0:
256,192,97866,1,0,0:0:0:0:
36,192,98032,1,0,0:0:0:0:
182,192,98366,1,0,0:0:0:0:
256,192,98449,1,0,0:0:0:0:
329,192,98532,1,0,0:0:0:0:
402,192,98616,1,0,0:0:0:0:
475,192,98699,1,0,0:0:0:0:
182,192,98699,1,0,0:0:0:0:
36,192,98866,1,0,0:0:0:0:
475,192,99032,1,0,0:0:0:0:
256,192,99199,1,0,0:0:0:0:
182,192,99699,1,0,0:0:0:0:
329,192,99866,1,0,0:0:0:0:
36,192,100032,1,0,0:0:0:0:
475,192,100032,1,0,0:0:0:0:
256,192,100366,1,0,0:0:0:0:
402,192,100699,1,0,0:0:0:0:
182,192,100699,1,0,0:0:0:0:
109,192,101032,1,0,0:0:0:0:
475,192,101366,1,0,0:0:0:0:
36,192,101366,1,0,0:0:0:0:
402,192,101699,1,0,0:0:0:0:
109,192,102032,1,0,0:0:0:0:
329,192,102032,1,0,0:0:0:0:
256,192,102366,1,0,0:0:0:0:
475,192,102699,1,0,0:0:0:0:
36,192,102699,1,0,0:0:0:0:
329,192,102866,1,0,0:0:0:0:
402,192,103032,1,0,0:0:0:0:
109,192,103032,1,0,0:0:0:0:
256,192,103199,1,0,0:0:0:0:
475,192,103366,1,0,0:0:0:0:
36,192,103366,1,0,0:0:0:0:
329,192,103532,1,0,0:0:0:0:
36,192,103699,1,0,0:0:0:0:
402,192,103699,1,0,0:0:0:0:
109,192,103782,1,0,0:0:0:0:
182,192,103866,1,0,0:0:0:0:
256,192,103949,1,0,0:0:0:0:
475,192,104032,1,0,0:0:0:0:
329,192,104032,1,0,0:0:0:0:
182,192,104199,1,0,0:0:0:0:
256,192,104366,1,0,0:0:0:0:
402,192,104366,1,0,0:0:0:0:
109,192,104532,1,0,0:0:0:0:
36,192,104699,1,0,0:0:0:0:
329,192,104699,1,0,0:0:0:0:
182,192,104866,1,0,0:0:0:0:
109,192,105032,1,0,0:0:0:0:
402,192,105032,1,0,0:0:0:0:
256,192,105199,1,0,0:0:0:0:
475,192,105366,1,0,0:0:0:0:
329,192,105366,1,0,0:0:0:0:
182,192,105532,1,0,0:0:0:0:
475,192,105699,1,0,0:0:0:0:
36,192,105699,1,0,0:0:0:0:
109,192,105866,1,0,0:0:0:0:
329,192,106032,1,0,0:0:0:0:
182,192,106032,1,0,0:0:0:0:
402,192,106199,1,0,0:0:0:0:
182,192,106366,1,0,0:0:0:0:
329,192,106366,1,0,0:0:0:0:
109,192,106532,1,0,0:0:0:0:
475,192,106699,1,0,0:0:0:0:
36,192,106699,1,0,0:0:0:0:
402,192,106866,1,0,0:0:0:0:
256,192,107032,1,0,0:0:0:0:
109,192,107032,1,0,0:0:0:0:
329,192,107199,1,0,0:0:0:0:
475,192,107366,1,0,0:0:0:0:
182,192,107366,1,0,0:0:0:0:
109,192,107532,1,0,0:0:0:0:
402,192,107699,1,0,0:0:0:0:
256,192,107699,1,0,0:0:0:0:
329,192,107866,1,0,0:0:0:0:
475,192,108032,1,0,0:0:0:0:
182,192,108032,1,0,0:0:0:0:
329,192,108199,1,0,0:0:0:0:
402,192,108366,1,0,0:0:0:0:
109,192,108366,1,0,0:0:0:0:
256,192,108532,1,0,0:0:0:0:
329,192,108699,1,0,0:0:0:0:
36,192,108699,1,0,0:0:0:0:
475,192,108866,1,0,0:0:0:0:
182,192,109032,1,0,0:0:0:0:
36,192,109032,1,0,0:0:0:0:
256,192,109116,1,0,0:0:0:0:
329,192,109199,1,0,0:0:0:0:
402,192,109282,1,0,0:0:0:0:
182,192,109366,1,0,0:0:0:0:
475,192,109366,1,0,0:0:0:0:
36,192,109532,1,0,0:0:0:0:
329,192,109699,1,0,0:0:0:0:
475,192,109699,1,0,0:0:0:0:
256,192,109866,1,0,0:0:0:0:
402,192,110032,1,0,0:0:0:0:
36,192,110032,1,0,0:0:0:0:
256,192,110199,1,0,0:0:0:0:
182,192,110366,1,0,0:0:0:0:
475,192,110366,1,0,0:0:0:0:
329,192,110532,1,0,0:0:0:0:
475,192,110699,1,0,0:0:0:0:
36,192,110699,1,0,0:0:0:0:
109,192,110866,1,0,0:0:0:0:
329,192,111032,1,0,0:0:0:0:
475,192,111032,1,0,0:0:0:0:
402,192,111199,1,0,0:0:0:0:
36,192,111366,1,0,0:0:0:0:
256,192,111366,1,0,0:0:0:0:
109,192,111532,1,0,0:0:0:0:
329,192,111699,1,0,0:0:0:0:
182,192,111699,1,0,0:0:0:0:
402,192,111866,1,0,0:0:0:0:
36,192,112032,1,0,0:0:0:0:
475,192,112032,1,0,0:0:0:0:
402,192,112199,1,0,0:0:0:0:
182,192,112366,1,0,0:0:0:0:
36,192,112366,1,0,0:0:0:0:
109,192,112532,1,0,0:0:0:0:
475,192,112699,1,0,0:0:0:0:
256,192,112699,1,0,0:0:0:0:
402,192,112866,1,0,0:0:0:0:
182,192,113032,1,0,0:0:0:0:
329,192,113032,1,0,0:0:0:0:
36,192,113032,1,0,0:0:0:0:
109,192,113032,1,0,0:0:0:0:
109,192,113366,1,0,0:0:0:0:
402,192,113366,1,0,0:0:0:0:
475,192,113366,128,0,113532:0:0:0:0:
256,192,113532,128,0,113699:0:0:0:0:
329,192,113699,128,0,113866:0:0:0:0:
109,192,113866,128,0,114032:0:0:0:0:
256,192,114032,128,0,114366:0:0:0:0:
475,192,114366,1,0,0:0:0:0:
109,192,114366,1,0,0:0:0:0:
402,192,114449,1,0,0:0:0:0:
329,192,114532,1,0,0:0:0:0:
256,192,114616,1,0,0:0:0:0:
36,192,114699,1,0,0:0:0:0:
475,192,114699,1,0,0:0:0:0:
182,192,114699,1,0,0:0:0:0:
402,192,114699,1,0,0:0:0:0:
256,192,114866,1,0,0:0:0:0:
36,192,115032,1,0,0:0:0:0:
329,192,115032,1,0,0:0:0:0:
182,192,115116,1,0,0:0:0:0:
475,192,115199,1,0,0:0:0:0:
329,192,115282,1,0,0:0:0:0:
36,192,115366,1,0,0:0:0:0:
182,192,115366,1,0,0:0:0:0:
329,192,115532,1,0,0:0:0:0:
109,192,115699,1,0,0:0:0:0:
256,192,115699,1,0,0:0:0:0:
475,192,115699,1,0,0:0:0:0:
402,192,115866,1,0,0:0:0:0:
182,192,116032,1,0,0:0:0:0:
36,192,116032,128,0,116366:0:0:0:0:
256,192,116199,1,0,0:0:0:0:
402,192,116366,1,0,0:0:0:0:
109,192,116366,1,0,0:0:0:0:
475,192,116366,128,0,116699:0:0:0:0:
256,192,116532,1,0,0:0:0:0:
329,192,116699,1,0,0:0:0:0:
36,192,116699,128,0,117032:0:0:0:0:
182,192,116866,1,0,0:0:0:0:
109,192,117032,1,0,0:0:0:0:
475,192,117032,1,0,0:0:0:0:
402,192,117032,128,0,117366:0:0:0:0:
256,192,117199,1,0,0:0:0:0:
109,192,117366,128,0,117699:0:0:0:0:
329,192,117366,1,0,0:0:0:0:
182,192,117532,1,0,0:0:0:0:
256,192,117699,128,0,118032:0:0:0:0:
475,192,117699,1,0,0:0:0:0:
36,192,117699,1,0,0:0:0:0:
402,192,117866,1,0,0:0:0:0:
329,192,118032,1,0,0:0:0:0:
36,192,118032,1,0,0:0:0:0:
256,192,118199,1,0,0:0:0:0:
109,192,118366,1,0,0:0:0:0:
475,192,118366,1,0,0:0:0:0:
402,192,118366,128,0,118699:0:0:0:0:
182,192,118532,1,0,0:0:0:0:
36,192,118699,1,0,0:0:0:0:
256,192,118699,1,0,0:0:0:0:
109,192,118866,1,0,0:0:0:0:
182,192,119032,1,0,0:0:0:0:
402,192,119032,1,0,0:0:0:0:
475,192,119032,1,0,0:0:0:0:
329,192,119199,1,0,0:0:0:0:
109,192,119366,1,0,0:0:0:0:
402,192,119366,1,0,0:0:0:0:
36,192,119532,1,0,0:0:0:0:
402,192,119699,1,0,0:0:0:0:
182,192,119699,1,0,0:0:0:0:
109,192,119782,1,0,0:0:0:0:
256,192,119866,1,0,0:0:0:0:
329,192,119949,1,0,0:0:0:0:
182,192,120032,1,0,0:0:0:0:
475,192,120032,1,0,0:0:0:0:
329,192,120199,1,0,0:0:0:0:
109,192,120366,1,0,0:0:0:0:
256,192,120366,1,0,0:0:0:0:
475,192,120449,1,0,0:0:0:0:
329,192,120532,1,0,0:0:0:0:
182,192,120616,1,0,0:0:0:0:
475,192,120699,128,0,121032:0:0:0:0:
36,192,120699,1,0,0:0:0:0:
109,192,120866,1,0,0:0:0:0:
182,192,121032,1,0,0:0:0:0:
402,192,121032,1,0,0:0:0:0:
329,192,121032,1,0,0:0:0:0:
256,192,121199,1,0,0:0:0:0:
109,192,121366,1,0,0:0:0:0:
475,192,121366,128,0,121699:0:0:0:0:
256,192,121532,1,0,0:0:0:0:
36,192,121699,128,0,122032:0:0:0:0:
109,192,121699,1,0,0:0:0:0:
329,192,121699,1,0,0:0:0:0:
182,192,121866,1,0,0:0:0:0:
329,192,122032,1,0,0:0:0:0:
402,192,122032,128,0,122366:0:0:0:0:
256,192,122199,1,0,0:0:0:0:
109,192,122366,128,0,122699:0:0:0:0:
36,192,122366,1,0,0:0:0:0:
475,192,122366,1,0,0:0:0:0:
329,192,122532,1,0,0:0:0:0:
475,192,122699,1,0,0:0:0:0:
402,192,122699,1,0,0:0:0:0:
182,192,122699,1,0,0:0:0:0:
36,192,122866,1,0,0:0:0:0:
109,192,122949,1,0,0:0:0:0:
182,192,123032,1,0,0:0:0:0:
329,192,123032,1,0,0:0:0:0:
475,192,123032,1,0,0:0:0:0:
475,192,123199,1,0,0:0:0:0:
402,192,123282,1,0,0:0:0:0:
329,192,123366,1,0,0:0:0:0:
182,192,123366,1,0,0:0:0:0:
36,192,123366,1,0,0:0:0:0:
182,192,123532,1,0,0:0:0:0:
256,192,123616,1,0,0:0:0:0:
36,192,123699,1,0,0:0:0:0:
475,192,123699,1,0,0:0:0:0:
329,192,123699,1,0,0:0:0:0:
329,192,123866,1,0,0:0:0:0:
256,192,123949,1,0,0:0:0:0:
36,192,124032,1,0,0:0:0:0:
475,192,124032,1,0,0:0:0:0:
109,192,124032,1,0,0:0:0:0:
182,192,124032,1,0,0:0:0:0:
329,192,124199,1,0,0:0:0:0:
256,192,124366,1,0,0:0:0:0:
402,192,124366,1,0,0:0:0:0:
36,192,124366,1,0,0:0:0:0:
329,192,124532,1,0,0:0:0:0:
182,192,124699,1,0,0:0:0:0:
475,192,124699,128,0,125032:0:0:0:0:
256,192,124866,1,0,0:0:0:0:
36,192,125032,1,0,0:0:0:0:
402,192,125032,1,0,0:0:0:0:
182,192,125116,1,0,0:0:0:0:
256,192,125199,1,0,0:0:0:0:
329,192,125282,1,0,0:0:0:0:
475,192,125366,1,0,0:0:0:0:
109,192,125366,1,0,0:0:0:0:
256,192,125532,1,0,0:0:0:0:
475,192,125699,1,0,0:0:0:0:
182,192,125699,1,0,0:0:0:0:
329,192,125782,1,0,0:0:0:0:
36,192,125866,1,0,0:0:0:0:
182,192,125949,1,0,0:0:0:0:
329,192,126032,1,0,0:0:0:0:
475,192,126032,1,0,0:0:0:0:
182,192,126199,1,0,0:0:0:0:
402,192,126366,1,0,0:0:0:0:
256,192,126366,1,0,0:0:0:0:
36,192,126366,1,0,0:0:0:0:
109,192,126532,1,0,0:0:0:0:
329,192,126699,1,0,0:0:0:0:
475,192,126699,128,0,127032:0:0:0:0:
256,192,126866,1,0,0:0:0:0:
109,192,127032,1,0,0:0:0:0:
402,192,127032,1,0,0:0:0:0:
36,192,127032,128,0,127366:0:0:0:0:
256,192,127199,1,0,0:0:0:0:
182,192,127366,1,0,0:0:0:0:
475,192,127366,128,0,127699:0:0:0:0:
329,192,127532,1,0,0:0:0:0:
402,192,127699,1,0,0:0:0:0:
36,192,127699,1,0,0:0:0:0:
109,192,127699,128,0,128032:0:0:0:0:
256,192,127866,1,0,0:0:0:0:
402,192,128032,128,0,128366:0:0:0:0:
182,192,128032,1,0,0:0:0:0:
329,192,128199,1,0,0:0:0:0:
256,192,128366,128,0,128699:0:0:0:0:
36,192,128366,1,0,0:0:0:0:
475,192,128366,1,0,0:0:0:0:
109,192,128532,1,0,0:0:0:0:
182,192,128699,1,0,0:0:0:0:
475,192,128699,1,0,0:0:0:0:
256,192,128866,1,0,0:0:0:0:
402,192,129032,1,0,0:0:0:0:
36,192,129032,1,0,0:0:0:0:
109,192,129032,128,0,129366:0:0:0:0:
329,192,129199,1,0,0:0:0:0:
475,192,129366,1,0,0:0:0:0:
256,192,129366,1,0,0:0:0:0:
402,192,129532,1,0,0:0:0:0:
329,192,129699,1,0,0:0:0:0:
109,192,129699,1,0,0:0:0:0:
36,192,129699,1,0,0:0:0:0:
182,192,129866,1,0,0:0:0:0:
402,192,130032,1,0,0:0:0:0:
109,192,130032,1,0,0:0:0:0:
475,192,130199,1,0,0:0:0:0:
109,192,130366,1,0,0:0:0:0:
329,192,130366,1,0,0:0:0:0:
402,192,130449,1,0,0:0:0:0:
256,192,130532,1,0,0:0:0:0:
182,192,130616,1,0,0:0:0:0:
329,192,130699,1,0,0:0:0:0:
36,192,130699,1,0,0:0:0:0:
182,192,130866,1,0,0:0:0:0:
402,192,131032,1,0,0:0:0:0:
256,192,131032,1,0,0:0:0:0:
36,192,131116,1,0,0:0:0:0:
182,192,131199,1,0,0:0:0:0:
329,192,131282,1,0,0:0:0:0:
36,192,131366,128,0,131699:0:0:0:0:
475,192,131366,1,0,0:0:0:0:
402,192,131532,1,0,0:0:0:0:
329,192,131699,1,0,0:0:0:0:
109,192,131699,1,0,0:0:0:0:
182,192,131699,1,0,0:0:0:0:
256,192,131866,1,0,0:0:0:0:
329,192,132032,1,0,0:0:0:0:
475,192,132032,1,0,0:0:0:0:
36,192,132032,128,0,132366:0:0:0:0:
402,192,132032,1,0,0:0:0:0:
182,192,132199,1,0,0:0:0:0:
475,192,132366,128,0,132699:0:0:0:0:
402,192,132366,1,0,0:0:0:0:
256,192,132366,1,0,0:0:0:0:
329,192,132532,1,0,0:0:0:0:
182,192,132699,1,0,0:0:0:0:
36,192,132699,1,0,0:0:0:0:
109,192,132699,128,0,133032:0:0:0:0:
329,192,132866,1,0,0:0:0:0:
402,192,133032,128,0,133366:0:0:0:0:
475,192,133032,1,0,0:0:0:0:
256,192,133032,1,0,0:0:0:0:
182,192,133199,1,0,0:0:0:0:
36,192,133366,1,0,0:0:0:0:
109,192,133366,1,0,0:0:0:0:
329,192,133366,1,0,0:0:0:0:
256,192,133532,1,0,0:0:0:0:
329,192,133616,1,0,0:0:0:0:
402,192,133699,1,0,0:0:0:0:
36,192,133699,1,0,0:0:0:0:
182,192,133699,1,0,0:0:0:0:
256,192,133866,1,0,0:0:0:0:
182,192,133949,5,0,0:0:0:0:
109,192,134032,1,0,0:0:0:0:
329,192,134032,1,0,0:0:0:0:
475,192,134032,1,0,0:0:0:0:
256,192,134199,1,0,0:0:0:0:
329,192,134282,1,0,0:0:0:0:
182,192,134366,1,0,0:0:0:0:
36,192,134366,1,0,0:0:0:0:
402,192,134366,1,0,0:0:0:0:
256,192,134532,1,0,0:0:0:0:
182,192,134616,1,0,0:0:0:0:
329,192,134699,1,0,0:0:0:0:
109,192,134699,1,0,0:0:0:0:
256,192,135032,1,0,0:0:0:0:
36,192,135032,1,0,0:0:0:0:
475,192,135032,1,0,0:0:0:0:
329,192,135199,1,0,0:0:0:0:
402,192,135282,1,0,0:0:0:0:
109,192,135366,1,0,0:0:0:0:
36,192,135366,1,0,0:0:0:0:
475,192,135366,1,0,0:0:0:0:
182,192,135532,1,0,0:0:0:0:
109,192,135616,1,0,0:0:0:0:
402,192,135699,1,0,0:0:0:0:
36,192,135699,1,0,0:0:0:0:
475,192,135699,1,0,0:0:0:0:
329,192,135866,1,0,0:0:0:0:
402,192,135949,1,0,0:0:0:0:
109,192,136032,1,0,0:0:0:0:
36,192,136032,1,0,0:0:0:0:
475,192,136032,1,0,0:0:0:0:
182,192,136199,1,0,0:0:0:0:
109,192,136282,1,0,0:0:0:0:
256,192,136366,1,0,0:0:0:0:
36,192,136366,1,0,0:0:0:0:
475,192,136366,1,0,0:0:0:0:
402,192,136532,1,0,0:0:0:0:
109,192,136532,1,0,0:0:0:0:
329,192,136616,1,0,0:0:0:0:
256,192,136699,1,0,0:0:0:0:
36,192,136699,1,0,0:0:0:0:
475,192,136699,1,0,0:0:0:0:
109,192,136866,1,0,0:0:0:0:
402,192,136866,1,0,0:0:0:0:
182,192,136949,1,0,0:0:0:0:
256,192,137032,1,0,0:0:0:0:
109,192,137199,1,0,0:0:0:0:
256,192,137282,1,0,0:0:0:0:
402,192,137366,1,0,0:0:0:0:
36,192,137532,1,0,0:0:0:0:
182,192,137616,1,0,0:0:0:0:
329,192,137699,1,0,0:0:0:0:
475,192,137699,1,0,0:0:0:0:
256,192,137782,1,0,0:0:0:0:
182,192,137866,1,0,0:0:0:0:
109,192,137949,1,0,0:0:0:0:
402,192,138032,1,0,0:0:0:0:
329,192,138116,1,0,0:0:0:0:
256,192,138199,1,0,0:0:0:0:
182,192,138282,1,0,0:0:0:0:
