osu file format v14

[General]
AudioFilename: audio.mp3
AudioLeadIn: 0
PreviewTime: 113460
Countdown: 0
SampleSet: Soft
StackLeniency: 0.3
Mode: 0
LetterboxInBreaks: 0
WidescreenStoryboard: 1

[Editor]
Bookmarks: 139,5472,16138,26805,37472,42805,48138,69472,80138,89472,92127,102793,113460,138460
DistanceSpacing: 0.1
BeatDivisor: 4
GridSize: 16
TimelineZoom: 1.6

[Metadata]
Title:Ki ga Kurutta Noise
TitleUnicode:気が狂ったノイズ
Artist:Kuki Akumu
ArtistUnicode:茎悪夢
Creator:Astronic
Version:Hard
Source:
Tags:[jameson] jameson urition tynamo -tynamo coffee hispanic chm round of ro16 no mod NM2 pm04034 lanelanelane bitpop chiptune 8bit electronic instrumental streams
BeatmapID:4458051
BeatmapSetID:1569753

[Difficulty]
HPDrainRate:4
CircleSize:3.3
OverallDifficulty:6
ApproachRate:7.5
SliderMultiplier:1.4
SliderTickRate:1

[Events]
//Background and Video events
0,0,"bg.jpg",0,0
//Break Periods
2,69672,79313
//Storyboard Layer 0 (Background)
//Storyboard Layer 1 (Fail)
//Storyboard Layer 2 (Pass)
//Storyboard Layer 3 (Foreground)
//Storyboard Layer 4 (Overlay)
//Storyboard Sound Samples

[TimingPoints]
139,333.333333333333,4,2,1,50,1,0
5472,-100,4,2,1,60,0,0
16138,-100,4,2,1,70,0,0
37055,-100,4,2,1,70,0,0
37138,-100,4,2,1,70,0,0
37388,-100,4,2,1,70,0,0
37472,-111.111111111111,4,2,1,55,0,0
44138,-111.111111111111,4,2,1,60,0,0
45472,-111.111111111111,4,2,1,65,0,0
48138,-90.9090909090909,4,2,1,85,0,1
69472,-100,4,2,1,70,0,0
90794,333.333333333333,4,2,1,50,1,0
102793,-100,4,2,1,60,0,0
114793,-90.9090909090909,4,2,1,90,0,1
135127,333.333333333333,4,2,1,90,1,1
138460,-100,4,2,1,50,0,0

[Colours]
Combo1 : 192,192,192
Combo2 : 128,188,255
Combo3 : 0,164,0

[HitObjects]
48,64,139,6,0,P|117:38|180:61,1,140,14|2,0:1|0:0,0:0:0:0:
320,144,805,2,0,L|464:112,1,140,2|2,0:0|0:0,0:0:0:0:
496,272,1472,1,2,0:0:0:0:
336,240,1805,1,2,0:0:0:0:
208,352,2138,2,0,L|128:336,1,70,2|2,0:0|0:0,0:0:0:0:
57,316,2472,2,0,P|33:280|31:233,1,70,2|2,0:0|0:0,0:0:0:0:
64,176,2805,6,0,B|96:144|96:144|72:48,1,140,2|2,0:0|0:0,0:0:0:0:
240,16,3472,2,0,L|272:160,1,140,2|2,0:0|0:0,0:0:0:0:
312,315,4138,1,2,0:0:0:0:
480,368,4472,2,0,L|496:288,1,70,2|2,0:0|0:0,0:0:0:0:
462,221,4805,2,0,P|450:184|457:140,1,70,2|2,0:0|0:0,0:0:0:0:
496,80,5138,2,0,L|480:32,2,35,2|2|2,0:0|0:0|0:0,0:0:0:0:
411,83,5472,6,0,B|339:94|352:38|263:51,1,140,14|10,0:1|0:1,0:0:0:0:
210,98,5972,2,0,P|163:128|71:116,1,140,2|2,0:0|0:0,0:0:0:0:
5,85,6472,1,10,0:1:0:0:
104,220,6805,2,0,L|88:300,1,70,10|2,0:1|0:0,0:0:0:0:
160,344,7138,1,10,0:1:0:0:
160,344,7305,1,2,0:0:0:0:
238,313,7472,2,0,P|272:302|324:312,1,70,10|2,0:1|0:0,0:0:0:0:
384,336,7805,2,0,L|464:320,1,70,10|2,0:1|0:0,0:0:0:0:
476,240,8138,6,0,B|444:208|444:208|468:112,1,140,10|10,0:1|0:1,0:0:0:0:
496,36,8638,2,0,P|440:88|376:88,1,140,2|2,0:0|0:0,0:0:0:0:
304,32,9138,2,0,L|160:64,1,140,10|10,0:1|0:1,0:0:0:0:
95,18,9638,2,0,B|75:51|86:89|86:89|69:125|20:130,1,140,2|2,0:0|0:0,0:0:0:0:
96,192,10138,2,0,L|80:272,1,70,10|2,0:1|0:0,0:0:0:0:
67,347,10472,1,10,0:1:0:0:
67,347,10638,1,2,0:0:0:0:
160,320,10805,6,0,P|197:314|246:325,1,70,14|2,0:1|0:0,0:0:0:0:
320,352,11138,1,10,0:0:0:0:
320,352,11305,2,0,L|336:272,1,70,2|10,0:0|0:1,0:0:0:0:
416,256,11638,1,2,0:0:0:0:
416,256,11805,2,0,P|446:243|473:204,1,70,10|2,0:0|0:0,0:0:0:0:
480,128,12138,2,0,L|400:144,2,70,10|2|10,0:1|0:0|0:0,0:0:0:0:
432,48,12638,1,2,0:0:0:0:
432,48,12805,2,0,L|352:64,1,70,10|2,0:1|0:0,0:0:0:0:
275,86,13138,2,0,P|223:84|192:69,1,70,10|2,0:0|0:0,0:0:0:0:
136,16,13472,6,0,B|104:48|104:48|128:144,1,140,10|10,0:1|0:0,0:0:0:0:
144,228,13972,2,0,B|220:212|204:268|284:252,1,140,2|2,0:0|0:0,0:0:0:0:
344,192,14472,2,0,P|372:168|408:160,1,70,10|2,0:0|0:0,0:0:0:0:
496,176,14805,2,0,L|512:256,1,70,10|2,0:0|0:0,0:0:0:0:
480,336,15138,2,0,L|400:320,1,70,10|2,0:0|0:0,0:0:0:0:
320,304,15472,1,10,0:0:0:0:
320,304,15638,1,2,0:0:0:0:
240,352,15805,1,10,0:0:0:0:
64,304,16138,6,0,B|83:223|19:242|37:161,1,140,14|8,0:1|0:0,0:0:0:0:
64,80,16638,1,2,0:0:0:0:
64,80,16805,2,0,L|144:96,1,70,10|0,0:1|0:0,0:0:0:0:
224,64,17138,2,0,L|240:144,1,70,10|2,0:0|0:0,0:0:0:0:
181,205,17472,2,0,P|160:241|160:283,1,70,10|0,0:1|0:0,0:0:0:0:
240,320,17805,2,0,L|224:368,2,35,10|2|2,0:0|0:0|0:0,0:0:0:0:
336,320,18138,1,10,0:1:0:0:
336,320,18222,1,2,0:0:0:0:
336,320,18305,1,2,0:0:0:0:
413,367,18472,2,0,P|426:328|421:286,1,70,10|2,0:0|0:0,0:0:0:0:
368,228,18805,6,0,B|400:196|400:196|376:100,1,140,10|8,0:1|0:0,0:0:0:0:
320,40,19305,1,2,0:0:0:0:
320,40,19472,2,0,P|361:19|404:22,1,70,10|0,0:1|0:0,0:0:0:0:
465,59,19805,2,0,L|481:139,1,70,10|2,0:0|0:0,0:0:0:0:
499,216,20138,2,0,P|471:248|469:293,1,70,10|0,0:1|0:0,0:0:0:0:
400,336,20472,2,0,L|411:383,2,35,10|2|2,0:0|0:0|0:0,0:0:0:0:
330,295,20805,1,10,0:1:0:0:
330,295,20888,1,2,0:0:0:0:
330,295,20972,1,2,0:0:0:0:
261,353,21138,2,0,L|181:337,1,70,10|2,0:0|0:0,0:0:0:0:
103,317,21472,6,0,B|120:278|102:247|102:247|120:212|169:210,1,140,10|8,0:1|0:0,0:0:0:0:
116,134,21972,1,2,0:0:0:0:
116,134,22138,2,0,P|103:95|111:53,1,70,10|0,0:1|0:0,0:0:0:0:
176,16,22472,2,0,L|256:32,1,70,10|2,0:0|0:0,0:0:0:0:
304,96,22805,2,0,L|384:80,1,70,10|0,0:1|0:0,0:0:0:0:
462,67,23138,2,0,L|478:3,2,35,10|2|2,0:0|0:0|0:0,0:0:0:0:
443,162,23472,1,10,0:1:0:0:
443,162,23555,1,2,0:0:0:0:
443,162,23638,1,2,0:0:0:0:
415,248,23805,2,0,P|401:287|406:338,1,70,10|2,0:0|0:0,0:0:0:0:
316,349,24138,6,0,P|262:304|248:223,1,140,10|8,0:1|0:0,0:0:0:0:
160,192,24638,1,2,0:0:0:0:
160,192,24805,2,0,L|176:112,1,70,10|0,0:1|0:0,0:0:0:0:
218,43,25138,2,0,P|174:34|133:44,1,70,10|2,0:0|0:0,0:0:0:0:
80,96,25472,2,0,L|64:176,1,70,10|0,0:1|0:0,0:0:0:0:
46,253,25805,2,0,L|-2:237,2,35,10|2|2,0:0|0:0|0:0,0:0:0:0:
100,339,26138,1,10,0:1:0:0:
100,339,26222,1,2,0:0:0:0:
100,339,26305,1,2,0:0:0:0:
184,300,26472,2,0,L|264:316,1,70,2|2,0:0|0:0,0:0:0:0:
340,340,26805,6,0,P|376:288|464:284,1,140,14|8,0:1|0:0,0:0:0:0:
492,196,27305,1,2,0:0:0:0:
492,196,27472,2,0,P|456:136|382:116,1,140,10|10,0:1|0:0,0:0:0:0:
320,160,27972,1,2,0:0:0:0:
320,160,28138,2,0,L|240:176,1,70,10|0,0:1|0:0,0:0:0:0:
160,192,28472,2,0,L|128:352,2,140,10|10|10,0:0|0:1|0:0,0:0:0:0:
80,144,29305,1,2,0:0:0:0:
80,144,29388,1,2,0:0:0:0:
80,144,29472,6,0,P|60:92|68:55,1,70,10|0,0:1|0:0,0:0:0:0:
128,16,29805,2,0,L|224:32,1,70,8|2,0:0|0:0,0:0:0:0:
256,96,30138,2,0,L|336:80,1,70,10|0,0:1|0:0,0:0:0:0:
399,29,30472,2,0,P|437:24|484:47,1,70,10|0,0:0|0:0,0:0:0:0:
425,115,30805,2,0,L|409:259,2,140,10|10|10,0:1|0:0|0:1,0:0:0:0:
512,170,31638,1,2,0:0:0:0:
512,170,31722,1,2,0:0:0:0:
512,170,31805,2,0,L|503:250,1,70,10|2,0:0|0:0,0:0:0:0:
478,327,32138,6,0,P|437:349|350:329,1,140,10|8,0:1|0:0,0:0:0:0:
288,256,32638,1,2,0:0:0:0:
288,256,32805,2,0,L|208:272,1,70,10|0,0:1|0:0,0:0:0:0:
160,336,33138,1,10,0:0:0:0:
160,336,33305,1,2,0:0:0:0:
85,283,33472,2,0,P|56:261|43:217,1,70,10|0,0:1|0:0,0:0:0:0:
80,144,33805,2,0,L|144:160,2,35,10|2|2,0:0|0:0|0:0,0:0:0:0:
48,64,34138,1,10,0:1:0:0:
48,64,34222,1,2,0:0:0:0:
48,64,34305,1,2,0:0:0:0:
128,16,34472,2,0,L|208:32,1,70,10|2,0:0|0:0,0:0:0:0:
284,48,34805,6,0,B|254:82|254:82|276:176,1,140,10|8,0:1|0:0,0:0:0:0:
208,240,35305,1,2,0:0:0:0:
208,240,35472,2,0,L|192:320,1,70,10|0,0:1|0:0,0:0:0:0:
272,368,35805,1,10,0:0:0:0:
272,368,35972,1,2,0:0:0:0:
352,320,36138,2,0,L|432:336,1,70,10|0,0:0|0:0,0:0:0:0:
490,274,36472,2,0,P|501:288|511:319,2,35,10|2|2,0:0|0:0|0:0,0:0:0:0:
400,240,36805,2,0,L|256:208,1,140,2|2,0:0|0:0,0:0:0:0:
176,304,37472,6,0,B|144:336|144:336|52:235|137:127,1,251.999992309571,14|0,0:1|0:0,0:0:0:0:
192,48,38472,1,2,0:0:0:0:
320,80,38805,2,0,B|382:76|409:19|409:19|505:53|496:144,1,251.999992309571,10|2,0:0|0:0,0:0:0:0:
480,240,39805,1,2,0:0:0:0:
359,275,40138,6,0,L|231:307,1,125.999996154785,10|2,0:1|0:0,0:0:0:0:
113,332,40805,2,0,P|80:276|91:206,1,125.999996154785,2|2,0:0|0:0,0:0:0:0:
45,97,41472,2,0,B|108:59|175:109|157:130|221:172|289:142,1,251.999992309571,10|2,0:0|0:0,0:0:0:0:
480,304,42805,6,0,B|448:336|448:336|368:312,2,125.999996154785,14|8|8,0:1|0:0|0:1,0:0:0:0:
400,160,43805,1,8,0:0:0:0:
368,80,43972,1,0,0:0:0:0:
368,80,44055,1,0,0:0:0:0:
368,80,44138,2,0,L|496:48,2,125.999996154785,10|8|8,0:1|0:0|0:1,0:0:0:0:
230,113,45138,1,8,0:0:0:0:
160,160,45305,1,0,0:0:0:0:
160,160,45388,1,0,0:0:0:0:
160,160,45472,6,0,P|144:103|185:40,2,125.999996154785,10|8|8,0:1|0:0|0:1,0:0:0:0:
96,320,46472,1,8,0:0:0:0:
183,347,46638,1,0,0:0:0:0:
183,347,46722,1,0,0:0:0:0:
183,347,46805,2,0,L|279:331,1,94.499997116089,10|10,0:1|0:1,0:0:0:0:
341,281,47222,2,0,L|405:297,1,62.9999980773926,10|10,0:1|0:1,0:0:0:0:
441,308,47472,2,0,P|465:270|466:234,1,62.9999980773926,10|10,0:1|0:1,0:0:0:0:
462,170,47805,2,0,L|406:182,2,31.4999990386963,2|2|2,0:0|0:0|0:0,0:0:0:0:
448,64,48138,5,14,0:1:0:0:
351,108,48305,1,2,0:0:0:0:
256,64,48472,2,0,P|243:100|245:138,1,77.0000023498536,10|2,0:0|0:0,0:0:0:0:
164,179,48805,2,0,P|194:211|227:227,1,77.0000023498536,10|0,0:1|0:0,0:0:0:0:
320,208,49138,1,10,0:0:0:0:
384,288,49305,1,2,0:0:0:0:
384,288,49388,1,2,0:0:0:0:
384,288,49472,6,0,L|368:368,1,77.0000023498536,10|2,0:1|0:0,0:0:0:0:
272,368,49805,1,10,0:0:0:0:
272,368,49972,1,2,0:0:0:0:
192,320,50138,2,0,L|112:336,1,77.0000023498536,10|2,0:1|0:0,0:0:0:0:
48,272,50472,2,0,P|27:223|30:179,1,77.0000023498536,10|2,0:0|0:0,0:0:0:0:
48,112,50805,1,10,0:1:0:0:
208,32,51138,2,0,L|304:48,1,77.0000023498536,10|0,0:0|0:0,0:0:0:0:
368,80,51472,2,0,L|448:64,1,77.0000023498536,10|0,0:1|0:0,0:0:0:0:
496,144,51805,2,0,P|482:181|489:231,1,77.0000023498536,10|0,0:0|0:0,0:0:0:0:
480,304,52138,6,0,L|400:288,1,77.0000023498536,10|0,0:1|0:0,0:0:0:0:
336,224,52472,2,0,B|254:242|267:181|183:197,1,154.000004699707,10|8,0:0|0:1,0:0:0:0:
160,288,52972,1,2,0:0:0:0:
160,288,53138,2,0,P|132:319|83:333,1,77.0000023498536,10|0,0:0|0:0,0:0:0:0:
16,288,53472,2,0,L|32:208,1,77.0000023498536,10|2,0:1|0:0,0:0:0:0:
80,128,53805,2,0,L|64:48,1,77.0000023498536,10|2,0:0|0:0,0:0:0:0:
144,16,54138,2,0,P|185:4|236:16,1,77.0000023498536,10|0,0:1|0:0,0:0:0:0:
304,32,54472,1,10,0:0:0:0:
272,128,54638,1,2,0:0:0:0:
272,128,54722,1,2,0:0:0:0:
272,128,54805,6,0,L|288:224,1,77.0000023498536,10|2,0:1|0:0,0:0:0:0:
256,288,55138,1,10,0:0:0:0:
336,336,55305,2,0,P|394:278|473:278,1,154.000004699707,2|0,0:0|0:0,0:0:0:0:
464,176,55805,2,0,L|448:96,1,77.0000023498536,10|2,0:0|0:0,0:0:0:0:
416,16,56138,2,0,P|379:50|341:60,1,77.0000023498536,10|0,0:1|0:0,0:0:0:0:
272,96,56472,2,0,P|231:75|185:70,1,77.0000023498536,10|0,0:0|0:0,0:0:0:0:
112,96,56805,2,0,L|128:176,1,77.0000023498536,10|0,0:1|0:0,0:0:0:0:
64,240,57138,2,0,P|44:272|38:328,1,77.0000023498536,10|0,0:0|0:0,0:0:0:0:
133,315,57472,5,10,0:0:0:0:
133,315,57638,1,0,0:0:0:0:
223,335,57805,2,0,P|274:336|310:315,1,77.0000023498536,10|0,0:0|0:0,0:0:0:0:
372,270,58138,1,10,0:0:0:0:
372,270,58305,1,0,0:0:0:0:
406,186,58472,1,10,0:0:0:0:
406,186,58638,1,0,0:0:0:0:
304,128,58805,5,14,0:1:0:0:
336,32,58972,1,2,0:0:0:0:
240,48,59138,2,0,L|160:64,1,77.0000023498536,10|2,0:0|0:0,0:0:0:0:
80,23,59472,2,0,P|70:65|80:105,1,77.0000023498536,10|0,0:1|0:0,0:0:0:0:
147,156,59805,1,10,0:0:0:0:
99,238,59972,1,2,0:0:0:0:
99,238,60055,1,2,0:0:0:0:
99,238,60138,2,0,L|83:318,1,77.0000023498536,10|2,0:1|0:0,0:0:0:0:
177,341,60472,1,10,0:0:0:0:
177,341,60638,1,2,0:0:0:0:
261,303,60805,2,0,L|245:223,1,77.0000023498536,10|2,0:1|0:0,0:0:0:0:
234,135,61138,2,0,P|247:88|279:53,1,77.0000023498536,10|2,0:0|0:0,0:0:0:0:
348,26,61472,5,10,0:1:0:0:
512,99,61805,2,0,L|496:195,1,77.0000023498536,10|0,0:0|0:0,0:0:0:0:
442,248,62138,2,0,L|458:328,1,77.0000023498536,10|0,0:1|0:0,0:0:0:0:
367,348,62472,2,0,P|319:362|267:355,1,77.0000023498536,10|0,0:0|0:0,0:0:0:0:
224,304,62805,2,0,L|128:320,1,77.0000023498536,10|0,0:1|0:0,0:0:0:0:
64,368,63138,2,0,B|32:336|32:336|72:224,1,154.000004699707,10|8,0:0|0:1,0:0:0:0:
112,160,63638,1,2,0:0:0:0:
112,160,63805,2,0,L|96:80,1,77.0000023498536,10|0,0:0|0:0,0:0:0:0:
160,16,64138,5,10,0:1:0:0:
240,64,64305,1,2,0:0:0:0:
320,32,64472,2,0,P|361:20|418:29,1,77.0000023498536,10|2,0:0|0:0,0:0:0:0:
464,80,64805,2,0,L|448:160,1,77.0000023498536,10|0,0:1|0:0,0:0:0:0:
480,240,65138,1,10,0:0:0:0:
460,336,65305,1,2,0:0:0:0:
460,336,65388,1,2,0:0:0:0:
460,336,65472,2,0,P|411:315|370:316,1,77.0000023498536,10|2,0:1|0:0,0:0:0:0:
296,297,65805,1,10,0:0:0:0:
203,302,65972,2,0,P|218:245|319:206,1,154.000004699707,2|0,0:0|0:0,0:0:0:0:
370,145,66472,1,10,0:0:0:0:
370,145,66638,1,2,0:0:0:0:
464,176,66805,6,0,L|480:96,1,77.0000023498536,10|0,0:1|0:0,0:0:0:0:
432,16,67138,2,0,P|388:8|342:21,1,77.0000023498536,10|0,0:0|0:0,0:0:0:0:
288,80,67472,2,0,L|208:64,1,77.0000023498536,10|0,0:1|0:0,0:0:0:0:
128,16,67805,2,0,L|48:32,1,77.0000023498536,10|0,0:0|0:0,0:0:0:0:
32,128,68138,2,0,B|0:160|0:160|32:268,1,154.000004699707,10|2,0:1|0:0,0:0:0:0:
208,320,68805,2,0,B|248:292|285:310|285:310|312:280|367:300,1,154.000004699707,2|2,0:0|0:0,0:0:0:0:
484,200,69472,5,14,0:1:0:0:
484,200,80138,6,0,L|472:272,1,70,14|2,0:1|0:0,0:0:0:0:
466,317,80388,1,2,0:0:0:0:
466,317,80472,2,0,P|439:339|394:346,1,70,2|0,0:0|0:0,0:0:0:0:
336,304,80805,2,0,L|256:320,1,70,2|2,0:0|0:0,0:0:0:0:
240,352,81055,1,2,0:0:0:0:
240,352,81138,2,0,L|160:336,1,70,2|0,0:0|0:0,0:0:0:0:
88,319,81472,6,0,P|66:280|64:244,1,70,2|2,0:0|0:0,0:0:0:0:
112,176,81805,2,0,L|96:96,1,70,2|0,0:0|0:0,0:0:0:0:
145,37,82138,2,0,P|93:23|44:39,2,93.3333333333333,2|2|2,0:0|0:0|0:0,0:0:0:0:
200,136,82805,2,0,L|280:120,1,70,2|2,0:0|0:0,0:0:0:0:
288,80,83055,1,2,0:0:0:0:
288,80,83138,2,0,L|368:96,1,70,2|0,0:0|0:0,0:0:0:0:
426,46,83472,2,0,P|441:86|435:132,1,70,2|2,0:0|0:0,0:0:0:0:
480,128,83722,1,2,0:0:0:0:
480,128,83805,2,0,L|464:208,1,70,2|0,0:0|0:0,0:0:0:0:
384,224,84138,6,0,L|400:304,1,70,2|2,0:0|0:0,0:0:0:0:
368,320,84388,1,2,0:0:0:0:
368,320,84472,2,0,P|332:304|288:304,1,70,2|0,0:0|0:0,0:0:0:0:
228,261,84805,2,0,P|195:309|152:325,2,93.3333333333333,2|2|2,0:0|0:0|0:0,0:0:0:0:
260,153,85472,1,14,0:1:0:0:
260,153,86805,5,2,0:0:0:0:
0,368,87472,2,0,P|23:308|71:284,2,93.3333333333333,2|2|2,0:0|0:0|0:0,0:0:0:0:
83,365,88138,1,2,0:0:0:0:
83,365,89472,5,2,0:0:0:0:
416,336,90138,1,2,0:0:0:0:
224,64,90794,1,2,0:0:0:0:
224,64,92127,6,0,L|304:80,1,70,2|2,0:0|0:0,0:0:0:0:
371,47,92460,2,0,P|407:36|455:43,1,70,2|2,0:0|0:0,0:0:0:0:
512,80,92794,1,2,0:0:0:0:
464,240,93127,2,0,L|480:304,3,35,2|2|2|2,0:0|0:0|0:0|0:0,0:0:0:0:
432,256,93460,2,0,L|352:240,1,70,2|2,0:0|0:0,0:0:0:0:
320,176,93794,2,0,L|240:192,1,70,2|2,0:0|0:0,0:0:0:0:
168,206,94127,1,2,0:0:0:0:
168,206,94294,1,2,0:0:0:0:
92,168,94460,2,0,P|85:199|95:241,1,70,2|2,0:0|0:0,0:0:0:0:
159,288,94794,5,2,0:0:0:0:
324,260,95127,2,0,L|468:292,2,140,2|2|2,0:0|0:0|0:0,0:0:0:0:
488,216,96127,1,2,0:0:0:0:
452,52,96460,2,0,B|332:80|356:4|240:32,1,210,2|2,0:0|0:0,0:0:0:0:
168,60,97127,1,2,0:0:0:0:
0,16,97460,2,0,L|16:96,1,70,2|2,0:0|0:0,0:0:0:0:
96,112,97794,2,0,L|80:192,1,70,2|2,0:0|0:0,0:0:0:0:
58,261,98127,1,2,0:0:0:0:
224,320,98460,2,0,L|240:384,3,35,2|2|2|2,0:0|0:0|0:0|0:0,0:0:0:0:
272,352,98793,2,0,P|312:358|349:343,1,70,2|2,0:0|0:0,0:0:0:0:
415,307,99127,1,2,0:0:0:0:
415,307,99293,1,2,0:0:0:0:
257,110,99793,2,0,L|273:190,1,70,2|2,0:0|0:0,0:0:0:0:
352,200,100127,6,0,L|493:230,1,140,2|2,0:0|0:0,0:0:0:0:
423,74,100793,2,0,P|372:31|290:33,1,140,2|2,0:0|0:0,0:0:0:0:
144,80,101460,2,0,L|176:224,1,140,2|2,0:0|0:0,0:0:0:0:
48,336,102127,1,2,0:0:0:0:
208,368,102460,1,2,0:0:0:0:
384,320,102793,6,0,L|464:336,1,70,2|2,0:0|0:0,0:0:0:0:
480,240,103127,2,0,L|400:224,1,70,2|2,0:0|0:0,0:0:0:0:
322,206,103460,1,2,0:0:0:0:
144,256,103793,2,0,L|160:320,3,35,2|2|2|2,0:0|0:0|0:0|0:0,0:0:0:0:
112,272,104127,2,0,L|128:192,1,70,2|2,0:0|0:0,0:0:0:0:
48,144,104460,1,2,0:0:0:0:
48,144,104627,1,2,0:0:0:0:
88,63,104793,2,0,P|105:33|149:11,1,70,2|2,0:0|0:0,0:0:0:0:
224,48,105127,2,0,L|304:32,1,70,2|2,0:0|0:0,0:0:0:0:
380,8,105460,5,2,0:0:0:0:
512,144,105793,2,0,L|496:224,1,70,2|0,0:0|0:0,0:0:0:0:
416,256,106127,2,0,L|432:336,1,70,2|0,0:0|0:0,0:0:0:0:
336,352,106460,2,0,L|320:272,1,70,2|0,0:0|0:0,0:0:0:0:
248,232,106793,2,0,B|216:200|216:200|240:88,2,140,2|2|0,0:0|0:0|0:0,0:0:0:0:
320,175,107627,1,2,0:0:0:0:
320,175,107793,2,0,P|362:160|404:163,1,70,2|0,0:0|0:0,0:0:0:0:
480,176,108127,6,0,L|464:96,1,70,2|2,0:0|0:0,0:0:0:0:
480,16,108460,2,0,L|400:32,1,70,2|2,0:0|0:0,0:0:0:0:
320,48,108793,1,2,0:0:0:0:
144,16,109127,2,0,L|160:80,3,35,2|2|2|2,0:0|0:0|0:0|0:0,0:0:0:0:
107,49,109460,2,0,P|87:70|72:114,1,70,2|2,0:0|0:0,0:0:0:0:
64,192,109793,2,0,L|80:272,1,70,2|2,0:0|0:0,0:0:0:0:
96,352,110127,1,0,0:0:0:0:
272,288,110460,1,2,0:0:0:0:
272,288,110627,1,2,0:0:0:0:
360,306,110793,6,0,L|440:322,1,70,2|0,0:0|0:0,0:0:0:0:
480,240,111127,2,0,L|400:224,1,70,2|0,0:0|0:0,0:0:0:0:
360,150,111460,2,0,P|400:135|441:138,1,70,2|0,0:0|0:0,0:0:0:0:
496,64,111793,1,2,0:0:0:0:
320,16,112127,2,0,P|300:46|259:67,1,70,2|0,0:0|0:0,0:0:0:0:
224,144,112460,2,0,L|144:128,1,70,2|0,0:0|0:0,0:0:0:0:
90,66,112793,2,0,P|73:94|63:139,1,70,2|0,0:0|0:0,0:0:0:0:
109,209,113127,1,10,0:0:0:0:
32,368,113460,6,0,L|112:352,1,70,10|2,0:1|0:0,0:0:0:0:
160,288,113793,2,0,L|256:304,1,70,2|2,0:0|0:0,0:0:0:0:
316,327,114127,1,2,0:0:0:0:
496,272,114460,2,0,L|512:336,3,35,10|2|2|2,0:0|0:0|0:0|0:0,0:0:0:0:
464,288,114793,6,0,P|425:268|403:237,1,77.0000023498536,14|2,0:1|0:0,0:0:0:0:
352,160,115127,1,10,0:0:0:0:
352,160,115293,1,2,0:0:0:0:
400,64,115460,2,0,L|320:48,1,77.0000023498536,10|2,0:1|0:0,0:0:0:0:
224,32,115793,1,10,0:0:0:0:
128,16,115960,1,2,0:0:0:0:
32,64,116127,2,0,L|16:144,1,77.0000023498536,10|0,0:1|0:0,0:0:0:0:
112,192,116460,2,0,P|101:233|109:271,1,77.0000023498536,10|0,0:0|0:0,0:0:0:0:
112,368,116793,2,0,L|192:352,1,77.0000023498536,10|0,0:1|0:0,0:0:0:0:
288,368,117127,2,0,L|368:352,1,77.0000023498536,10|0,0:0|0:0,0:0:0:0:
464,368,117460,6,0,P|475:312|492:289,1,77.0000023498536,10|0,0:1|0:0,0:0:0:0:
432,208,117793,2,0,B|464:176|464:176|494:62,1,154.000004699707,10|8,0:0|0:1,0:0:0:0:
416,0,118293,1,2,0:0:0:0:
336,48,118460,2,0,P|296:60|248:52,1,77.0000023498536,10|0,0:0|0:0,0:0:0:0:
176,16,118793,1,10,0:1:0:0:
176,16,118960,1,2,0:0:0:0:
160,112,119127,2,0,L|176:192,1,77.0000023498536,10|2,0:0|0:0,0:0:0:0:
272,192,119460,2,0,L|256:272,1,77.0000023498536,10|0,0:1|0:0,0:0:0:0:
240,368,119793,1,10,0:0:0:0:
151,348,119960,1,2,0:0:0:0:
151,348,120043,1,2,0:0:0:0:
151,348,120127,6,0,P|113:333|85:302,1,77.0000023498536,10|2,0:1|0:0,0:0:0:0:
34,222,120460,1,10,0:0:0:0:
31,121,120627,2,0,B|143:105|143:105|169:54,1,154.000004699707,2|0,0:0|0:0,0:0:0:0:
244,11,121127,1,10,0:0:0:0:
320,80,121293,1,2,0:0:0:0:
418,44,121460,2,0,P|454:28|502:28,1,77.0000023498536,10|0,0:1|0:0,0:0:0:0:
469,124,121793,2,0,P|493:144|513:192,1,77.0000023498536,10|0,0:0|0:0,0:0:0:0:
436,251,122127,2,0,L|452:331,1,77.0000023498536,10|0,0:1|0:0,0:0:0:0:
355,356,122460,2,0,L|339:276,1,77.0000023498536,10|0,0:0|0:0,0:0:0:0:
322,186,122793,5,10,0:0:0:0:
322,186,122960,1,0,0:0:0:0:
308,86,123127,2,0,P|268:100|237:131,1,77.0000023498536,10|0,0:0|0:0,0:0:0:0:
221,223,123460,1,10,0:0:0:0:
221,223,123627,1,0,0:0:0:0:
241,320,123793,1,10,0:0:0:0:
144,292,123960,1,0,0:0:0:0:
44,254,124127,6,0,L|28:174,1,77.0000023498536,14|2,0:1|0:0,0:0:0:0:
112,112,124460,2,0,L|128:32,1,77.0000023498536,10|2,0:0|0:0,0:0:0:0:
224,32,124793,2,0,P|266:18|315:23,1,77.0000023498536,10|0,0:1|0:0,0:0:0:0:
400,32,125127,1,10,0:0:0:0:
496,64,125293,1,2,0:0:0:0:
496,64,125377,1,2,0:0:0:0:
496,64,125460,6,0,L|512:144,1,77.0000023498536,10|2,0:1|0:0,0:0:0:0:
432,192,125793,2,0,L|416:272,1,77.0000023498536,10|2,0:0|0:0,0:0:0:0:
336,336,126127,1,10,0:1:0:0:
336,336,126293,1,2,0:0:0:0:
256,272,126460,2,0,L|272:192,1,77.0000023498536,10|2,0:0|0:0,0:0:0:0:
304,96,126793,2,0,P|256:93|218:108,1,77.0000023498536,10|0,0:1|0:0,0:0:0:0:
160,176,127127,2,0,L|80:160,1,77.0000023498536,10|0,0:0|0:0,0:0:0:0:
0,96,127460,2,0,L|16:16,1,77.0000023498536,10|0,0:1|0:0,0:0:0:0:
112,0,127793,2,0,L|192:16,1,77.0000023498536,10|0,0:0|0:0,0:0:0:0:
272,80,128127,6,0,L|368:64,1,77.0000023498536,10|0,0:1|0:0,0:0:0:0:
448,48,128460,2,0,B|438:127|496:102|486:197,1,154.000004699707,10|8,0:0|0:1,0:0:0:0:
480,288,128960,1,2,0:0:0:0:
480,288,129127,2,0,P|444:312|398:315,1,77.0000023498536,10|0,0:0|0:0,0:0:0:0:
320,352,129460,1,10,0:1:0:0:
240,288,129627,1,2,0:0:0:0:
240,288,129793,2,0,P|192:284|155:308,1,77.0000023498536,10|2,0:0|0:0,0:0:0:0:
80,352,130127,2,0,L|0:336,1,77.0000023498536,10|0,0:1|0:0,0:0:0:0:
32,240,130460,1,10,0:0:0:0:
64,144,130627,1,2,0:0:0:0:
64,144,130710,1,2,0:0:0:0:
64,144,130793,6,0,L|48:64,1,77.0000023498536,10|2,0:1|0:0,0:0:0:0:
144,16,131127,1,10,0:0:0:0:
224,80,131293,2,0,B|256:112|256:112|224:232,1,154.000004699707,2|0,0:0|0:0,0:0:0:0:
192,320,131793,2,0,L|272:304,1,77.0000023498536,10|2,0:0|0:0,0:0:0:0:
368,336,132127,2,0,L|384:256,1,77.0000023498536,14|0,0:0|0:0,0:0:0:0:
480,240,132460,1,10,0:0:0:0:
480,240,132627,1,0,0:0:0:0:
464,144,132793,2,0,L|448:64,1,77.0000023498536,10|0,0:0|0:0,0:0:0:0:
368,16,133127,1,10,0:0:0:0:
368,16,133293,1,0,0:0:0:0:
288,80,133460,6,0,P|245:103|201:103,1,77.0000023498536,14|0,0:0|0:0,0:0:0:0:
144,48,133793,2,0,L|64:32,1,77.0000023498536,10|0,0:0|0:0,0:0:0:0:
32,128,134127,2,0,L|112:144,1,77.0000023498536,14|0,0:0|0:0,0:0:0:0:
144,240,134460,2,0,P|190:218|233:216,1,77.0000023498536,10|0,0:0|0:0,0:0:0:0:
320,224,134793,1,8,0:1:0:0:
496,272,135127,6,0,L|480:352,1,70,14|0,0:1|0:0,0:0:0:0:
384,352,135460,2,0,L|304:336,1,70,8|0,0:0|0:0,0:0:0:0:
224,320,135793,1,8,0:1:0:0:
224,320,135960,1,0,0:0:0:0:
128,336,136127,2,0,P|88:319|59:296,1,70,8|0,0:0|0:0,0:0:0:0:
48,224,136460,1,8,0:0:0:0:
49,213,136543,1,0,0:0:0:0:
50,203,136626,1,0,0:0:0:0:
51,192,136710,1,0,0:0:0:0:
52,182,136793,2,0,P|84:150|100:118,1,70,8|0,0:0|0:0,0:0:0:0:
176,80,137127,1,2,0:0:0:0:
176,80,137210,1,2,0:0:0:0:
176,80,137293,1,2,0:0:0:0:
259,90,137460,2,0,L|323:74,2,35,2|2|2,0:0|0:0|0:0,0:0:0:0:
272,176,137793,2,0,L|288:256,1,70,8|0,0:0|0:0,0:0:0:0:
336,256,138043,1,0,0:0:0:0:
336,256,138127,2,0,L|400:272,2,35
