osu file format v14

[General]
AudioFilename: audio.mp3
AudioLeadIn: 0
PreviewTime: 113460
Countdown: 0
SampleSet: Soft
StackLeniency: 0.3
Mode: 0
LetterboxInBreaks: 0
WidescreenStoryboard: 1

[Editor]
Bookmarks: 139,5472,16138,26805,37472,42805,48138,69472,80138,89472,92127,102793,113460,138460
DistanceSpacing: 0.4
BeatDivisor: 4
GridSize: 4
TimelineZoom: 1.4

[Metadata]
Title:Ki ga Kurutta Noise
TitleUnicode:気が狂ったノイズ
Artist:Kuki Akumu
ArtistUnicode:茎悪夢
Creator:Astronic
Version:-Tynamo's Extra
Source:
Tags:[jameson] jameson urition tynamo -tynamo coffee hispanic chm round of ro16 no mod NM2 pm04034 lanelanelane bitpop chiptune 8bit electronic instrumental streams
BeatmapID:4277541
BeatmapSetID:1569753

[Difficulty]
HPDrainRate:4.5
CircleSize:4
OverallDifficulty:9
ApproachRate:9.2
SliderMultiplier:1.7
SliderTickRate:1

[Events]
//Background and Video events
0,0,"bg.jpg",0,0
//Break Periods
2,37672,42235
2,69672,79568
//Storyboard Layer 0 (Background)
//Storyboard Layer 1 (Fail)
//Storyboard Layer 2 (Pass)
//Storyboard Layer 3 (Foreground)
//Storyboard Layer 4 (Overlay)
//Storyboard Sound Samples

[TimingPoints]
139,333.333333333333,4,2,1,50,1,0
139,-100,4,2,1,50,0,0
5472,-100,4,2,1,60,0,0
10805,-100,4,2,1,60,0,0
14805,-100,4,2,1,60,0,0
16138,-100,4,2,1,70,0,0
17055,-100,4,2,1,5,0,0
17138,-100,4,2,1,70,0,0
17638,-100,4,2,1,5,0,0
17805,-100,4,2,1,70,0,0
19722,-100,4,2,1,5,0,0
19805,-100,4,2,1,70,0,0
20304,-100,4,2,1,5,0,0
20472,-100,4,2,1,70,0,0
22388,-100,4,2,1,5,0,0
22472,-100,4,2,1,70,0,0
22971,-100,4,2,1,5,0,0
23138,-100,4,2,1,70,0,0
24971,-100,4,2,1,5,0,0
25138,-100,4,2,1,70,0,0
25638,-100,4,2,1,5,0,0
25805,-100,4,2,1,70,0,0
27638,-100,4,2,1,5,0,0
27805,-100,4,2,1,70,0,0
28304,-100,4,2,1,5,0,0
28472,-100,4,2,1,70,0,0
30304,-100,4,2,1,5,0,0
30472,-100,4,2,1,70,0,0
30971,-100,4,2,1,5,0,0
31138,-100,4,2,1,70,0,0
32971,-100,4,2,1,5,0,0
33138,-100,4,2,1,70,0,0
33638,-100,4,2,1,5,0,0
33805,-100,4,2,1,70,0,0
35638,-100,4,2,1,5,0,0
35805,-100,4,2,1,70,0,0
36304,-100,4,2,1,5,0,0
36472,-100,4,2,1,70,0,0
36805,-100,4,2,1,70,0,0
37055,-100,4,2,1,70,0,0
37138,-100,4,2,1,70,0,0
37388,-100,4,2,1,70,0,0
37472,-100,4,2,1,55,0,0
42805,-200,4,2,1,55,0,0
44138,-133.333333333333,4,2,1,60,0,0
45472,-100,4,2,1,65,0,0
48138,-100,4,2,1,85,0,1
57472,-83.3333333333333,4,2,1,85,0,1
58138,-71.4285714285714,4,2,1,85,0,1
58805,-100,4,2,1,85,0,1
68138,-83.3333333333333,4,2,1,85,0,1
69472,-100,4,2,1,70,0,0
90138,-100,4,2,1,70,0,0
90722,-100,4,2,1,70,0,0
90794,333.333333333333,4,2,1,50,1,0
90794,-100,4,2,1,50,0,0
90960,-100,4,2,1,5,0,0
92127,-100,4,2,1,50,0,0
97127,-200,4,2,1,50,0,0
97377,-200,4,2,1,5,0,0
97460,-100,4,2,1,50,0,0
102793,-133.333333333333,4,2,1,60,0,0
103626,-133.333333333333,4,2,1,5,0,0
103793,-133.333333333333,4,2,1,60,0,0
105626,-133.333333333333,4,2,1,5,0,0
105793,-133.333333333333,4,2,1,60,0,0
105959,-133.333333333333,4,2,1,5,0,0
106127,-133.333333333333,4,2,1,60,0,0
106293,-133.333333333333,4,2,1,5,0,0
106460,-133.333333333333,4,2,1,60,0,0
106626,-133.333333333333,4,2,1,5,0,0
106793,-133.333333333333,4,2,1,60,0,0
106959,-133.333333333333,4,2,1,5,0,0
107127,-133.333333333333,4,2,1,60,0,0
107293,-133.333333333333,4,2,1,5,0,0
107460,-133.333333333333,4,2,1,60,0,0
108959,-133.333333333333,4,2,1,5,0,0
109126,-133.333333333333,4,2,1,60,0,0
110293,-133.333333333333,4,2,1,5,0,0
110460,-133.333333333333,4,2,1,60,0,0
113210,-133.333333333333,4,2,1,5,0,0
113460,-1000,4,2,1,60,0,0
114377,-1000,4,2,1,5,0,0
114460,-100,4,2,1,60,0,0
114793,-100,4,2,1,90,0,1
122793,-83.3333333333333,4,2,1,90,0,1
123460,-71.4285714285714,4,2,1,90,0,1
124127,-100,4,2,1,90,0,1
132127,-83.3333333333333,4,2,1,90,0,1
133460,-71.4285714285714,4,2,1,90,0,1
135127,333.333333333333,4,2,1,90,1,1
135127,-100,4,2,1,90,0,1
136460,-100,4,2,1,90,0,1
137127,-100,4,2,1,90,0,1
138460,-100,4,2,1,50,0,0

[Colours]
Combo1 : 192,192,192
Combo2 : 128,188,255
Combo3 : 0,164,0

[HitObjects]
104,26,139,6,0,B|78:46|78:46|80:132,1,85,14|2,0:1|0:0,0:0:0:0:
81,119,388,1,2,0:0:0:0:
83,140,472,1,2,0:0:0:0:
162,194,638,2,0,L|157:237,2,42.5,2|2|2,0:0|0:0|0:0,0:0:0:0:
75,283,972,1,2,0:0:0:0:
75,283,1055,1,2,0:0:0:0:
75,283,1138,2,0,B|95:307|95:307|174:314,1,85,2|2,0:0|0:0,0:0:0:0:
203,368,1388,1,2,0:0:0:0:
203,368,1472,2,0,B|223:344|223:344|276:339,1,85,2|2,0:0|0:0,0:0:0:0:
328,279,1722,1,2,0:0:0:0:
328,279,1806,2,0,B|348:303|348:303|401:307,1,85,2|2,0:0|0:0,0:0:0:0:
478,322,2055,1,2,0:0:0:0:
478,322,2138,1,2,0:0:0:0:
431,227,2305,2,0,L|388:230,2,42.5,2|2|2,0:0|0:0|0:0,0:0:0:0:
491,152,2638,1,2,0:0:0:0:
491,152,2722,1,2,0:0:0:0:
491,152,2805,6,0,L|479:58,1,85,2|2,0:0|0:0,0:0:0:0:
395,42,3055,1,2,0:0:0:0:
395,42,3138,2,0,L|402:107,1,42.5,2|0,0:0|0:0,0:0:0:0:
406,132,3305,2,0,L|401:174,2,42.5,2|2|2,0:0|0:0|0:0,0:0:0:0:
303,85,3638,1,2,0:0:0:0:
303,85,3722,1,2,0:0:0:0:
303,85,3805,2,0,B|266:79|266:79|206:98,1,85,2|2,0:0|0:0,0:0:0:0:
174,174,4055,1,2,0:0:0:0:
174,174,4138,2,0,B|211:180|211:180|271:161,1,85,2|2,0:0|0:0,0:0:0:0:
307,251,4388,1,2,0:0:0:0:
307,251,4472,2,0,B|270:245|270:245|210:264,1,85,2|2,0:0|0:0,0:0:0:0:
179,321,4722,1,2,0:0:0:0:
179,321,4805,1,2,0:0:0:0:
83,284,4972,1,2,0:0:0:0:
83,284,5055,1,2,0:0:0:0:
83,284,5138,2,0,L|78:218,2,42.5,2|2|2,0:0|0:0|0:0,0:0:0:0:
0,161,5472,5,14,0:1:0:0:
21,159,5555,1,0,0:0:0:0:
42,157,5638,1,2,0:0:0:0:
63,155,5722,1,0,0:0:0:0:
84,154,5805,1,10,0:1:0:0:
105,153,5888,1,0,0:0:0:0:
126,152,5972,2,0,L|180:147,1,42.5,2|0,0:0|0:0,0:0:0:0:
271,133,6138,2,0,L|277:73,3,42.5,10|0|2|0,0:1|0:0|0:0|0:0,0:0:0:0:
180,25,6472,2,0,L|184:67,3,42.5,10|0|2|0,0:1|0:0|0:0|0:0,0:0:0:0:
273,2,6805,6,0,B|316:2|316:2|370:27,1,85,10|2,0:1|0:0,0:0:0:0:
349,163,7138,2,0,B|306:163|306:163|267:145,1,85,10|2,0:1|0:0,0:0:0:0:
180,25,7472,1,10,0:1:0:0:
219,209,7638,1,2,0:0:0:0:
308,77,7805,1,10,0:1:0:0:
220,232,7972,1,2,0:0:0:0:
144,96,8138,6,0,L|99:89,3,42.5,10|0|2|0,0:1|0:0|0:0|0:0,0:0:0:0:
0,169,8472,2,0,L|41:162,3,42.5,10|0|2|0,0:1|0:0|0:0|0:0,0:0:0:0:
127,196,8805,1,10,0:1:0:0:
129,217,8888,1,0,0:0:0:0:
131,238,8972,1,2,0:0:0:0:
133,259,9055,1,0,0:0:0:0:
136,279,9138,1,10,0:1:0:0:
156,285,9222,1,0,0:0:0:0:
176,291,9305,1,2,0:0:0:0:
196,297,9388,1,0,0:0:0:0:
216,303,9472,6,0,L|277:290,3,42.5,10|0|2|0,0:1|0:0|0:0|0:0,0:0:0:0:
317,235,9805,2,0,L|358:243,3,42.5,10|0|2|0,0:1|0:0|0:0|0:0,0:0:0:0:
395,321,10138,2,0,L|512:325,1,85,10|2,0:1|0:0,0:0:0:0:
361,161,10472,2,0,L|276:158,1,85,10|2,0:1|0:0,0:0:0:0:
136,279,10805,5,14,0:1:0:0:
108,263,10888,1,0,0:0:0:0:
89,238,10971,1,2,0:0:0:0:
82,207,11055,1,0,0:0:0:0:
89,176,11138,2,0,P|109:148|147:130,3,42.5,10|0|2|0,0:0|0:0|0:0|0:0,0:0:0:0:
198,135,11472,1,10,0:1:0:0:
225,119,11555,1,0,0:0:0:0:
244,94,11638,1,2,0:0:0:0:
251,63,11722,1,0,0:0:0:0:
244,32,11805,2,0,P|224:4|186:-13,3,42.5,10|0|2|0,0:0|0:0|0:0|0:0,0:0:0:0:
155,66,12138,6,0,B|111:76|111:76|53:59,1,85,10|2,0:1|0:0,0:0:0:0:
175,206,12472,2,0,B|219:196|219:196|257:207,1,85,10|2,0:0|0:0,0:0:0:0:
350,79,12805,1,10,0:1:0:0:
350,238,12972,1,2,0:0:0:0:
257,110,13138,1,10,0:0:0:0:
407,158,13305,1,2,0:0:0:0:
257,207,13472,6,0,L|253:261,3,42.5,10|0|2|0,0:1|0:0|0:0|0:0,0:0:0:0:
297,327,13805,1,10,0:0:0:0:
326,331,13888,1,0,0:0:0:0:
355,335,13972,1,2,0:0:0:0:
384,339,14055,1,0,0:0:0:0:
413,343,14138,2,0,L|409:300,3,42.5,10|0|2|0,0:1|0:0|0:0|0:0,0:0:0:0:
350,238,14472,1,10,0:0:0:0:
348,208,14555,1,0,0:0:0:0:
346,178,14638,1,2,0:0:0:0:
344,148,14722,1,0,0:0:0:0:
342,118,14805,5,10,0:0:0:0:
314,101,14888,1,0,0:0:0:0:
283,97,14971,1,2,0:0:0:0:
252,104,15055,1,0,0:0:0:0:
226,122,15139,1,10,0:0:0:0:
199,140,15222,1,0,0:0:0:0:
169,147,15306,1,2,0:0:0:0:
137,142,15389,1,0,0:0:0:0:
110,126,15472,2,0,B|92:84|92:84|105:28,1,85,10|2,0:0|0:0,0:0:0:0:
342,118,15805,1,10,0:0:0:0:
33,277,16138,6,0,B|113:247|113:247|200:281,1,170,14|8,0:1|0:0,0:0:0:0:
112,351,16638,1,2,0:0:0:0:
34,187,16805,2,0,L|28:49,1,127.5,10|0,0:1|0:0,0:0:0:0:
28,29,17138,1,10,0:0:0:0:
144,106,17305,1,2,0:0:0:0:
266,46,17472,2,0,L|270:152,1,85,10|0,0:1|0:0,0:0:0:0:
292,259,17805,1,10,0:0:0:0:
321,263,17888,1,2,0:0:0:0:
350,268,17972,1,2,0:0:0:0:
379,273,18055,1,2,0:0:0:0:
408,278,18138,1,10,0:1:0:0:
396,250,18222,1,2,0:0:0:0:
386,223,18306,1,2,0:0:0:0:
376,195,18389,1,2,0:0:0:0:
366,168,18472,2,0,L|328:206,3,28.3333333333333,10|2|2|2,0:0|0:0|0:0|0:0,0:0:0:0:
426,96,18805,6,0,B|383:72|383:72|241:85,1,170,10|8,0:1|0:0,0:0:0:0:
144,192,19305,1,2,0:0:0:0:
323,290,19472,2,0,B|362:241|362:241|358:160,1,127.5,10|0,0:1|0:0,0:0:0:0:
356,154,19805,1,10,0:0:0:0:
178,107,19972,1,2,0:0:0:0:
243,276,20138,2,0,L|249:164,1,85,10|0,0:1|0:0,0:0:0:0:
92,96,20472,1,10,0:0:0:0:
74,119,20555,1,2,0:0:0:0:
55,142,20639,1,2,0:0:0:0:
36,165,20722,1,2,0:0:0:0:
18,187,20805,1,10,0:1:0:0:
48,191,20889,1,2,0:0:0:0:
77,195,20973,1,2,0:0:0:0:
106,200,21056,1,2,0:0:0:0:
134,204,21139,2,0,L|119:152,3,28.3333333333333,10|2|2|2,0:0|0:0|0:0|0:0,0:0:0:0:
227,188,21472,6,0,B|256:109|256:109|238:3,1,170,10|8,0:1|0:0,0:0:0:0:
126,92,21972,1,2,0:0:0:0:
172,256,22138,2,0,B|210:275|210:275|306:262,1,127.5,10|0,0:1|0:0,0:0:0:0:
315,261,22472,1,10,0:0:0:0:
146,170,22638,1,2,0:0:0:0:
243,380,22805,2,0,L|245:266,1,85,10|0,0:1|0:0,0:0:0:0:
304,149,23138,1,10,0:0:0:0:
333,145,23221,1,2,0:0:0:0:
362,140,23305,1,2,0:0:0:0:
391,135,23388,1,2,0:0:0:0:
420,130,23471,1,10,0:1:0:0:
408,158,23555,1,2,0:0:0:0:
398,185,23639,1,2,0:0:0:0:
388,213,23722,1,2,0:0:0:0:
378,240,23805,2,0,L|340:202,3,28.3333333333333,10|2|2|2,0:0|0:0|0:0|0:0,0:0:0:0:
484,272,24138,6,0,B|454:313|454:313|327:326,1,170,10|8,0:1|0:0,0:0:0:0:
210,248,24638,1,2,0:0:0:0:
368,156,24805,2,0,L|380:256,1,85,10|0,0:1|0:0,0:0:0:0:
302,378,25138,1,10,0:0:0:0:
288,201,25305,1,2,0:0:0:0:
451,326,25472,2,0,L|344:323,1,85,10|0,0:1|0:0,0:0:0:0:
213,363,25805,1,10,0:0:0:0:
184,367,25888,1,2,0:0:0:0:
155,372,25972,1,2,0:0:0:0:
126,377,26055,1,2,0:0:0:0:
97,382,26138,1,10,0:1:0:0:
104,366,26222,1,2,0:0:0:0:
110,350,26306,1,2,0:0:0:0:
116,334,26389,1,2,0:0:0:0:
122,318,26472,2,0,L|138:278,3,28.3333333333333,2|2|2|2,0:0|0:0|0:0|0:0,0:0:0:0:
48,240,26805,6,0,B|128:209|128:209|234:237,1,170,14|8,0:1|0:0,0:0:0:0:
338,282,27305,1,2,0:0:0:0:
138,377,27472,2,0,L|132:274,1,85,10|0,0:1|0:0,0:0:0:0:
266,173,27805,1,10,0:0:0:0:
245,314,27972,1,2,0:0:0:0:
94,193,28138,2,0,L|178:197,1,85,10|0,0:1|0:0,0:0:0:0:
412,205,28472,1,10,0:0:0:0:
416,176,28555,1,2,0:0:0:0:
421,147,28639,1,2,0:0:0:0:
426,118,28722,1,2,0:0:0:0:
431,89,28805,1,10,0:1:0:0:
403,101,28889,1,2,0:0:0:0:
376,111,28973,1,2,0:0:0:0:
348,121,29056,1,2,0:0:0:0:
321,131,29139,2,0,L|359:169,3,28.3333333333333,10|2|2|2,0:0|0:0|0:0|0:0,0:0:0:0:
382,2,29472,6,0,B|423:19|423:19|436:151,1,170,10|8,0:1|0:0,0:0:0:0:
357,258,29972,1,2,0:0:0:0:
267,108,30138,2,0,L|369:103,1,85,10|0,0:1|0:0,0:0:0:0:
481,240,30472,1,10,0:0:0:0:
310,189,30638,1,0,0:0:0:0:
434,84,30805,2,0,L|430:185,1,85,10|0,0:1|0:0,0:0:0:0:
357,258,31138,1,10,0:0:0:0:
329,263,31221,1,2,0:0:0:0:
300,267,31305,1,2,0:0:0:0:
270,271,31388,1,2,0:0:0:0:
241,275,31471,1,10,0:1:0:0:
261,298,31555,1,2,0:0:0:0:
279,321,31639,1,2,0:0:0:0:
297,344,31722,1,2,0:0:0:0:
315,367,31805,2,0,L|339:319,3,28.3333333333333,10|2|2|2,0:0|0:0|0:0|0:0,0:0:0:0:
185,356,32138,6,0,B|158:277|158:277|188:179,1,170,10|8,0:1|0:0,0:0:0:0:
291,127,32638,1,2,0:0:0:0:
326,279,32805,2,0,L|234:275,1,85,10|0,0:1|0:0,0:0:0:0:
86,212,33138,1,10,0:0:0:0:
185,356,33305,1,2,0:0:0:0:
183,194,33472,2,0,L|93:190,1,85,10|0,0:1|0:0,0:0:0:0:
19,115,33805,1,10,0:0:0:0:
26,86,33888,1,2,0:0:0:0:
33,58,33972,1,2,0:0:0:0:
40,29,34055,1,2,0:0:0:0:
46,0,34138,1,10,0:1:0:0:
67,22,34222,1,2,0:0:0:0:
88,42,34306,1,2,0:0:0:0:
110,62,34389,1,2,0:0:0:0:
131,82,34472,2,0,L|81:102,3,28.3333333333333,10|2|2|2,0:0|0:0|0:0|0:0,0:0:0:0:
236,40,34805,6,0,B|269:77|269:77|260:204,1,170,10|8,0:1|0:0,0:0:0:0:
193,313,35305,1,2,0:0:0:0:
99,147,35472,2,0,L|189:138,1,85,10|0,0:1|0:0,0:0:0:0:
303,273,35805,1,10,0:0:0:0:
145,232,35972,1,2,0:0:0:0:
298,103,36138,2,0,L|303:201,1,85,10|0,0:0|0:0,0:0:0:0:
417,364,36472,1,10,0:0:0:0:
420,321,36555,1,0,0:0:0:0:
424,278,36638,1,0,0:0:0:0:
428,235,36722,1,0,0:0:0:0:
432,192,36805,5,2,0:0:0:0:
424,278,37138,1,2,0:0:0:0:
417,364,37472,1,14,0:1:0:0:
83,384,42805,5,14,0:1:0:0:
68,369,42888,1,0,0:0:0:0:
58,351,42971,1,0,0:0:0:0:
53,330,43055,1,0,0:0:0:0:
55,309,43138,1,8,0:0:0:0:
62,289,43221,1,0,0:0:0:0:
74,272,43305,1,0,0:0:0:0:
91,259,43388,1,0,0:0:0:0:
111,253,43472,2,0,P|131:252|147:257,3,21.25,8|0|0|0,0:1|0:0|0:0|0:0,0:0:0:0:
193,304,43805,2,0,P|213:305|229:300,3,21.25,8|0|0|0,0:0|0:0|0:0|0:0,0:0:0:0:
283,263,44138,5,10,0:1:0:0:
306,242,44221,1,0,0:0:0:0:
315,212,44304,1,0,0:0:0:0:
306,181,44388,1,0,0:0:0:0:
282,161,44471,1,8,0:0:0:0:
251,156,44555,1,0,0:0:0:0:
219,151,44638,1,0,0:0:0:0:
196,130,44721,1,0,0:0:0:0:
187,100,44805,2,0,L|184:44,3,31.8750012159348,8|0|0|0,0:1|0:0|0:0|0:0,0:0:0:0:
271,31,45138,2,0,L|272:0,3,31.8750012159348,8|0|0|0,0:0|0:0|0:0|0:0,0:0:0:0:
292,124,45472,5,10,0:1:0:0:
317,156,45555,1,0,0:0:0:0:
358,161,45638,1,0,0:0:0:0:
389,134,45722,1,0,0:0:0:0:
392,93,45805,1,8,0:0:0:0:
398,51,45888,1,0,0:0:0:0:
429,24,45971,1,0,0:0:0:0:
470,22,46055,1,0,0:0:0:0:
503,47,46138,1,8,0:1:0:0:
512,88,46221,1,0,0:0:0:0:
493,125,46305,1,0,0:0:0:0:
455,141,46388,1,0,0:0:0:0:
415,129,46472,2,0,L|410:65,3,42.5,8|0|0|0,0:0|0:0|0:0|0:0,0:0:0:0:
357,196,46805,5,10,0:1:0:0:
357,196,46888,1,10,0:1:0:0:
227,239,47055,1,10,0:1:0:0:
357,281,47222,1,10,0:1:0:0:
277,170,47388,1,10,0:1:0:0:
277,170,47472,1,10,0:1:0:0:
277,308,47638,1,10,0:1:0:0:
357,196,47805,2,0,L|411:193,2,42.5,2|2|2,0:0|0:0|0:0,0:0:0:0:
54,99,48138,5,14,0:1:0:0:
84,127,48221,1,0,0:0:0:0:
125,139,48304,1,2,0:0:0:0:
166,131,48388,1,0,0:0:0:0:
200,105,48471,1,10,0:0:0:0:
233,79,48555,1,0,0:0:0:0:
274,71,48638,1,2,0:0:0:0:
315,82,48722,1,0,0:0:0:0:
346,111,48805,2,0,L|344:172,3,42.5,10|0|0|0,0:1|0:0|0:0|0:0,0:0:0:0:
266,162,49138,1,10,0:0:0:0:
273,212,49222,1,2,0:0:0:0:
283,261,49305,1,2,0:0:0:0:
293,310,49388,1,2,0:0:0:0:
303,360,49472,5,10,0:1:0:0:
343,352,49555,1,0,0:0:0:0:
370,320,49638,1,2,0:0:0:0:
368,278,49722,1,0,0:0:0:0:
367,236,49805,1,10,0:0:0:0:
392,203,49888,1,0,0:0:0:0:
433,194,49972,1,2,0:0:0:0:
470,213,50055,1,0,0:0:0:0:
487,251,50138,1,10,0:1:0:0:
476,291,50222,1,0,0:0:0:0:
441,315,50305,1,2,0:0:0:0:
400,312,50388,1,0,0:0:0:0:
368,278,50472,1,10,0:0:0:0:
367,236,50555,1,0,0:0:0:0:
392,203,50638,1,2,0:0:0:0:
433,194,50722,1,0,0:0:0:0:
470,213,50805,2,0,L|474:136,3,42.5,10|0|0|0,0:1|0:0|0:0|0:0,0:0:0:0:
412,97,51138,5,10,0:0:0:0:
412,97,51222,1,0,0:0:0:0:
412,97,51305,2,0,L|353:106,1,42.5
301,170,51472,1,10,0:1:0:0:
301,170,51556,1,0,0:0:0:0:
301,170,51639,2,0,L|258:163,1,42.5
199,94,51805,1,10,0:0:0:0:
199,94,51889,1,0,0:0:0:0:
199,94,51972,2,0,L|140:103,1,42.5
99,180,52139,1,10,0:1:0:0:
99,180,52223,1,0,0:0:0:0:
99,180,52306,2,0,L|56:173,1,42.5
25,92,52472,5,10,0:0:0:0:
24,83,52555,1,0,0:0:0:0:
23,74,52638,1,0,0:0:0:0:
22,65,52722,1,0,0:0:0:0:
21,56,52805,1,8,0:1:0:0:
20,47,52888,1,0,0:0:0:0:
20,38,52972,2,0,L|83:45,1,42.5,2|0,0:0|0:0,0:0:0:0:
156,54,53138,2,0,L|160:108,3,42.5,10|0|0|0,0:0|0:0|0:0|0:0,0:0:0:0:
239,31,53472,5,10,0:1:0:0:
280,24,53555,1,0,0:0:0:0:
319,39,53638,1,2,0:0:0:0:
345,72,53722,1,0,0:0:0:0:
350,114,53805,1,10,0:0:0:0:
332,152,53888,1,0,0:0:0:0:
298,176,53972,1,2,0:0:0:0:
256,179,54055,1,0,0:0:0:0:
219,160,54138,2,0,L|215:104,3,42.5,10|0|0|0,0:1|0:0|0:0|0:0,0:0:0:0:
135,107,54472,1,10,0:0:0:0:
132,157,54555,1,2,0:0:0:0:
129,207,54638,1,2,0:0:0:0:
126,258,54722,1,2,0:0:0:0:
123,308,54805,5,10,0:1:0:0:
157,331,54888,1,0,0:0:0:0:
199,331,54971,1,2,0:0:0:0:
233,308,55055,1,0,0:0:0:0:
248,269,55138,1,10,0:0:0:0:
263,229,55221,1,0,0:0:0:0:
297,206,55304,1,2,0:0:0:0:
339,206,55388,1,0,0:0:0:0:
373,230,55472,2,0,L|380:289,3,42.5,10|0|0|0,0:1|0:0|0:0|0:0,0:0:0:0:
477,195,55805,2,0,L|481:152,3,42.5,10|0|2|0,0:0|0:0|0:0|0:0,0:0:0:0:
384,94,56138,5,10,0:1:0:0:
362,91,56222,1,0,0:0:0:0:
340,88,56305,1,0,0:0:0:0:
318,85,56388,1,0,0:0:0:0:
296,82,56472,2,0,L|290:22,3,42.5,10|0|0|0,0:0|0:0|0:0|0:0,0:0:0:0:
226,138,56805,5,10,0:1:0:0:
204,141,56889,1,0,0:0:0:0:
182,144,56972,1,0,0:0:0:0:
160,147,57055,1,0,0:0:0:0:
138,150,57139,2,0,L|132:210,3,42.5,10|0|0|0,0:0|0:0|0:0|0:0,0:0:0:0:
67,114,57472,5,10,0:0:0:0:
39,156,57555,1,0,0:0:0:0:
35,206,57638,1,0,0:0:0:0:
57,252,57722,1,0,0:0:0:0:
97,282,57805,1,10,0:0:0:0:
147,288,57888,1,0,0:0:0:0:
194,269,57972,1,0,0:0:0:0:
226,230,58055,1,0,0:0:0:0:
235,180,58138,1,10,0:0:0:0:
247,122,58221,1,0,0:0:0:0:
289,82,58304,1,0,0:0:0:0:
347,72,58388,1,0,0:0:0:0:
400,97,58471,1,10,0:0:0:0:
431,147,58554,1,0,0:0:0:0:
428,205,58638,1,0,0:0:0:0:
393,252,58721,1,0,0:0:0:0:
337,271,58804,5,14,0:1:0:0:
319,233,58888,1,0,0:0:0:0:
327,192,58971,1,2,0:0:0:0:
356,163,59055,1,0,0:0:0:0:
386,134,59138,1,10,0:0:0:0:
391,92,59221,1,0,0:0:0:0:
371,56,59305,1,2,0:0:0:0:
332,41,59388,1,0,0:0:0:0:
292,52,59472,2,0,L|291:5,3,42.5,10|0|0|0,0:1|0:0|0:0|0:0,0:0:0:0:
279,137,59805,1,10,0:0:0:0:
230,123,59888,1,2,0:0:0:0:
180,109,59972,1,2,0:0:0:0:
131,95,60055,1,2,0:0:0:0:
82,81,60138,5,10,0:1:0:0:
73,122,60221,1,0,0:0:0:0:
91,159,60304,1,2,0:0:0:0:
128,178,60388,1,0,0:0:0:0:
170,171,60472,1,10,0:0:0:0:
210,164,60555,1,0,0:0:0:0:
249,183,60638,1,2,0:0:0:0:
268,219,60722,1,0,0:0:0:0:
264,261,60805,1,10,0:1:0:0:
238,293,60888,1,0,0:0:0:0:
198,304,60972,1,2,0:0:0:0:
159,291,61055,1,0,0:0:0:0:
134,256,61138,1,10,0:0:0:0:
108,223,61221,1,0,0:0:0:0:
68,209,61304,1,2,0:0:0:0:
28,221,61388,1,0,0:0:0:0:
2,253,61472,2,0,L|-2:186,3,42.5,10|0|0|0,0:1|0:0|0:0|0:0,0:0:0:0:
45,335,61805,5,10,0:0:0:0:
45,335,61888,1,0,0:0:0:0:
45,335,61972,2,0,L|107:343,1,42.5
198,263,62138,1,10,0:1:0:0:
198,263,62221,1,0,0:0:0:0:
198,263,62305,2,0,L|136:271,1,42.5
178,355,62472,1,10,0:0:0:0:
178,355,62555,1,0,0:0:0:0:
178,355,62639,2,0,L|240:363,1,42.5
331,283,62805,1,10,0:1:0:0:
331,283,62888,1,0,0:0:0:0:
331,283,62972,2,0,L|269:291,1,42.5
409,379,63138,5,10,0:0:0:0:
409,366,63222,1,0,0:0:0:0:
410,353,63305,1,0,0:0:0:0:
411,340,63388,1,0,0:0:0:0:
412,327,63472,1,8,0:1:0:0:
413,314,63555,1,0,0:0:0:0:
414,301,63638,2,0,L|409:252,1,42.5,2|0,0:0|0:0,0:0:0:0:
350,191,63805,2,0,L|276:202,3,42.5,10|0|0|0,0:0|0:0|0:0|0:0,0:0:0:0:
446,173,64138,5,10,0:1:0:0:
481,150,64221,1,0,0:0:0:0:
501,113,64304,1,2,0:0:0:0:
499,71,64388,1,0,0:0:0:0:
476,35,64471,1,10,0:0:0:0:
439,16,64554,1,0,0:0:0:0:
397,18,64638,1,2,0:0:0:0:
362,40,64721,1,0,0:0:0:0:
342,78,64805,2,0,P|340:113|352:152,3,42.5,10|0|0|0,0:1|0:0|0:0|0:0,0:0:0:0:
258,11,65138,1,10,0:0:0:0:
254,62,65222,1,2,0:0:0:0:
251,112,65305,1,2,0:0:0:0:
248,163,65388,1,2,0:0:0:0:
244,213,65472,5,10,0:1:0:0:
212,240,65555,1,0,0:0:0:0:
171,245,65638,1,2,0:0:0:0:
134,225,65721,1,0,0:0:0:0:
116,188,65805,1,10,0:0:0:0:
123,146,65888,1,0,0:0:0:0:
131,105,65971,1,2,0:0:0:0:
113,67,66054,1,0,0:0:0:0:
76,48,66137,1,10,0:1:0:0:
34,56,66221,1,0,0:0:0:0:
6,87,66304,1,0,0:0:0:0:
3,128,66387,1,0,0:0:0:0:
25,163,66472,2,0,L|84:169,3,42.5,10|0|2|0,0:0|0:0|0:0|0:0,0:0:0:0:
157,208,66805,5,10,0:1:0:0:
159,229,66888,1,0,0:0:0:0:
161,250,66972,1,0,0:0:0:0:
163,271,67055,1,0,0:0:0:0:
165,291,67138,2,0,L|171:342,3,42.5,10|0|0|0,0:0|0:0|0:0|0:0,0:0:0:0:
55,384,67472,5,10,0:1:0:0:
57,363,67555,1,0,0:0:0:0:
59,342,67639,1,0,0:0:0:0:
61,321,67722,1,0,0:0:0:0:
63,301,67805,2,0,L|69:250,3,42.5,10|0|0|0,0:0|0:0|0:0|0:0,0:0:0:0:
19,176,68138,5,10,0:1:0:0:
34,177,68222,1,0,0:0:0:0:
49,178,68305,1,0,0:0:0:0:
64,179,68388,1,0,0:0:0:0:
79,180,68472,1,2,0:0:0:0:
94,181,68555,1,0,0:0:0:0:
109,182,68638,1,0,0:0:0:0:
124,183,68722,1,0,0:0:0:0:
139,184,68805,1,2,0:0:0:0:
154,185,68888,1,0,0:0:0:0:
169,186,68972,1,0,0:0:0:0:
184,187,69055,1,0,0:0:0:0:
199,188,69138,1,2,0:0:0:0:
214,189,69222,1,0,0:0:0:0:
229,190,69305,1,0,0:0:0:0:
244,191,69388,1,0,0:0:0:0:
256,192,69472,1,14,0:1:0:0:
436,342,80138,5,14,0:1:0:0:
436,342,80305,2,0,L|433:396,2,42.5,2|2|2,0:0|0:0|0:0,0:0:0:0:
332,277,80805,1,2,0:0:0:0:
332,277,80972,2,0,L|329:331,2,42.5,2|2|2,0:0|0:0|0:0,0:0:0:0:
228,212,81471,1,2,0:0:0:0:
228,212,81638,2,0,L|225:266,1,42.5,2|2,0:0|0:0,0:0:0:0:
223,299,81805,2,0,L|155:303,2,56.6666666666667,2|2|2,0:0|0:0|0:0,0:0:0:0:
332,277,82138,6,0,B|340:240|340:240|317:126,2,113.333333333333,2|2|2,0:0|0:0|0:0,0:0:0:0:
426,87,82805,5,2,0:0:0:0:
426,87,82972,2,0,L|423:33,2,42.5,2|2|2,0:0|0:0|0:0,0:0:0:0:
322,152,83472,1,2,0:0:0:0:
322,152,83639,2,0,L|319:98,2,42.5,2|2|2,0:0|0:0|0:0,0:0:0:0:
218,217,84138,1,2,0:0:0:0:
218,217,84305,2,0,L|215:163,1,42.5,2|2,0:0|0:0,0:0:0:0:
213,130,84472,2,0,L|224:48,2,56.6666666666667,2|2|2,0:0|0:0|0:0,0:0:0:0:
126,179,84805,6,0,B|118:216|118:216|141:330,2,113.333333333333,2|2|2,0:0|0:0|0:0,0:0:0:0:
35,113,85472,5,14,0:1:0:0:
256,192,85555,12,2,86805,0:0:0:0:
256,192,86888,12,2,88138,0:0:0:0:
256,192,88222,12,2,90138,0:0:0:0:
57,341,90794,5,2,0:0:0:0:
57,341,90877,2,0,L|51:393,1,42.5,2|0,0:0|0:0,0:0:0:0:
379,334,92127,5,2,0:0:0:0:
460,307,92294,1,2,0:0:0:0:
460,222,92460,1,2,0:0:0:0:
379,196,92627,1,2,0:0:0:0:
330,265,92794,1,2,0:0:0:0:
294,47,93127,5,2,0:0:0:0:
294,47,93210,1,2,0:0:0:0:
294,47,93294,1,2,0:0:0:0:
294,47,93377,1,2,0:0:0:0:
294,47,93460,5,2,0:0:0:0:
213,74,93627,1,2,0:0:0:0:
213,159,93793,1,2,0:0:0:0:
294,185,93960,1,2,0:0:0:0:
343,116,94127,1,2,0:0:0:0:
392,47,94294,5,2,0:0:0:0:
473,74,94461,1,2,0:0:0:0:
473,159,94627,1,2,0:0:0:0:
392,185,94794,1,2,0:0:0:0:
311,212,95127,1,2,0:0:0:0:
311,297,95460,1,2,0:0:0:0:
392,323,95794,1,2,0:0:0:0:
441,254,96127,1,2,0:0:0:0:
392,185,96460,1,2,0:0:0:0:
392,185,96960,1,2,0:0:0:0:
231,214,97127,2,0,L|224:289,1,63.75,2|0,0:0|0:0,0:0:0:0:
222,304,97460,5,2,0:0:0:0:
154,252,97627,1,2,0:0:0:0:
85,300,97794,1,2,0:0:0:0:
110,382,97960,1,2,0:0:0:0:
195,384,98127,1,2,0:0:0:0:
12,167,98460,1,2,0:0:0:0:
12,167,98543,1,2,0:0:0:0:
12,167,98627,1,2,0:0:0:0:
12,167,98710,1,2,0:0:0:0:
12,167,98793,5,2,0:0:0:0:
80,219,98960,1,2,0:0:0:0:
149,171,99127,1,2,0:0:0:0:
124,89,99293,1,2,0:0:0:0:
39,87,99793,1,2,0:0:0:0:
124,89,99960,1,2,0:0:0:0:
209,89,100127,1,2,0:0:0:0:
277,37,100460,1,2,0:0:0:0:
346,85,100793,1,2,0:0:0:0:
321,167,101127,1,2,0:0:0:0:
236,169,101460,1,2,0:0:0:0:
211,251,101793,1,2,0:0:0:0:
280,299,102126,1,2,0:0:0:0:
348,247,102459,1,2,0:0:0:0:
321,167,102793,6,0,L|236:176,1,63.7500024318696,2|2,0:0|0:0,0:0:0:0:
190,244,103127,2,0,L|126:237,1,63.7500024318696,2|2,0:0|0:0,0:0:0:0:
58,168,103460,2,0,L|67:83,1,63.7500024318696,2|0,0:0|0:0,0:0:0:0:
161,40,103793,1,2,0:0:0:0:
162,55,103876,1,2,0:0:0:0:
164,71,103959,1,2,0:0:0:0:
166,87,104042,1,2,0:0:0:0:
167,103,104127,6,0,L|176:189,1,63.7500024318696,2|2,0:0|0:0,0:0:0:0:
251,221,104460,2,0,L|244:284,1,63.7500024318696,2|2,0:0|0:0,0:0:0:0:
238,364,104793,1,2,0:0:0:0:
160,382,104960,1,2,0:0:0:0:
118,316,105127,1,2,0:0:0:0:
170,255,105293,1,2,0:0:0:0:
244,284,105460,6,0,L|325:292,1,63.7500024318696,2|0,0:0|0:0,0:0:0:0:
408,197,105793,2,0,L|327:205,1,63.7500024318696,2|0,0:0|0:0,0:0:0:0:
259,146,106127,2,0,L|267:227,1,63.7500024318696,2|0,0:0|0:0,0:0:0:0:
383,342,106460,2,0,L|391:261,1,63.7500024318696,2|0,0:0|0:0,0:0:0:0:
413,115,106793,6,0,L|349:108,1,63.7500024318696,2|0,0:0|0:0,0:0:0:0:
284,47,107127,2,0,L|220:53,1,63.7500024318696,2|0,0:0|0:0,0:0:0:0:
168,130,107460,2,0,L|104:123,1,63.7500024318696,0|2,0:0|0:0,0:0:0:0:
31,79,107793,1,2,0:0:0:0:
136,32,107960,1,0,0:0:0:0:
32,166,108127,2,0,L|40:245,1,63.7500024318696,2|2,0:0|0:0,0:0:0:0:
123,275,108460,2,0,L|129:211,1,63.7500024318696,2|2,0:0|0:0,0:0:0:0:
210,155,108793,2,0,L|218:234,1,63.7500024318696,2|0,0:0|0:0,0:0:0:0:
301,264,109126,1,2,0:0:0:0:
302,248,109209,1,2,0:0:0:0:
304,232,109292,1,2,0:0:0:0:
305,216,109377,1,2,0:0:0:0:
307,200,109460,6,0,L|389:194,1,63.7500024318696,2|2,0:0|0:0,0:0:0:0:
443,285,109793,2,0,L|361:279,1,63.7500024318696,2|2,0:0|0:0,0:0:0:0:
163,254,110127,2,0,L|245:248,1,63.7500024318696
299,339,110460,2,0,L|217:333,1,63.7500024318696,2|2,0:0|0:0,0:0:0:0:
140,106,110793,5,2,0:0:0:0:
340,76,111127,1,2,0:0:0:0:
371,275,111460,1,2,0:0:0:0:
171,306,111793,1,2,0:0:0:0:
431,159,112127,5,2,0:0:0:0:
223,16,112461,1,2,0:0:0:0:
80,224,112794,1,2,0:0:0:0:
288,367,113127,2,0,L|285:325,1,31.8750012159348,10|0,0:0|0:0,0:0:0:0:
263,288,113460,6,0,L|260:335,1,46.75,10|0,0:1|0:0,0:0:0:0:
159,336,114460,1,10,0:0:0:0:
159,336,114543,1,2,0:0:0:0:
159,336,114627,1,2,0:0:0:0:
159,336,114710,1,2,0:0:0:0:
159,336,114793,5,14,0:1:0:0:
130,305,114876,1,0,0:0:0:0:
125,263,114959,1,2,0:0:0:0:
146,227,115042,1,0,0:0:0:0:
183,209,115126,1,10,0:0:0:0:
224,217,115209,1,0,0:0:0:0:
264,226,115293,1,2,0:0:0:0:
302,209,115376,1,0,0:0:0:0:
321,172,115459,1,10,0:1:0:0:
313,131,115543,1,0,0:0:0:0:
281,104,115626,1,2,0:0:0:0:
239,102,115709,1,0,0:0:0:0:
206,127,115793,1,10,0:0:0:0:
172,151,115876,1,0,0:0:0:0:
130,150,115959,1,2,0:0:0:0:
98,123,116042,1,0,0:0:0:0:
90,82,116127,2,0,L|97:24,3,42.5,10|0|0|0,0:1|0:0|0:0|0:0,0:0:0:0:
197,8,116460,5,10,0:0:0:0:
197,8,116543,1,0,0:0:0:0:
197,8,116627,2,0,L|278:15,1,42.5
292,104,116793,1,10,0:1:0:0:
292,104,116876,1,0,0:0:0:0:
292,104,116960,2,0,L|373:97,1,42.5
375,15,117127,1,10,0:0:0:0:
375,15,117210,1,0,0:0:0:0:
375,15,117294,2,0,L|456:22,1,42.5
470,111,117460,1,10,0:1:0:0:
470,111,117543,1,0,0:0:0:0:
470,111,117627,2,0,L|551:104,1,42.5
509,201,117793,5,10,0:0:0:0:
508,209,117877,1,0,0:0:0:0:
507,217,117960,1,0,0:0:0:0:
506,225,118043,1,0,0:0:0:0:
505,233,118127,1,8,0:1:0:0:
505,241,118210,1,0,0:0:0:0:
504,249,118293,2,0,L|442:258,1,42.5,2|0,0:0|0:0,0:0:0:0:
377,264,118460,2,0,L|372:317,3,42.5,10|0|0|0,0:0|0:0|0:0|0:0,0:0:0:0:
352,175,118793,5,10,0:1:0:0:
319,149,118876,1,0,0:0:0:0:
277,150,118959,1,2,0:0:0:0:
246,178,119042,1,0,0:0:0:0:
240,219,119126,1,10,0:0:0:0:
263,254,119210,1,0,0:0:0:0:
285,289,119293,1,2,0:0:0:0:
279,330,119376,1,0,0:0:0:0:
248,357,119460,2,0,P|221:365|175:358,3,42.5,10|0|0|0,0:1|0:0|0:0|0:0,0:0:0:0:
129,384,119793,1,10,0:0:0:0:
134,332,119877,1,2,0:0:0:0:
138,281,119960,1,2,0:0:0:0:
143,230,120043,1,2,0:0:0:0:
147,178,120127,5,10,0:1:0:0:
178,150,120210,1,0,0:0:0:0:
220,147,120293,1,2,0:0:0:0:
256,168,120377,1,0,0:0:0:0:
292,189,120460,1,10,0:0:0:0:
333,186,120543,1,0,0:0:0:0:
366,159,120626,1,2,0:0:0:0:
377,119,120710,1,0,0:0:0:0:
364,79,120793,2,0,L|310:74,3,42.5,10|0|0|0,0:1|0:0|0:0|0:0,0:0:0:0:
255,0,121127,2,0,L|212:4,3,42.5,10|0|2|0,0:0|0:0|0:0|0:0,0:0:0:0:
152,85,121460,5,10,0:1:0:0:
151,106,121543,1,0,0:0:0:0:
150,127,121627,1,0,0:0:0:0:
149,148,121710,1,0,0:0:0:0:
148,169,121793,2,0,L|146:223,3,42.5,10|0|0|0,0:0|0:0|0:0|0:0,0:0:0:0:
242,199,122127,5,10,0:1:0:0:
243,220,122210,1,0,0:0:0:0:
244,241,122294,1,0,0:0:0:0:
245,262,122377,1,0,0:0:0:0:
246,283,122460,2,0,L|248:337,3,42.5,10|0|0|0,0:0|0:0|0:0|0:0,0:0:0:0:
138,360,122793,5,10,0:0:0:0:
94,334,122876,1,0,0:0:0:0:
66,292,122959,1,0,0:0:0:0:
61,242,123042,1,0,0:0:0:0:
79,195,123126,1,10,0:0:0:0:
116,161,123209,1,0,0:0:0:0:
165,147,123292,1,0,0:0:0:0:
214,158,123376,1,0,0:0:0:0:
254,189,123459,1,10,0:0:0:0:
299,225,123543,1,0,0:0:0:0:
358,234,123626,1,0,0:0:0:0:
412,212,123709,1,0,0:0:0:0:
449,166,123793,1,10,0:0:0:0:
457,108,123876,1,0,0:0:0:0:
434,54,123959,1,0,0:0:0:0:
388,18,124043,1,0,0:0:0:0:
330,10,124126,5,14,0:1:0:0:
299,38,124210,1,0,0:0:0:0:
289,79,124293,1,2,0:0:0:0:
304,118,124376,1,0,0:0:0:0:
339,141,124460,1,10,0:0:0:0:
373,164,124543,1,0,0:0:0:0:
389,203,124626,1,2,0:0:0:0:
379,243,124709,1,0,0:0:0:0:
348,271,124793,2,0,L|344:207,3,42.5,10|0|0|0,0:1|0:0|0:0|0:0,0:0:0:0:
456,352,125127,1,10,0:0:0:0:
405,355,125210,1,2,0:0:0:0:
354,358,125293,1,2,0:0:0:0:
302,361,125377,1,2,0:0:0:0:
251,363,125460,5,10,0:1:0:0:
219,335,125543,1,0,0:0:0:0:
209,294,125626,1,2,0:0:0:0:
222,255,125709,1,0,0:0:0:0:
236,216,125793,1,10,0:0:0:0:
223,176,125876,1,0,0:0:0:0:
187,156,125959,1,2,0:0:0:0:
146,164,126043,1,0,0:0:0:0:
120,196,126126,1,10,0:1:0:0:
121,238,126209,1,0,0:0:0:0:
120,279,126293,1,2,0:0:0:0:
93,311,126376,1,0,0:0:0:0:
52,319,126459,1,10,0:0:0:0:
16,299,126543,1,0,0:0:0:0:
0,261,126626,1,2,0:0:0:0:
12,221,126709,1,0,0:0:0:0:
46,198,126793,2,0,L|53:250,3,42.5,10|0|0|0,0:1|0:0|0:0|0:0,0:0:0:0:
34,100,127127,5,10,0:0:0:0:
34,100,127210,1,0,0:0:0:0:
34,100,127293,2,0,L|113:92,1,42.5
178,184,127460,1,10,0:1:0:0:
178,184,127543,1,0,0:0:0:0:
178,184,127626,2,0,L|99:176,1,42.5
169,70,127793,1,10,0:0:0:0:
169,70,127876,1,0,0:0:0:0:
169,70,127959,2,0,L|248:62,1,42.5
315,154,128126,1,10,0:1:0:0:
315,154,128209,1,0,0:0:0:0:
315,154,128292,2,0,L|236:146,1,42.5
310,47,128460,5,10,0:0:0:0:
318,46,128543,1,0,0:0:0:0:
326,45,128627,1,0,0:0:0:0:
334,44,128710,1,0,0:0:0:0:
342,43,128793,1,8,0:1:0:0:
350,43,128877,1,0,0:0:0:0:
358,43,128960,2,0,L|434:35,1,42.5,2|0,0:0|0:0,0:0:0:0:
491,67,129127,2,0,L|488:122,3,42.5,10|0|0|0,0:0|0:0|0:0|0:0,0:0:0:0:
400,126,129460,5,10,0:1:0:0:
379,162,129543,1,0,0:0:0:0:
383,203,129626,1,2,0:0:0:0:
411,234,129709,1,0,0:0:0:0:
439,264,129793,1,10,0:0:0:0:
442,305,129876,1,0,0:0:0:0:
418,340,129959,1,2,0:0:0:0:
378,351,130043,1,0,0:0:0:0:
340,335,130127,2,0,L|337:271,3,42.5,10|0|0|0,0:1|0:0|0:0|0:0,0:0:0:0:
306,219,130460,1,10,0:0:0:0:
255,226,130543,1,2,0:0:0:0:
204,234,130627,1,2,0:0:0:0:
154,244,130710,1,2,0:0:0:0:
104,255,130793,5,10,0:1:0:0:
120,293,130876,1,0,0:0:0:0:
154,318,130959,1,2,0:0:0:0:
195,321,131042,1,0,0:0:0:0:
233,302,131126,1,10,0:0:0:0:
255,267,131209,1,0,0:0:0:0:
255,225,131293,1,2,0:0:0:0:
233,189,131376,1,0,0:0:0:0:
195,170,131459,1,10,0:1:0:0:
157,150,131543,1,0,0:0:0:0:
135,115,131626,1,0,0:0:0:0:
135,73,131710,1,0,0:0:0:0:
157,37,131793,2,0,L|217:34,3,42.5,10|0|2|0,0:0|0:0|0:0|0:0,0:0:0:0:
341,72,132127,5,14,0:0:0:0:
376,106,132210,1,0,0:0:0:0:
379,156,132293,1,0,0:0:0:0:
347,194,132377,1,0,0:0:0:0:
298,201,132460,1,10,0:0:0:0:
248,210,132543,1,0,0:0:0:0:
216,248,132626,1,0,0:0:0:0:
213,298,132710,1,0,0:0:0:0:
242,339,132793,1,10,0:0:0:0:
290,353,132876,1,0,0:0:0:0:
336,335,132960,1,0,0:0:0:0:
362,292,133043,1,0,0:0:0:0:
387,249,133126,1,10,0:0:0:0:
434,231,133209,1,0,0:0:0:0:
482,245,133293,1,0,0:0:0:0:
511,286,133376,1,0,0:0:0:0:
508,336,133459,5,14,0:0:0:0:
451,333,133543,1,0,0:0:0:0:
418,286,133626,1,0,0:0:0:0:
434,231,133710,1,0,0:0:0:0:
448,174,133793,1,10,0:0:0:0:
418,125,133876,1,0,0:0:0:0:
362,110,133960,1,0,0:0:0:0:
313,140,134043,1,0,0:0:0:0:
299,197,134127,1,14,0:0:0:0:
329,254,134210,1,0,0:0:0:0:
339,318,134293,1,0,0:0:0:0:
304,373,134376,1,0,0:0:0:0:
238,384,134460,1,10,0:0:0:0:
180,342,134543,1,0,0:0:0:0:
175,271,134626,1,0,0:0:0:0:
225,220,134710,1,0,0:0:0:0:
296,223,134793,1,8,0:1:0:0:
28,30,135127,5,14,0:1:0:0:
29,38,135210,1,0,0:0:0:0:
30,46,135293,1,0,0:0:0:0:
31,54,135377,1,0,0:0:0:0:
32,62,135460,1,8,0:0:0:0:
33,70,135543,1,0,0:0:0:0:
34,78,135627,1,0,0:0:0:0:
35,86,135710,1,0,0:0:0:0:
36,94,135793,1,8,0:1:0:0:
56,100,135877,1,0,0:0:0:0:
76,106,135960,1,0,0:0:0:0:
96,112,136043,1,0,0:0:0:0:
116,118,136127,1,8,0:0:0:0:
136,124,136210,1,0,0:0:0:0:
156,130,136293,1,0,0:0:0:0:
176,136,136377,1,0,0:0:0:0:
196,142,136460,5,8,0:0:0:0:
215,104,136543,1,0,0:0:0:0:
252,87,136626,1,0,0:0:0:0:
293,96,136710,1,0,0:0:0:0:
320,128,136793,1,8,0:0:0:0:
321,170,136876,1,0,0:0:0:0:
322,211,136960,1,0,0:0:0:0:
348,243,137043,1,0,0:0:0:0:
389,253,137127,6,0,L|395:162,1,85,2|2,0:0|0:0,0:0:0:0:
468,115,137377,1,2,0:0:0:0:
468,115,137460,2,0,L|462:30,1,85,2|2,0:0|0:0,0:0:0:0:
394,5,137710,1,2,0:0:0:0:
394,5,137793,1,8,0:0:0:0:
359,22,137877,1,0,0:0:0:0:
382,45,137960,1,0,0:0:0:0:
355,58,138043,1,0,0:0:0:0:
372,76,138127,1,0,0:0:0:0:
358,91,138210,1,0,0:0:0:0:
362,107,138293,1,0,0:0:0:0:
357,118,138377,1,0,0:0:0:0:
