osu file format v14

[General]
AudioFilename: audio.ogg
AudioLeadIn: 0
PreviewTime: 55020
Countdown: 0
SampleSet: Normal
StackLeniency: 0.7
Mode: 1
LetterboxInBreaks: 0
WidescreenStoryboard: 1

[Editor]
DistanceSpacing: 0.1
BeatDivisor: 4
GridSize: 32
TimelineZoom: 2.399999

[Metadata]
Title:AAAA Chazuke Gang
TitleUnicode:ああああ茶漬けギャング
Artist:Kuki Akumu
ArtistUnicode:茎悪夢
Creator:gaston_2199
Version:trollocat's Inner Oni
Source:
Tags:pm04034 electronic instrumental chiptune 8-bit 8bit retro pixel miyoi reficul midnaait kyex trollocat
BeatmapID:3217457
BeatmapSetID:1572917

[Difficulty]
HPDrainRate:5.5
CircleSize:2
OverallDifficulty:6.5
ApproachRate:10
SliderMultiplier:1.4
SliderTickRate:1

[Events]
//Background and Video events
0,0,"BG.jpg",0,0
//Break Periods
//Storyboard Layer 0 (Background)
//Storyboard Layer 1 (Fail)
//Storyboard Layer 2 (Pass)
//Storyboard Layer 3 (Foreground)
//Storyboard Layer 4 (Overlay)
//Storyboard Sound Samples

[TimingPoints]
453,246.913580246914,4,1,0,70,1,0
453,-133.333333333333,4,1,0,70,0,0
8354,-117.647058823529,4,1,0,70,0,0
15514,-123.456790123457,4,1,0,70,0,0
15761,-126.582278481013,4,1,0,70,0,0
16008,-129.87012987013,4,1,0,70,0,0
16255,-133.333333333333,4,1,0,70,0,0
23415,-127.002509168114,4,1,0,70,0,0
23662,-121.223286661754,4,1,0,70,0,0
23909,-115.947136563877,4,1,0,70,0,0
24156,-105.263157894737,4,1,0,70,0,0
24403,-111.111111111111,4,1,0,70,0,0
31317,-117.647058823529,4,1,0,55,0,0
31564,-125,4,1,0,40,0,0
31811,-133.333333333333,4,1,0,25,0,0
32057,-121.951219512195,4,1,0,70,0,0
39218,-119.047619047619,4,1,0,70,0,0
39465,-116.279069767442,4,1,0,70,0,0
39712,-113.636363636364,4,1,0,70,0,0
47119,-117.647058823529,4,1,0,55,0,0
47366,-125,4,1,0,40,0,0
47613,-133.333333333333,4,1,0,25,0,0
47860,-125,4,1,0,70,0,0
51564,-108.695652173913,4,1,0,80,0,0
51811,-105.263157894737,4,1,0,80,0,0
55020,-111.111111111111,4,1,0,80,0,0
55267,-107.52688172043,4,1,0,80,0,0
55514,-104.166666666667,4,1,0,80,0,0
55761,-100,4,1,0,90,0,1
71317,-100,4,1,0,80,0,0
71564,-100,4,1,0,90,0,1
87119,-100,4,1,0,80,0,0
87366,-106.666666666667,4,1,0,65,0,0
87613,-114.285714285714,4,1,0,50,0,0
87860,-123.076923076923,4,1,0,35,0,0
88107,-133.333333333333,4,1,0,20,0,0
88354,-121.951219512195,4,1,0,80,0,0
95514,-119.047619047619,4,1,0,80,0,0
95761,-116.279069767442,4,1,0,80,0,0
96008,-113.636363636364,4,1,0,80,0,0
96255,-111.111111111111,4,1,0,80,0,0
103415,-117.628357971706,4,1,0,65,0,0
103662,-124.989443459167,4,1,0,50,0,0
103909,-133.333333333333,4,1,0,35,0,0
104156,-117.647058823529,4,1,0,80,0,0
107860,-108.695652173913,4,1,0,80,0,0
108107,-105.263157894737,4,1,0,80,0,0
111193,-111.111111111111,4,1,0,60,0,0
111564,-117.647058823529,4,1,0,60,0,0
111811,-125,4,1,0,60,0,0
112057,246.913580246914,3,1,0,60,1,0
112057,-133.333333333333,3,1,0,60,0,0
120945,300,3,1,0,60,1,0
120945,-109.739368998628,3,1,0,60,0,0
121245,342.857142857143,3,1,0,60,1,8
121245,-98.7449812985623,3,1,0,60,0,8
121327,-99.5563748963074,3,1,0,60,0,8
121413,-100.396670599328,3,1,0,60,0,8
121587,400,3,1,0,60,1,8
121587,-87.5390474914395,3,1,0,60,0,8
121987,480,3,1,0,60,1,0
121987,-76.1012916835706,3,1,0,60,0,0
122467,600,3,1,0,60,1,8
122467,-64.3826666655345,3,1,0,60,0,8
123067,810.810810810811,3,1,0,60,1,8
123067,-51.6733918698541,3,1,0,60,0,8
123877,1500,3,1,0,60,1,0
123877,-32.9218106995885,3,1,0,60,0,0
125377,246.913580246914,4,1,0,80,1,8
125377,-111.111111111111,4,1,0,80,0,0
126354,246.913580246914,4,1,0,80,1,8
126354,-111.111111111111,4,1,0,80,0,0
126600,-107.52688172043,4,1,0,80,0,0
126847,-104.166666666667,4,1,0,80,0,0
127104,246.913580246914,4,1,0,90,1,1
142659,-100,4,1,0,80,0,0
142906,-100,4,1,0,90,0,1
158462,-100,4,1,0,80,0,0
158708,-106.645056726094,4,1,0,65,0,0
158955,-114.269175108538,4,1,0,50,0,0
159202,-123.067331670823,4,1,0,35,0,0
159449,-133.333333333333,4,1,0,20,0,0
159696,-100,4,1,0,80,0,0

[HitObjects]
398,257,453,5,0,0:0:0:0:
315,292,2428,1,0,0:0:0:0:
234,227,4403,1,8,0:0:0:0:
285,238,6378,1,8,0:0:0:0:
242,258,8354,1,8,0:0:0:0:
261,255,8477,1,0,0:0:0:0:
268,252,8724,1,0,0:0:0:0:
325,249,8848,1,8,0:0:0:0:
268,252,8971,1,0,0:0:0:0:
312,252,9218,1,8,0:0:0:0:
312,252,9341,1,8,0:0:0:0:
321,250,9465,1,0,0:0:0:0:
321,250,9712,1,0,0:0:0:0:
328,240,9835,1,8,0:0:0:0:
321,250,9959,1,0,0:0:0:0:
306,241,10206,1,8,0:0:0:0:
306,241,10329,1,8,0:0:0:0:
306,241,10453,1,0,0:0:0:0:
297,254,10699,1,0,0:0:0:0:
253,202,10823,1,8,0:0:0:0:
253,202,10946,1,0,0:0:0:0:
252,224,11193,1,8,0:0:0:0:
261,220,11317,1,8,0:0:0:0:
261,220,11440,1,0,0:0:0:0:
249,229,11687,1,0,0:0:0:0:
249,229,11811,1,8,0:0:0:0:
249,229,11934,1,0,0:0:0:0:
238,236,12181,1,8,0:0:0:0:
238,236,12304,1,8,0:0:0:0:
254,232,12428,1,8,0:0:0:0:
257,241,12675,1,0,0:0:0:0:
254,241,12798,1,8,0:0:0:0:
254,241,12922,1,0,0:0:0:0:
238,273,13169,1,8,0:0:0:0:
238,273,13292,1,8,0:0:0:0:
200,200,13415,1,0,0:0:0:0:
191,278,13662,1,0,0:0:0:0:
216,268,13786,1,8,0:0:0:0:
213,270,13909,1,0,0:0:0:0:
219,257,14156,1,8,0:0:0:0:
219,257,14280,1,8,0:0:0:0:
219,257,14403,1,8,0:0:0:0:
219,257,14650,1,0,0:0:0:0:
219,257,14773,1,8,0:0:0:0:
219,257,14897,1,0,0:0:0:0:
233,252,15144,1,0,0:0:0:0:
219,257,15267,1,8,0:0:0:0:
231,251,15514,1,0,0:0:0:0:
231,251,15761,1,8,0:0:0:0:
231,251,16008,1,8,0:0:0:0:
231,251,16255,1,0,0:0:0:0:
234,242,16502,1,8,0:0:0:0:
226,243,16625,1,0,0:0:0:0:
200,251,16872,1,0,0:0:0:0:
200,251,16996,1,8,0:0:0:0:
320,252,17119,1,8,0:0:0:0:
320,252,17243,1,0,0:0:0:0:
200,251,17490,1,8,0:0:0:0:
320,252,17613,1,0,0:0:0:0:
279,222,17860,1,0,0:0:0:0:
356,259,17983,1,8,0:0:0:0:
201,250,18107,1,8,0:0:0:0:
286,259,18477,1,0,0:0:0:0:
230,261,18848,1,8,0:0:0:0:
230,261,18971,1,8,0:0:0:0:
240,223,19094,1,0,0:0:0:0:
263,240,19588,1,8,0:0:0:0:
248,211,19835,1,0,0:0:0:0:
256,241,20082,1,0,0:0:0:0:
249,241,20206,1,8,0:0:0:0:
235,248,20329,1,0,0:0:0:0:
235,248,20453,1,0,0:0:0:0:
235,248,20576,1,8,0:0:0:0:
191,257,20946,1,8,0:0:0:0:
191,257,21070,1,0,0:0:0:0:
201,257,21193,1,8,0:0:0:0:
270,284,21440,1,0,0:0:0:0:
248,297,21564,1,0,0:0:0:0:
257,301,21625,1,0,0:0:0:0:
252,202,21687,1,8,0:0:0:0:
251,315,21811,1,8,0:0:0:0:
251,315,21934,1,0,0:0:0:0:
276,130,22057,1,8,0:0:0:0:
216,240,22181,1,8,0:0:0:0:
269,231,22428,1,0,0:0:0:0:
243,203,22551,1,0,0:0:0:0:
243,203,22675,1,8,0:0:0:0:
249,234,22798,1,8,0:0:0:0:
249,234,22922,1,0,0:0:0:0:
272,231,23169,1,8,0:0:0:0:
269,233,23415,1,0,0:0:0:0:
266,233,23662,1,8,0:0:0:0:
266,233,23909,1,8,0:0:0:0:
266,233,24156,1,4,0:0:0:0:
233,256,24403,1,8,0:0:0:0:
226,286,24527,1,0,0:0:0:0:
231,254,24773,1,0,0:0:0:0:
237,255,24897,1,8,0:0:0:0:
241,262,25020,1,8,0:0:0:0:
241,262,25144,1,0,0:0:0:0:
241,262,25267,1,8,0:0:0:0:
241,262,25391,1,0,0:0:0:0:
254,260,25514,1,8,0:0:0:0:
346,173,25761,1,8,0:0:0:0:
266,241,25885,1,0,0:0:0:0:
338,180,26008,1,8,0:0:0:0:
343,185,26132,1,0,0:0:0:0:
342,203,26378,1,8,0:0:0:0:
333,204,26502,1,0,0:0:0:0:
236,222,26749,1,8,0:0:0:0:
278,234,26872,1,8,0:0:0:0:
278,234,26996,1,0,0:0:0:0:
278,234,27119,1,0,0:0:0:0:
292,274,27366,1,0,0:0:0:0:
226,287,27490,1,8,0:0:0:0:
231,283,27736,1,0,0:0:0:0:
233,278,27983,1,0,0:0:0:0:
233,278,28107,1,8,0:0:0:0:
239,273,28230,1,0,0:0:0:0:
233,278,28292,1,0,0:0:0:0:
251,270,28354,1,0,0:0:0:0:
253,273,28477,1,8,0:0:0:0:
253,273,28601,1,0,0:0:0:0:
214,203,28662,1,0,0:0:0:0:
202,204,28724,1,0,0:0:0:0:
220,207,28848,1,0,0:0:0:0:
220,207,28971,1,8,0:0:0:0:
220,207,29094,1,8,0:0:0:0:
220,185,29218,1,0,0:0:0:0:
462,307,29280,1,8,0:0:0:0:
232,188,29341,1,0,0:0:0:0:
245,254,29465,1,0,0:0:0:0:
229,247,29527,1,0,0:0:0:0:
215,249,29588,1,8,0:0:0:0:
329,256,29712,1,0,0:0:0:0:
315,251,29835,1,8,0:0:0:0:
306,209,29959,1,0,0:0:0:0:
279,218,30082,1,8,0:0:0:0:
256,200,30206,1,0,0:0:0:0:
256,203,30267,1,0,0:0:0:0:
254,209,30329,1,8,0:0:0:0:
253,209,30453,1,8,0:0:0:0:
263,202,30576,1,8,0:0:0:0:
206,207,30638,1,8,0:0:0:0:
213,206,30699,1,0,0:0:0:0:
212,211,30823,1,8,0:0:0:0:
216,202,30946,1,8,0:0:0:0:
249,235,31070,1,0,0:0:0:0:
254,242,31317,1,0,0:0:0:0:
254,242,31564,1,0,0:0:0:0:
254,242,31811,1,0,0:0:0:0:
259,246,32057,1,12,0:0:0:0:
363,236,32304,1,8,0:0:0:0:
360,238,32551,1,0,0:0:0:0:
241,233,32922,1,0,0:0:0:0:
375,241,33045,1,8,0:0:0:0:
356,242,33169,1,8,0:0:0:0:
357,243,33415,1,8,0:0:0:0:
231,232,33662,1,0,0:0:0:0:
373,237,33909,1,8,0:0:0:0:
234,231,34033,1,0,0:0:0:0:
356,254,34280,1,0,0:0:0:0:
356,254,34527,1,0,0:0:0:0:
356,254,34773,1,8,0:0:0:0:
356,254,35020,1,0,0:0:0:0:
343,260,35267,1,8,0:0:0:0:
343,260,35514,1,8,0:0:0:0:
343,260,35761,1,0,0:0:0:0:
353,247,35885,1,0,0:0:0:0:
343,258,36008,1,8,0:0:0:0:
314,262,36255,1,0,0:0:0:0:
287,270,36502,1,0,0:0:0:0:
301,273,36749,1,8,0:0:0:0:
301,273,36996,1,8,0:0:0:0:
252,258,37243,1,0,0:0:0:0:
233,268,37366,1,8,0:0:0:0:
246,265,37613,1,8,0:0:0:0:
241,268,37860,1,0,0:0:0:0:
248,263,37983,1,8,0:0:0:0:
253,265,38230,1,8,0:0:0:0:
253,265,38477,1,0,0:0:0:0:
252,263,38724,1,8,0:0:0:0:
242,262,38848,1,0,0:0:0:0:
252,263,38971,1,8,0:0:0:0:
252,263,39218,1,0,0:0:0:0:
246,267,39465,1,8,0:0:0:0:
246,267,39712,1,8,0:0:0:0:
225,244,39959,1,4,0:0:0:0:
306,232,40206,1,8,0:0:0:0:
248,228,40453,1,0,0:0:0:0:
306,232,40699,1,8,0:0:0:0:
246,231,40823,1,0,0:0:0:0:
254,210,40946,1,0,0:0:0:0:
254,210,41070,1,8,0:0:0:0:
245,149,41317,1,8,0:0:0:0:
366,253,41564,1,0,0:0:0:0:
314,180,41811,1,8,0:0:0:0:
246,231,41934,1,0,0:0:0:0:
297,230,42181,1,8,0:0:0:0:
281,232,42428,1,8,0:0:0:0:
296,229,42675,1,0,0:0:0:0:
279,232,42922,1,8,0:0:0:0:
295,229,43169,1,0,0:0:0:0:
279,232,43415,1,8,0:0:0:0:
295,229,43662,1,8,0:0:0:0:
277,232,43909,1,0,0:0:0:0:
295,229,44156,1,8,0:0:0:0:
275,231,44403,1,0,0:0:0:0:
295,229,44650,1,8,0:0:0:0:
275,231,44897,1,0,0:0:0:0:
292,227,45144,1,8,0:0:0:0:
353,186,45267,1,0,0:0:0:0:
275,231,45514,1,0,0:0:0:0:
275,231,45761,1,0,0:0:0:0:
292,227,45885,1,8,0:0:0:0:
291,228,46132,1,8,0:0:0:0:
275,230,46378,1,0,0:0:0:0:
292,228,46625,1,8,0:0:0:0:
354,192,46749,1,0,0:0:0:0:
286,226,46872,1,8,0:0:0:0:
296,233,47119,1,8,0:0:0:0:
292,232,47366,1,8,0:0:0:0:
293,232,47613,1,8,0:0:0:0:
296,220,47860,1,4,0:0:0:0:
306,225,48230,1,8,0:0:0:0:
306,225,48477,1,8,0:0:0:0:
307,222,48848,1,0,0:0:0:0:
296,223,49218,1,8,0:0:0:0:
292,244,49588,1,0,0:0:0:0:
301,241,49835,1,0,0:0:0:0:
298,243,50206,1,8,0:0:0:0:
314,238,50576,1,0,0:0:0:0:
314,238,50823,1,8,0:0:0:0:
363,152,51564,5,8,0:0:0:0:
286,215,51811,1,0,0:0:0:0:
270,261,51934,1,0,0:0:0:0:
300,244,51996,1,0,0:0:0:0:
235,248,52057,1,8,0:0:0:0:
312,246,52181,1,0,0:0:0:0:
301,252,52304,1,8,0:0:0:0:
303,258,52366,1,8,0:0:0:0:
286,259,52428,1,0,0:0:0:0:
291,257,52490,1,0,0:0:0:0:
293,260,52551,1,8,0:0:0:0:
296,267,52675,1,8,0:0:0:0:
296,267,52798,1,0,0:0:0:0:
266,227,52922,1,0,0:0:0:0:
272,229,52983,1,0,0:0:0:0:
281,244,53045,1,8,0:0:0:0:
281,245,53169,1,0,0:0:0:0:
274,243,53292,1,8,0:0:0:0:
281,245,53354,1,8,0:0:0:0:
281,247,53415,1,0,0:0:0:0:
283,253,53477,1,0,0:0:0:0:
281,245,53539,1,8,0:0:0:0:
247,239,53662,1,0,0:0:0:0:
362,207,53786,1,8,0:0:0:0:
326,242,53848,1,0,0:0:0:0:
341,241,53909,1,0,0:0:0:0:
332,253,53971,1,0,0:0:0:0:
340,258,54033,1,8,0:0:0:0:
317,273,54156,1,0,0:0:0:0:
306,277,54218,1,0,0:0:0:0:
310,279,54280,1,8,0:0:0:0:
300,223,54403,1,8,0:0:0:0:
292,236,54527,1,0,0:0:0:0:
293,236,54650,1,8,0:0:0:0:
281,242,54773,1,0,0:0:0:0:
388,278,55020,1,0,0:0:0:0:
306,313,55267,1,8,0:0:0:0:
302,311,55514,1,8,0:0:0:0:
308,291,55761,1,4,0:0:0:0:
288,192,55885,1,0,0:0:0:0:
284,199,55946,1,0,0:0:0:0:
254,297,56008,1,8,0:0:0:0:
254,283,56132,1,0,0:0:0:0:
288,192,56255,1,8,0:0:0:0:
241,293,56378,1,0,0:0:0:0:
256,278,56502,1,8,0:0:0:0:
258,145,56564,1,8,0:0:0:0:
260,209,56625,1,8,0:0:0:0:
248,283,56749,1,0,0:0:0:0:
248,283,56872,1,0,0:0:0:0:
257,285,56934,1,0,0:0:0:0:
259,286,56996,1,8,0:0:0:0:
271,297,57119,1,8,0:0:0:0:
280,300,57243,1,0,0:0:0:0:
317,110,57366,1,8,0:0:0:0:
265,165,57428,1,0,0:0:0:0:
263,301,57490,1,8,0:0:0:0:
296,183,57613,1,8,0:0:0:0:
374,214,57736,1,0,0:0:0:0:
366,211,57983,1,8,0:0:0:0:
266,300,58107,1,0,0:0:0:0:
235,108,58230,1,8,0:0:0:0:
304,163,58292,1,0,0:0:0:0:
331,229,58354,1,8,0:0:0:0:
236,171,58415,1,8,0:0:0:0:
331,229,58477,1,0,0:0:0:0:
215,151,58601,1,8,0:0:0:0:
293,256,58724,1,0,0:0:0:0:
294,254,58848,1,0,0:0:0:0:
294,254,58909,1,0,0:0:0:0:
294,254,58971,1,8,0:0:0:0:
330,177,59033,1,0,0:0:0:0:
328,218,59094,1,8,0:0:0:0:
280,199,59218,1,0,0:0:0:0:
358,248,59341,1,8,0:0:0:0:
301,251,59465,1,0,0:0:0:0:
394,210,59588,1,8,0:0:0:0:
245,213,59712,1,8,0:0:0:0:
232,210,59835,1,0,0:0:0:0:
232,210,59897,1,8,0:0:0:0:
234,217,59959,1,0,0:0:0:0:
306,207,60082,1,8,0:0:0:0:
370,192,60206,1,0,0:0:0:0:
368,234,60267,1,8,0:0:0:0:
366,225,60329,1,0,0:0:0:0:
275,270,60453,1,0,0:0:0:0:
282,273,60576,1,8,0:0:0:0:
282,273,60699,1,8,0:0:0:0:
294,278,60823,1,0,0:0:0:0:
293,283,60885,1,0,0:0:0:0:
298,293,60946,1,8,0:0:0:0:
309,240,61070,1,8,0:0:0:0:
293,281,61132,1,0,0:0:0:0:
307,250,61193,1,8,0:0:0:0:
280,263,61317,1,8,0:0:0:0:
280,263,61440,1,0,0:0:0:0:
280,263,61564,1,0,0:0:0:0:
280,263,61687,1,8,0:0:0:0:
305,162,61749,1,0,0:0:0:0:
256,261,61811,1,8,0:0:0:0:
233,275,61872,1,8,0:0:0:0:
238,275,61934,1,0,0:0:0:0:
281,265,62057,1,8,0:0:0:0:
261,270,62181,1,8,0:0:0:0:
347,187,62243,1,8,0:0:0:0:
286,271,62304,1,0,0:0:0:0:
332,177,62366,1,0,0:0:0:0:
294,279,62428,1,8,0:0:0:0:
294,279,62551,1,0,0:0:0:0:
286,273,62675,1,8,0:0:0:0:
286,265,62798,1,0,0:0:0:0:
287,266,62860,1,0,0:0:0:0:
286,265,62922,1,8,0:0:0:0:
359,279,62983,1,8,0:0:0:0:
268,301,63045,1,0,0:0:0:0:
258,229,63107,1,0,0:0:0:0:
244,298,63169,1,8,0:0:0:0:
291,294,63292,1,0,0:0:0:0:
291,294,63354,1,0,0:0:0:0:
302,320,63415,1,8,0:0:0:0:
328,237,63662,1,12,0:0:0:0:
287,230,63786,1,0,0:0:0:0:
287,230,63848,1,0,0:0:0:0:
247,181,63909,1,8,0:0:0:0:
252,185,64033,1,0,0:0:0:0:
312,263,64156,1,8,0:0:0:0:
253,171,64280,1,0,0:0:0:0:
256,278,64403,1,8,0:0:0:0:
258,145,64465,1,8,0:0:0:0:
260,209,64527,1,8,0:0:0:0:
248,283,64650,1,0,0:0:0:0:
248,283,64773,1,0,0:0:0:0:
257,285,64835,1,0,0:0:0:0:
259,286,64897,1,8,0:0:0:0:
271,297,65020,1,8,0:0:0:0:
280,300,65144,1,0,0:0:0:0:
317,110,65267,1,8,0:0:0:0:
265,165,65329,1,0,0:0:0:0:
263,301,65391,1,8,0:0:0:0:
296,183,65514,1,0,0:0:0:0:
374,214,65638,1,0,0:0:0:0:
366,211,65885,1,8,0:0:0:0:
266,300,66008,1,0,0:0:0:0:
236,109,66132,1,8,0:0:0:0:
294,254,66193,1,0,0:0:0:0:
331,229,66255,1,8,0:0:0:0:
236,171,66317,1,8,0:0:0:0:
331,229,66378,1,0,0:0:0:0:
215,151,66502,1,8,0:0:0:0:
293,256,66625,1,0,0:0:0:0:
294,254,66749,1,0,0:0:0:0:
330,177,66811,1,0,0:0:0:0:
294,254,66872,1,8,0:0:0:0:
250,342,66934,1,0,0:0:0:0:
328,218,66996,1,8,0:0:0:0:
358,248,67119,1,8,0:0:0:0:
301,251,67243,1,0,0:0:0:0:
394,210,67490,1,0,0:0:0:0:
245,213,67613,1,8,0:0:0:0:
232,210,67736,1,0,0:0:0:0:
232,210,67798,1,8,0:0:0:0:
234,217,67860,1,0,0:0:0:0:
306,207,67983,1,8,0:0:0:0:
309,222,68107,1,0,0:0:0:0:
368,234,68169,1,0,0:0:0:0:
366,225,68230,1,8,0:0:0:0:
313,145,68292,1,8,0:0:0:0:
275,270,68354,1,0,0:0:0:0:
282,273,68477,1,8,0:0:0:0:
282,273,68601,1,8,0:0:0:0:
294,278,68724,1,0,0:0:0:0:
293,283,68786,1,8,0:0:0:0:
298,293,68848,1,0,0:0:0:0:
309,240,68971,1,8,0:0:0:0:
293,281,69033,1,8,0:0:0:0:
307,250,69094,1,0,0:0:0:0:
280,263,69218,1,8,0:0:0:0:
280,263,69341,1,0,0:0:0:0:
280,263,69465,1,0,0:0:0:0:
280,263,69588,1,8,0:0:0:0:
305,162,69650,1,0,0:0:0:0:
256,261,69712,1,8,0:0:0:0:
233,275,69773,1,8,0:0:0:0:
238,275,69835,1,0,0:0:0:0:
281,265,69959,1,8,0:0:0:0:
424,146,70082,1,8,0:0:0:0:
416,168,70144,1,8,0:0:0:0:
286,271,70206,1,0,0:0:0:0:
332,177,70267,1,0,0:0:0:0:
294,279,70329,1,8,0:0:0:0:
170,224,70453,1,8,0:0:0:0:
171,233,70576,1,0,0:0:0:0:
166,226,70699,1,0,0:0:0:0:
179,226,70823,1,8,0:0:0:0:
179,226,70946,1,0,0:0:0:0:
183,233,71070,1,8,0:0:0:0:
183,233,71193,1,0,0:0:0:0:
331,274,71317,1,8,0:0:0:0:
246,196,71564,1,8,0:0:0:0:
293,282,71625,1,8,0:0:0:0:
290,172,71687,1,0,0:0:0:0:
288,172,71749,1,0,0:0:0:0:
297,179,71811,1,8,0:0:0:0:
312,213,71934,1,0,0:0:0:0:
354,228,72057,1,0,0:0:0:0:
312,213,72119,1,0,0:0:0:0:
340,215,72181,1,8,0:0:0:0:
367,227,72304,1,8,0:0:0:0:
300,161,72428,1,0,0:0:0:0:
227,204,72490,1,0,0:0:0:0:
221,209,72551,1,8,0:0:0:0:
229,213,72613,1,0,0:0:0:0:
220,212,72675,1,8,0:0:0:0:
221,209,72736,1,8,0:0:0:0:
304,249,72798,1,8,0:0:0:0:
313,230,72922,1,0,0:0:0:0:
313,221,73045,1,8,0:0:0:0:
293,164,73107,1,8,0:0:0:0:
259,266,73169,1,0,0:0:0:0:
296,241,73230,1,0,0:0:0:0:
274,236,73292,1,8,0:0:0:0:
284,278,73415,1,8,0:0:0:0:
296,272,73539,1,0,0:0:0:0:
293,257,73601,1,8,0:0:0:0:
289,263,73662,1,0,0:0:0:0:
296,272,73724,1,8,0:0:0:0:
227,194,73786,1,8,0:0:0:0:
276,236,73909,1,0,0:0:0:0:
306,258,74156,1,8,0:0:0:0:
281,253,74280,1,0,0:0:0:0:
291,202,74341,1,8,0:0:0:0:
272,167,74527,1,0,0:0:0:0:
270,177,74650,1,0,0:0:0:0:
259,185,74712,1,0,0:0:0:0:
254,191,74773,1,8,0:0:0:0:
398,110,74835,1,8,0:0:0:0:
284,247,74897,1,0,0:0:0:0:
301,219,75020,1,8,0:0:0:0:
290,206,75144,1,0,0:0:0:0:
279,262,75206,1,0,0:0:0:0:
326,171,75267,1,8,0:0:0:0:
316,162,75329,1,8,0:0:0:0:
340,159,75391,1,8,0:0:0:0:
237,178,75514,1,0,0:0:0:0:
287,194,75638,1,8,0:0:0:0:
288,255,75699,1,0,0:0:0:0:
237,175,75761,1,8,0:0:0:0:
322,189,75823,1,8,0:0:0:0:
351,271,75885,1,0,0:0:0:0:
308,241,76008,1,0,0:0:0:0:
350,257,76070,1,0,0:0:0:0:
205,218,76132,1,0,0:0:0:0:
236,231,76255,1,8,0:0:0:0:
299,201,76378,1,0,0:0:0:0:
286,267,76502,1,8,0:0:0:0:
294,246,76564,1,0,0:0:0:0:
296,247,76625,1,8,0:0:0:0:
359,261,76687,1,0,0:0:0:0:
351,258,76749,1,0,0:0:0:0:
338,279,76872,1,8,0:0:0:0:
338,279,76996,1,0,0:0:0:0:
239,174,77057,1,8,0:0:0:0:
324,297,77119,1,0,0:0:0:0:
226,170,77181,1,0,0:0:0:0:
289,298,77243,1,8,0:0:0:0:
304,299,77366,1,0,0:0:0:0:
304,299,77490,1,8,0:0:0:0:
317,297,77613,1,0,0:0:0:0:
329,301,77675,1,0,0:0:0:0:
323,315,77736,1,8,0:0:0:0:
317,317,77798,1,0,0:0:0:0:
320,318,77860,1,8,0:0:0:0:
323,315,77922,1,8,0:0:0:0:
309,295,77983,1,0,0:0:0:0:
341,264,78107,1,0,0:0:0:0:
340,277,78230,1,8,0:0:0:0:
340,288,78354,1,8,0:0:0:0:
317,255,78477,1,0,0:0:0:0:
300,273,78601,1,0,0:0:0:0:
311,278,78662,1,0,0:0:0:0:
327,294,78724,1,8,0:0:0:0:
317,313,78786,1,8,0:0:0:0:
318,306,78848,1,0,0:0:0:0:
319,289,78909,1,0,0:0:0:0:
326,282,78971,1,8,0:0:0:0:
318,282,79033,1,8,0:0:0:0:
319,289,79094,1,0,0:0:0:0:
309,288,79156,1,0,0:0:0:0:
301,290,79218,1,8,0:0:0:0:
246,196,79465,1,8,0:0:0:0:
293,185,79527,1,0,0:0:0:0:
290,172,79588,1,0,0:0:0:0:
288,172,79650,1,0,0:0:0:0:
297,179,79712,1,8,0:0:0:0:
312,213,79835,1,0,0:0:0:0:
354,228,79959,1,0,0:0:0:0:
312,213,80020,1,0,0:0:0:0:
340,215,80082,1,8,0:0:0:0:
367,227,80206,1,8,0:0:0:0:
300,161,80329,1,0,0:0:0:0:
227,204,80391,1,0,0:0:0:0:
221,209,80453,1,8,0:0:0:0:
229,213,80514,1,0,0:0:0:0:
220,212,80576,1,8,0:0:0:0:
221,209,80638,1,8,0:0:0:0:
304,249,80699,1,8,0:0:0:0:
313,230,80823,1,0,0:0:0:0:
313,221,80946,1,8,0:0:0:0:
293,164,81008,1,8,0:0:0:0:
259,266,81070,1,0,0:0:0:0:
296,241,81132,1,0,0:0:0:0:
274,236,81193,1,8,0:0:0:0:
284,278,81317,1,8,0:0:0:0:
296,272,81440,1,0,0:0:0:0:
293,257,81502,1,8,0:0:0:0:
289,263,81564,1,0,0:0:0:0:
296,272,81625,1,8,0:0:0:0:
227,194,81687,1,8,0:0:0:0:
276,236,81811,1,0,0:0:0:0:
306,258,82057,1,8,0:0:0:0:
281,253,82181,1,0,0:0:0:0:
291,202,82243,1,8,0:0:0:0:
272,167,82428,1,0,0:0:0:0:
270,177,82551,1,0,0:0:0:0:
259,185,82613,1,0,0:0:0:0:
254,191,82675,1,8,0:0:0:0:
398,110,82736,1,8,0:0:0:0:
284,247,82798,1,0,0:0:0:0:
301,219,82922,1,8,0:0:0:0:
290,206,83045,1,0,0:0:0:0:
279,262,83107,1,0,0:0:0:0:
326,171,83169,1,8,0:0:0:0:
316,162,83230,1,8,0:0:0:0:
340,159,83292,1,8,0:0:0:0:
237,178,83415,1,0,0:0:0:0:
287,194,83539,1,8,0:0:0:0:
288,255,83601,1,0,0:0:0:0:
237,175,83662,1,8,0:0:0:0:
293,263,83724,1,8,0:0:0:0:
351,271,83786,1,0,0:0:0:0:
308,241,83909,1,0,0:0:0:0:
350,257,83971,1,0,0:0:0:0:
205,218,84033,1,0,0:0:0:0:
236,231,84156,1,8,0:0:0:0:
299,201,84280,1,0,0:0:0:0:
286,267,84403,1,8,0:0:0:0:
294,246,84465,1,0,0:0:0:0:
296,247,84527,1,8,0:0:0:0:
359,261,84588,1,0,0:0:0:0:
351,258,84650,1,0,0:0:0:0:
338,279,84773,1,8,0:0:0:0:
338,279,84897,1,0,0:0:0:0:
324,297,85020,1,0,0:0:0:0:
289,298,85144,1,8,0:0:0:0:
304,299,85267,1,0,0:0:0:0:
304,299,85391,1,8,0:0:0:0:
317,297,85514,1,0,0:0:0:0:
329,301,85576,1,0,0:0:0:0:
323,315,85638,1,8,0:0:0:0:
317,317,85699,1,0,0:0:0:0:
320,318,85761,1,8,0:0:0:0:
323,315,85823,1,8,0:0:0:0:
309,295,85885,1,8,0:0:0:0:
341,264,86008,1,0,0:0:0:0:
203,294,86070,1,0,0:0:0:0:
340,277,86132,1,8,0:0:0:0:
340,288,86255,1,0,0:0:0:0:
317,255,86378,1,8,0:0:0:0:
278,222,86440,1,8,0:0:0:0:
281,237,86502,1,0,0:0:0:0:
307,214,86625,1,8,0:0:0:0:
285,242,86687,1,8,0:0:0:0:
291,258,86749,1,0,0:0:0:0:
307,214,86872,1,8,0:0:0:0:
291,258,86934,1,8,0:0:0:0:
283,253,86996,1,0,0:0:0:0:
264,237,87119,1,0,0:0:0:0:
280,229,87366,1,0,0:0:0:0:
280,229,87613,1,0,0:0:0:0:
280,229,87860,1,0,0:0:0:0:
366,187,88107,1,0,0:0:0:0:
274,239,88354,1,12,0:0:0:0:
225,50,88601,1,8,0:0:0:0:
354,171,88848,1,0,0:0:0:0:
267,169,89218,1,0,0:0:0:0:
279,245,89341,1,8,0:0:0:0:
296,188,89465,1,0,0:0:0:0:
301,190,89712,1,8,0:0:0:0:
347,157,89959,1,0,0:0:0:0:
341,170,90206,1,8,0:0:0:0:
327,165,90576,1,8,0:0:0:0:
333,166,90823,1,8,0:0:0:0:
333,167,91070,1,0,0:0:0:0:
281,255,91317,1,8,0:0:0:0:
283,223,91564,1,0,0:0:0:0:
283,223,91687,1,0,0:0:0:0:
283,223,91811,1,8,0:0:0:0:
251,244,92057,1,8,0:0:0:0:
251,244,92181,1,8,0:0:0:0:
274,239,92304,1,0,0:0:0:0:
274,239,92551,1,8,0:0:0:0:
291,240,92798,1,0,0:0:0:0:
291,240,93045,1,8,0:0:0:0:
291,240,93292,1,8,0:0:0:0:
324,182,93539,1,0,0:0:0:0:
316,206,93662,1,8,0:0:0:0:
316,206,93909,1,8,0:0:0:0:
288,241,94156,1,0,0:0:0:0:
306,215,94280,1,8,0:0:0:0:
338,188,94527,1,0,0:0:0:0:
300,225,94773,1,0,0:0:0:0:
297,225,95020,1,8,0:0:0:0:
295,233,95144,1,0,0:0:0:0:
294,233,95267,1,8,0:0:0:0:
296,235,95514,1,0,0:0:0:0:
293,236,95761,1,8,0:0:0:0:
292,234,96008,1,8,0:0:0:0:
292,234,96255,1,4,0:0:0:0:
309,224,96502,1,8,0:0:0:0:
321,187,96749,1,0,0:0:0:0:
310,223,96996,1,8,0:0:0:0:
317,226,97119,1,0,0:0:0:0:
318,188,97243,1,0,0:0:0:0:
312,234,97366,1,8,0:0:0:0:
239,75,97613,1,8,0:0:0:0:
234,96,97860,1,0,0:0:0:0:
294,95,98107,1,8,0:0:0:0:
317,188,98230,1,0,0:0:0:0:
307,218,98477,1,8,0:0:0:0:
268,211,98724,1,8,0:0:0:0:
268,211,98971,1,0,0:0:0:0:
285,207,99218,1,8,0:0:0:0:
263,218,99465,1,0,0:0:0:0:
279,210,99588,1,0,0:0:0:0:
263,218,99712,1,8,0:0:0:0:
305,212,99959,1,8,0:0:0:0:
292,225,100082,1,8,0:0:0:0:
317,188,100206,1,0,0:0:0:0:
305,212,100453,1,8,0:0:0:0:
304,215,100699,1,0,0:0:0:0:
304,215,100946,1,8,0:0:0:0:
290,217,101193,1,8,0:0:0:0:
290,217,101440,1,0,0:0:0:0:
286,223,101564,1,8,0:0:0:0:
303,212,101811,1,8,0:0:0:0:
303,212,102057,1,8,0:0:0:0:
303,212,102181,1,0,0:0:0:0:
303,212,102428,1,8,0:0:0:0:
303,212,102675,1,0,0:0:0:0:
303,212,102922,1,8,0:0:0:0:
267,186,103045,1,0,0:0:0:0:
303,212,103169,1,8,0:0:0:0:
303,212,103415,1,8,0:0:0:0:
303,212,103662,1,8,0:0:0:0:
303,212,103909,1,8,0:0:0:0:
296,220,104156,1,4,0:0:0:0:
306,225,104527,1,8,0:0:0:0:
306,225,104773,1,8,0:0:0:0:
307,222,105144,1,0,0:0:0:0:
296,223,105514,1,8,0:0:0:0:
287,233,105761,1,8,0:0:0:0:
292,244,105885,1,0,0:0:0:0:
301,241,106132,1,0,0:0:0:0:
298,243,106502,1,8,0:0:0:0:
314,238,106872,1,0,0:0:0:0:
314,238,107119,1,8,0:0:0:0:
363,152,107860,5,8,0:0:0:0:
286,215,108107,1,0,0:0:0:0:
270,261,108230,1,0,0:0:0:0:
300,244,108292,1,0,0:0:0:0:
235,248,108354,1,8,0:0:0:0:
312,246,108477,1,0,0:0:0:0:
301,252,108601,1,8,0:0:0:0:
303,258,108662,1,8,0:0:0:0:
286,259,108724,1,0,0:0:0:0:
291,257,108786,1,0,0:0:0:0:
293,260,108848,1,8,0:0:0:0:
296,267,108971,1,8,0:0:0:0:
296,267,109094,1,0,0:0:0:0:
266,227,109218,1,0,0:0:0:0:
272,229,109280,1,0,0:0:0:0:
281,244,109341,1,8,0:0:0:0:
281,245,109465,1,0,0:0:0:0:
274,243,109588,1,8,0:0:0:0:
281,245,109650,1,8,0:0:0:0:
281,247,109712,1,0,0:0:0:0:
283,253,109773,1,0,0:0:0:0:
281,245,109835,1,8,0:0:0:0:
247,239,109959,1,0,0:0:0:0:
362,207,110082,1,8,0:0:0:0:
326,242,110144,1,0,0:0:0:0:
341,241,110206,1,0,0:0:0:0:
332,253,110267,1,0,0:0:0:0:
340,258,110329,1,8,0:0:0:0:
317,273,110453,1,0,0:0:0:0:
306,277,110514,1,0,0:0:0:0:
310,279,110576,1,8,0:0:0:0:
300,223,110699,1,8,0:0:0:0:
292,236,110823,1,0,0:0:0:0:
293,236,110946,1,8,0:0:0:0:
281,242,111070,1,0,0:0:0:0:
324,225,111317,1,0,0:0:0:0:
295,231,111564,1,8,0:0:0:0:
272,242,111811,1,8,0:0:0:0:
256,192,112057,1,0,0:0:0:0:
256,192,112303,1,8,0:0:0:0:
256,192,112550,1,8,0:0:0:0:
256,192,112797,1,0,0:0:0:0:
256,192,113044,1,8,0:0:0:0:
256,192,113291,1,8,0:0:0:0:
256,192,113538,1,8,0:0:0:0:
256,192,113569,1,8,0:0:0:0:
256,192,113785,1,0,0:0:0:0:
256,192,114032,1,8,0:0:0:0:
256,192,114279,1,0,0:0:0:0:
256,192,114526,1,8,0:0:0:0:
256,192,114773,1,8,0:0:0:0:
256,192,115019,1,0,0:0:0:0:
256,192,115266,1,8,0:0:0:0:
256,192,115390,1,0,0:0:0:0:
256,192,115637,1,0,0:0:0:0:
256,192,115760,1,8,0:0:0:0:
256,192,116007,1,0,0:0:0:0:
256,192,116131,1,8,0:0:0:0:
256,192,116254,1,0,0:0:0:0:
256,192,116501,1,8,0:0:0:0:
256,192,116748,1,8,0:0:0:0:
256,192,116995,1,8,0:0:0:0:
256,192,117242,1,0,0:0:0:0:
256,192,117489,1,8,0:0:0:0:
256,192,117736,1,8,0:0:0:0:
256,192,117859,1,0,0:0:0:0:
256,192,117982,1,8,0:0:0:0:
256,192,118229,1,0,0:0:0:0:
256,192,118353,1,0,0:0:0:0:
256,192,118476,1,8,0:0:0:0:
256,192,118723,1,8,0:0:0:0:
256,192,118970,1,0,0:0:0:0:
256,192,119217,1,8,0:0:0:0:
256,192,119464,1,8,0:0:0:0:
256,192,119711,1,0,0:0:0:0:
256,192,119834,1,0,0:0:0:0:
256,192,119958,1,8,0:0:0:0:
256,192,120205,1,0,0:0:0:0:
256,192,120328,1,8,0:0:0:0:
256,192,120452,1,0,0:0:0:0:
256,192,120698,1,8,0:0:0:0:
224,128,120945,1,0,0:0:0:0:
288,64,121245,1,0,0:0:0:0:
224,32,121330,1,0,0:0:0:0:
224,160,121416,1,8,0:0:0:0:
288,64,121587,1,8,0:0:0:0:
288,64,121987,1,8,0:0:0:0:
288,64,122467,1,0,0:0:0:0:
288,64,123067,1,0,0:0:0:0:
256,192,123877,8,0,125252,0:0:0:0:
256,192,125377,5,0,0:0:0:0:
388,278,126354,1,0,0:0:0:0:
306,313,126600,1,8,0:0:0:0:
302,311,126847,1,8,0:0:0:0:
306,313,127104,1,4,0:0:0:0:
302,220,127227,1,0,0:0:0:0:
243,264,127289,1,0,0:0:0:0:
254,297,127350,1,8,0:0:0:0:
254,283,127474,1,0,0:0:0:0:
338,218,127597,1,8,0:0:0:0:
241,293,127721,1,0,0:0:0:0:
256,278,127844,1,8,0:0:0:0:
258,145,127906,1,8,0:0:0:0:
260,209,127968,1,8,0:0:0:0:
248,283,128091,1,0,0:0:0:0:
248,283,128215,1,0,0:0:0:0:
257,285,128276,1,0,0:0:0:0:
259,286,128338,1,8,0:0:0:0:
271,297,128462,1,8,0:0:0:0:
280,300,128585,1,0,0:0:0:0:
317,110,128708,1,8,0:0:0:0:
265,165,128770,1,0,0:0:0:0:
263,301,128832,1,8,0:0:0:0:
296,183,128955,1,8,0:0:0:0:
374,214,129079,1,0,0:0:0:0:
366,211,129326,1,8,0:0:0:0:
266,300,129449,1,0,0:0:0:0:
236,109,129573,1,8,0:0:0:0:
304,163,129634,1,0,0:0:0:0:
331,229,129696,1,8,0:0:0:0:
236,171,129758,1,8,0:0:0:0:
331,229,129820,1,0,0:0:0:0:
215,151,129943,1,8,0:0:0:0:
293,256,130066,1,0,0:0:0:0:
294,254,130190,1,0,0:0:0:0:
294,254,130252,1,0,0:0:0:0:
294,254,130313,1,8,0:0:0:0:
330,177,130375,1,0,0:0:0:0:
328,218,130437,1,8,0:0:0:0:
296,313,130560,1,0,0:0:0:0:
358,248,130684,1,8,0:0:0:0:
301,251,130807,1,0,0:0:0:0:
293,296,130869,1,0,0:0:0:0:
394,210,130931,1,8,0:0:0:0:
245,213,131054,1,8,0:0:0:0:
232,210,131178,1,0,0:0:0:0:
232,210,131239,1,8,0:0:0:0:
234,217,131301,1,0,0:0:0:0:
306,207,131424,1,8,0:0:0:0:
370,192,131548,1,0,0:0:0:0:
368,234,131610,1,8,0:0:0:0:
366,225,131671,1,0,0:0:0:0:
275,270,131795,1,0,0:0:0:0:
282,273,131918,1,8,0:0:0:0:
282,273,132042,1,8,0:0:0:0:
294,278,132165,1,0,0:0:0:0:
293,283,132227,1,0,0:0:0:0:
298,293,132289,1,8,0:0:0:0:
309,240,132412,1,8,0:0:0:0:
293,281,132474,1,0,0:0:0:0:
307,250,132536,1,8,0:0:0:0:
280,263,132659,1,8,0:0:0:0:
280,263,132783,1,0,0:0:0:0:
280,263,132906,1,0,0:0:0:0:
280,263,133029,1,8,0:0:0:0:
305,162,133091,1,0,0:0:0:0:
256,261,133153,1,8,0:0:0:0:
233,275,133215,1,8,0:0:0:0:
238,275,133276,1,0,0:0:0:0:
281,265,133400,1,8,0:0:0:0:
261,270,133523,1,8,0:0:0:0:
347,187,133585,1,8,0:0:0:0:
286,271,133647,1,0,0:0:0:0:
332,177,133708,1,0,0:0:0:0:
294,279,133770,1,8,0:0:0:0:
294,279,133894,1,0,0:0:0:0:
286,273,134017,1,8,0:0:0:0:
286,265,134141,1,0,0:0:0:0:
287,266,134202,1,0,0:0:0:0:
286,265,134264,1,8,0:0:0:0:
272,284,134326,1,8,0:0:0:0:
268,301,134387,1,0,0:0:0:0:
244,298,134511,1,8,0:0:0:0:
291,294,134634,1,0,0:0:0:0:
291,294,134696,1,0,0:0:0:0:
302,320,134758,1,8,0:0:0:0:
328,237,135005,1,12,0:0:0:0:
353,292,135128,1,0,0:0:0:0:
347,287,135190,1,0,0:0:0:0:
247,181,135252,1,8,0:0:0:0:
252,185,135375,1,0,0:0:0:0:
346,292,135499,1,8,0:0:0:0:
253,171,135622,1,0,0:0:0:0:
256,278,135745,1,8,0:0:0:0:
258,145,135807,1,8,0:0:0:0:
260,209,135869,1,8,0:0:0:0:
248,283,135992,1,0,0:0:0:0:
248,283,136116,1,0,0:0:0:0:
257,285,136178,1,0,0:0:0:0:
259,286,136239,1,8,0:0:0:0:
271,297,136363,1,8,0:0:0:0:
280,300,136486,1,0,0:0:0:0:
317,110,136610,1,8,0:0:0:0:
265,165,136671,1,0,0:0:0:0:
263,301,136733,1,8,0:0:0:0:
296,183,136857,1,0,0:0:0:0:
374,214,136980,1,0,0:0:0:0:
366,211,137227,1,8,0:0:0:0:
266,300,137289,1,8,0:0:0:0:
266,300,137350,1,0,0:0:0:0:
236,109,137474,1,8,0:0:0:0:
294,254,137536,1,0,0:0:0:0:
331,229,137597,1,8,0:0:0:0:
236,171,137659,1,8,0:0:0:0:
331,229,137721,1,0,0:0:0:0:
215,151,137844,1,8,0:0:0:0:
293,256,137968,1,0,0:0:0:0:
294,254,138091,1,0,0:0:0:0:
330,177,138153,1,0,0:0:0:0:
294,254,138215,1,8,0:0:0:0:
205,295,138276,1,0,0:0:0:0:
328,218,138338,1,8,0:0:0:0:
358,248,138462,1,8,0:0:0:0:
301,251,138585,1,0,0:0:0:0:
301,303,138708,1,8,0:0:0:0:
307,318,138770,1,8,0:0:0:0:
394,210,138832,1,0,0:0:0:0:
245,213,138955,1,8,0:0:0:0:
232,210,139079,1,0,0:0:0:0:
232,210,139141,1,8,0:0:0:0:
234,217,139202,1,0,0:0:0:0:
306,207,139326,1,8,0:0:0:0:
297,158,139449,1,0,0:0:0:0:
368,234,139511,1,0,0:0:0:0:
366,225,139573,1,8,0:0:0:0:
310,196,139634,1,8,0:0:0:0:
275,270,139696,1,0,0:0:0:0:
282,273,139820,1,8,0:0:0:0:
282,273,139943,1,8,0:0:0:0:
294,278,140066,1,0,0:0:0:0:
293,283,140128,1,8,0:0:0:0:
298,293,140190,1,0,0:0:0:0:
309,240,140313,1,8,0:0:0:0:
293,281,140375,1,8,0:0:0:0:
307,250,140437,1,0,0:0:0:0:
280,263,140560,1,8,0:0:0:0:
280,263,140684,1,0,0:0:0:0:
280,263,140807,1,0,0:0:0:0:
280,263,140931,1,8,0:0:0:0:
305,162,140992,1,0,0:0:0:0:
256,261,141054,1,8,0:0:0:0:
233,275,141116,1,8,0:0:0:0:
238,275,141178,1,0,0:0:0:0:
281,265,141301,1,8,0:0:0:0:
424,146,141424,1,8,0:0:0:0:
416,168,141486,1,8,0:0:0:0:
286,271,141548,1,0,0:0:0:0:
332,177,141610,1,0,0:0:0:0:
294,279,141671,1,8,0:0:0:0:
170,224,141795,1,8,0:0:0:0:
308,210,141857,1,0,0:0:0:0:
171,233,141918,1,0,0:0:0:0:
166,226,142042,1,0,0:0:0:0:
179,226,142165,1,8,0:0:0:0:
179,226,142289,1,0,0:0:0:0:
183,233,142412,1,8,0:0:0:0:
183,233,142536,1,0,0:0:0:0:
331,274,142659,1,8,0:0:0:0:
246,196,142906,1,8,0:0:0:0:
293,185,142968,1,0,0:0:0:0:
290,172,143029,1,0,0:0:0:0:
288,172,143091,1,0,0:0:0:0:
297,179,143153,1,8,0:0:0:0:
312,213,143276,1,0,0:0:0:0:
354,228,143400,1,0,0:0:0:0:
312,213,143462,1,0,0:0:0:0:
340,215,143523,1,8,0:0:0:0:
367,227,143647,1,8,0:0:0:0:
300,161,143770,1,0,0:0:0:0:
227,204,143832,1,0,0:0:0:0:
221,209,143894,1,8,0:0:0:0:
229,213,143955,1,0,0:0:0:0:
220,212,144017,1,8,0:0:0:0:
221,209,144079,1,8,0:0:0:0:
304,249,144141,1,8,0:0:0:0:
313,230,144264,1,0,0:0:0:0:
313,221,144387,1,8,0:0:0:0:
293,164,144449,1,8,0:0:0:0:
259,266,144511,1,0,0:0:0:0:
296,241,144573,1,0,0:0:0:0:
274,236,144634,1,8,0:0:0:0:
284,278,144758,1,8,0:0:0:0:
296,272,144881,1,0,0:0:0:0:
293,257,144943,1,8,0:0:0:0:
289,263,145005,1,0,0:0:0:0:
296,272,145066,1,8,0:0:0:0:
227,194,145128,1,8,0:0:0:0:
276,236,145252,1,0,0:0:0:0:
306,258,145499,1,8,0:0:0:0:
281,253,145622,1,0,0:0:0:0:
291,202,145684,1,8,0:0:0:0:
272,167,145869,1,0,0:0:0:0:
270,177,145992,1,0,0:0:0:0:
259,185,146054,1,0,0:0:0:0:
254,191,146116,1,8,0:0:0:0:
398,110,146178,1,8,0:0:0:0:
284,247,146239,1,0,0:0:0:0:
301,219,146363,1,8,0:0:0:0:
290,206,146486,1,0,0:0:0:0:
279,262,146548,1,0,0:0:0:0:
326,171,146610,1,8,0:0:0:0:
316,162,146671,1,8,0:0:0:0:
340,159,146733,1,8,0:0:0:0:
237,178,146857,1,0,0:0:0:0:
287,194,146980,1,8,0:0:0:0:
288,255,147042,1,0,0:0:0:0:
237,175,147104,1,8,0:0:0:0:
279,288,147165,1,8,0:0:0:0:
351,271,147227,1,0,0:0:0:0:
308,241,147350,1,0,0:0:0:0:
388,280,147412,1,8,0:0:0:0:
205,218,147474,1,0,0:0:0:0:
349,188,147536,1,0,0:0:0:0:
236,231,147597,1,8,0:0:0:0:
299,201,147721,1,0,0:0:0:0:
286,267,147844,1,8,0:0:0:0:
294,246,147906,1,0,0:0:0:0:
296,247,147968,1,8,0:0:0:0:
359,261,148029,1,0,0:0:0:0:
351,258,148091,1,0,0:0:0:0:
338,279,148215,1,8,0:0:0:0:
338,279,148338,1,0,0:0:0:0:
258,222,148400,1,8,0:0:0:0:
324,297,148462,1,0,0:0:0:0:
250,227,148523,1,0,0:0:0:0:
289,298,148585,1,8,0:0:0:0:
304,299,148708,1,0,0:0:0:0:
304,299,148832,1,8,0:0:0:0:
371,237,148894,1,0,0:0:0:0:
317,297,148955,1,0,0:0:0:0:
329,301,149017,1,0,0:0:0:0:
323,315,149079,1,8,0:0:0:0:
317,317,149141,1,0,0:0:0:0:
320,318,149202,1,8,0:0:0:0:
323,315,149264,1,8,0:0:0:0:
309,295,149326,1,0,0:0:0:0:
341,264,149449,1,0,0:0:0:0:
340,277,149573,1,8,0:0:0:0:
340,288,149696,1,8,0:0:0:0:
317,255,149820,1,0,0:0:0:0:
300,273,149943,1,0,0:0:0:0:
311,278,150005,1,0,0:0:0:0:
327,294,150066,1,8,0:0:0:0:
317,313,150128,1,8,0:0:0:0:
318,306,150190,1,0,0:0:0:0:
319,289,150252,1,0,0:0:0:0:
326,282,150313,1,8,0:0:0:0:
318,282,150375,1,8,0:0:0:0:
319,289,150437,1,0,0:0:0:0:
309,288,150499,1,0,0:0:0:0:
301,290,150560,1,8,0:0:0:0:
246,196,150807,1,8,0:0:0:0:
327,196,150869,1,8,0:0:0:0:
290,172,150931,1,0,0:0:0:0:
288,172,150992,1,0,0:0:0:0:
297,179,151054,1,8,0:0:0:0:
312,213,151178,1,0,0:0:0:0:
354,228,151301,1,0,0:0:0:0:
312,213,151363,1,0,0:0:0:0:
340,215,151424,1,8,0:0:0:0:
367,227,151548,1,8,0:0:0:0:
300,161,151671,1,0,0:0:0:0:
227,204,151733,1,0,0:0:0:0:
221,209,151795,1,8,0:0:0:0:
229,213,151857,1,0,0:0:0:0:
220,212,151918,1,8,0:0:0:0:
221,209,151980,1,8,0:0:0:0:
304,249,152042,1,8,0:0:0:0:
313,230,152165,1,0,0:0:0:0:
313,221,152289,1,8,0:0:0:0:
293,164,152350,1,8,0:0:0:0:
259,266,152412,1,0,0:0:0:0:
296,241,152474,1,0,0:0:0:0:
274,236,152536,1,8,0:0:0:0:
284,278,152659,1,8,0:0:0:0:
296,272,152783,1,0,0:0:0:0:
293,257,152844,1,8,0:0:0:0:
289,263,152906,1,0,0:0:0:0:
296,272,152968,1,8,0:0:0:0:
227,194,153029,1,8,0:0:0:0:
276,236,153153,1,0,0:0:0:0:
306,258,153400,1,8,0:0:0:0:
281,253,153523,1,0,0:0:0:0:
291,202,153585,1,8,0:0:0:0:
272,167,153770,1,0,0:0:0:0:
270,177,153894,1,0,0:0:0:0:
259,185,153955,1,0,0:0:0:0:
254,191,154017,1,8,0:0:0:0:
398,110,154079,1,8,0:0:0:0:
284,247,154141,1,0,0:0:0:0:
301,219,154264,1,8,0:0:0:0:
290,206,154387,1,0,0:0:0:0:
279,262,154449,1,0,0:0:0:0:
326,171,154511,1,8,0:0:0:0:
316,162,154573,1,8,0:0:0:0:
340,159,154634,1,8,0:0:0:0:
237,178,154758,1,0,0:0:0:0:
287,194,154881,1,8,0:0:0:0:
288,255,154943,1,0,0:0:0:0:
237,175,155005,1,8,0:0:0:0:
333,267,155066,1,8,0:0:0:0:
351,271,155128,1,0,0:0:0:0:
308,241,155252,1,0,0:0:0:0:
326,277,155313,1,8,0:0:0:0:
205,218,155375,1,0,0:0:0:0:
319,273,155437,1,0,0:0:0:0:
236,231,155499,1,8,0:0:0:0:
299,201,155622,1,0,0:0:0:0:
286,267,155745,1,8,0:0:0:0:
294,246,155807,1,0,0:0:0:0:
296,247,155869,1,8,0:0:0:0:
359,261,155931,1,0,0:0:0:0:
351,258,155992,1,0,0:0:0:0:
338,279,156116,1,8,0:0:0:0:
338,279,156239,1,0,0:0:0:0:
324,297,156363,1,0,0:0:0:0:
289,298,156486,1,8,0:0:0:0:
304,299,156610,1,0,0:0:0:0:
304,299,156733,1,8,0:0:0:0:
362,258,156795,1,8,0:0:0:0:
317,297,156857,1,0,0:0:0:0:
329,301,156918,1,0,0:0:0:0:
323,315,156980,1,8,0:0:0:0:
317,317,157042,1,0,0:0:0:0:
320,318,157104,1,8,0:0:0:0:
323,315,157165,1,8,0:0:0:0:
309,295,157227,1,8,0:0:0:0:
341,264,157350,1,0,0:0:0:0:
263,201,157412,1,0,0:0:0:0:
340,277,157474,1,8,0:0:0:0:
340,288,157597,1,0,0:0:0:0:
317,255,157721,1,8,0:0:0:0:
278,222,157783,1,8,0:0:0:0:
281,237,157844,1,0,0:0:0:0:
307,214,157968,1,8,0:0:0:0:
285,242,158029,1,8,0:0:0:0:
291,258,158091,1,0,0:0:0:0:
307,214,158215,1,8,0:0:0:0:
291,258,158276,1,8,0:0:0:0:
283,253,158338,1,0,0:0:0:0:
264,237,158462,1,0,0:0:0:0:
280,229,158708,1,0,0:0:0:0:
280,229,158955,1,0,0:0:0:0:
280,229,159202,1,0,0:0:0:0:
366,187,159449,1,0,0:0:0:0:
317,290,159696,1,12,0:0:0:0:
