osu file format v14

[General]
AudioFilename: audio.ogg
AudioLeadIn: 0
PreviewTime: 55020
Countdown: 0
SampleSet: Normal
StackLeniency: 0.7
Mode: 1
LetterboxInBreaks: 0
WidescreenStoryboard: 1

[Editor]
Bookmarks: 443,8344,16245,24146,32047,39949,47850,55751,63652,71554,79455,88344,96245,104146,112047,120945,127091,134993,142894,150795
DistanceSpacing: 0.1
BeatDivisor: 4
GridSize: 32
TimelineZoom: 1.8

[Metadata]
Title:AAAA Chazuke Gang
TitleUnicode:ああああ茶漬けギャング
Artist:Kuki Akumu
ArtistUnicode:茎悪夢
Creator:gaston_2199
Version:Futsuu
Source:
Tags:pm04034 electronic instrumental chiptune 8-bit 8bit retro pixel miyoi reficul midnaait kyex trollocat
BeatmapID:3217051
BeatmapSetID:1572917

[Difficulty]
HPDrainRate:7
CircleSize:2
OverallDifficulty:4
ApproachRate:10
SliderMultiplier:1.4
SliderTickRate:1

[Events]
//Background and Video events
0,0,"BG.jpg",0,0
//Break Periods
//Storyboard Layer 0 (Background)
//Storyboard Layer 1 (Fail)
//Storyboard Layer 2 (Pass)
//Storyboard Layer 3 (Foreground)
//Storyboard Layer 4 (Overlay)
//Storyboard Sound Samples

[TimingPoints]
453,246.913580246914,4,1,0,70,1,0
453,-117.647058823529,4,1,0,70,0,0
16250,-117.647058823529,4,1,0,60,0,0
24151,-111.111111111111,4,1,0,80,0,0
32052,-117.647058823529,4,1,0,70,0,0
39954,-111.111111111111,4,1,0,80,0,0
47855,-125,4,1,0,70,0,0
51801,-111.111111111111,4,1,0,80,0,0
55761,-100,4,1,0,90,0,1
71317,-100,4,1,0,80,0,0
71564,-100,4,1,0,90,0,1
87119,-100,4,1,0,80,0,0
88349,-117.647058823529,4,1,0,70,0,0
96250,-111.111111111111,4,1,0,80,0,0
104151,-125,4,1,0,70,0,0
108102,-111.111111111111,4,1,0,80,0,0
112057,246.913580246914,3,1,0,60,1,0
112057,-133.333333333333,3,1,0,60,0,0
120945,300,3,1,0,60,1,0
120945,-109.739368998628,3,1,0,60,0,0
121245,342.857142857143,3,1,0,60,1,8
121587,400,3,1,0,60,1,8
121587,-87.5390474914395,3,1,0,60,0,0
121987,480,3,1,0,60,1,0
121987,-76.1012916835706,3,1,0,60,0,0
122467,600,3,1,0,60,1,8
122467,-64.3826666655345,3,1,0,60,0,0
123067,810.810810810811,3,1,0,60,1,8
123067,-51.6733918698541,3,1,0,60,0,0
123877,1500,3,1,0,60,1,0
123877,-32.9218106995885,3,1,0,60,0,0
125377,246.913580246914,4,1,0,80,1,8
126354,246.913580246914,4,1,0,80,1,8
126354,-111.111111111111,4,1,0,80,0,0
127104,246.913580246914,4,1,0,90,1,1
142659,-100,4,1,0,80,0,0
142906,-100,4,1,0,90,0,1
158462,-100,4,1,0,80,0,0

[HitObjects]
256,192,453,5,0,0:0:0:0:
256,192,2428,1,0,0:0:0:0:
256,192,4403,1,8,0:0:0:0:
256,192,6378,1,8,0:0:0:0:
256,192,8354,1,0,0:0:0:0:
256,192,9341,1,0,0:0:0:0:
256,192,9835,1,0,0:0:0:0:
256,192,10329,1,8,0:0:0:0:
256,192,11317,1,8,0:0:0:0:
256,192,11811,1,8,0:0:0:0:
256,192,12304,1,0,0:0:0:0:
256,192,13292,1,0,0:0:0:0:
256,192,13786,1,0,0:0:0:0:
256,192,14280,1,8,0:0:0:0:
256,192,16255,1,0,0:0:0:0:
256,192,16872,1,0,0:0:0:0:
256,192,16996,1,8,0:0:0:0:
256,192,17243,1,0,0:0:0:0:
256,192,17490,1,8,0:0:0:0:
256,192,17983,1,8,0:0:0:0:
256,192,18230,1,0,0:0:0:0:
256,192,18848,1,8,0:0:0:0:
256,192,19094,1,8,0:0:0:0:
256,192,19588,1,0,0:0:0:0:
256,192,19835,1,0,0:0:0:0:
256,192,20206,1,8,0:0:0:0:
256,192,20576,1,8,0:0:0:0:
256,160,20946,1,0,0:0:0:0:
256,192,21193,1,8,0:0:0:0:
167,158,21687,1,8,0:0:0:0:
167,158,21811,1,8,0:0:0:0:
256,192,21934,1,0,0:0:0:0:
256,192,22181,1,8,0:0:0:0:
256,192,22675,1,8,0:0:0:0:
256,192,22922,1,8,0:0:0:0:
256,192,23169,1,0,0:0:0:0:
256,192,23662,1,8,0:0:0:0:
256,192,24156,1,4,0:0:0:0:
256,192,24773,1,0,0:0:0:0:
256,192,24897,1,8,0:0:0:0:
256,192,25144,1,0,0:0:0:0:
256,192,25391,1,8,0:0:0:0:
256,192,25761,1,0,0:0:0:0:
256,192,25885,1,8,0:0:0:0:
256,192,26132,1,0,0:0:0:0:
256,192,26749,1,8,0:0:0:0:
256,192,26996,1,0,0:0:0:0:
256,192,27490,1,0,0:0:0:0:
256,192,27736,1,0,0:0:0:0:
256,192,28107,1,8,0:0:0:0:
256,192,28477,1,8,0:0:0:0:
256,192,28724,1,0,0:0:0:0:
256,192,29094,1,8,0:0:0:0:
256,192,29341,1,0,0:0:0:0:
256,192,29588,1,8,0:0:0:0:
256,192,29712,1,8,0:0:0:0:
256,192,29835,1,0,0:0:0:0:
256,192,30082,1,8,0:0:0:0:
256,192,30576,1,8,0:0:0:0:
256,192,30823,1,8,0:0:0:0:
256,192,31070,1,0,0:0:0:0:
288,160,32057,1,4,0:0:0:0:
256,96,32551,1,0,0:0:0:0:
256,96,33045,1,8,0:0:0:0:
226,123,33169,1,0,0:0:0:0:
256,96,33415,1,8,0:0:0:0:
256,96,34033,1,0,0:0:0:0:
256,96,34527,1,8,0:0:0:0:
256,96,35020,1,0,0:0:0:0:
256,96,35267,1,8,0:0:0:0:
256,96,35514,1,0,0:0:0:0:
256,96,36008,1,0,0:0:0:0:
256,96,36502,1,8,0:0:0:0:
256,96,36996,1,0,0:0:0:0:
256,96,37366,1,8,0:0:0:0:
256,96,37613,1,8,0:0:0:0:
256,96,37983,1,0,0:0:0:0:
256,96,38477,1,8,0:0:0:0:
256,96,38724,1,8,0:0:0:0:
256,96,38971,1,0,0:0:0:0:
256,96,39465,1,8,0:0:0:0:
288,160,39959,1,4,0:0:0:0:
256,96,40453,1,8,0:0:0:0:
256,96,40946,1,8,0:0:0:0:
288,128,41193,1,0,0:0:0:0:
256,96,41440,1,8,0:0:0:0:
256,96,41934,1,0,0:0:0:0:
256,96,42428,1,8,0:0:0:0:
256,96,42675,1,8,0:0:0:0:
256,96,42922,1,0,0:0:0:0:
256,96,43169,1,0,0:0:0:0:
256,96,43415,1,8,0:0:0:0:
256,96,43909,1,0,0:0:0:0:
256,96,44403,1,8,0:0:0:0:
256,96,44897,1,8,0:0:0:0:
256,96,45144,1,0,0:0:0:0:
256,96,45391,1,8,0:0:0:0:
256,96,45885,1,0,0:0:0:0:
256,96,46378,1,8,0:0:0:0:
256,96,46625,1,8,0:0:0:0:
256,96,46872,1,0,0:0:0:0:
256,96,47860,1,4,0:0:0:0:
256,192,48848,1,8,0:0:0:0:
288,160,49588,1,0,0:0:0:0:
288,160,49835,1,0,0:0:0:0:
288,160,50576,1,0,0:0:0:0:
288,160,50823,1,8,0:0:0:0:
288,160,51811,1,0,0:0:0:0:
288,160,52057,1,8,0:0:0:0:
288,160,52304,1,8,0:0:0:0:
288,160,52428,1,0,0:0:0:0:
288,160,52551,1,8,0:0:0:0:
288,160,52798,1,8,0:0:0:0:
288,160,53045,1,0,0:0:0:0:
288,160,53292,1,8,0:0:0:0:
288,160,53415,1,8,0:0:0:0:
288,160,53539,1,8,0:0:0:0:
288,160,53786,1,0,0:0:0:0:
288,160,54033,1,8,0:0:0:0:
288,160,54280,1,8,0:0:0:0:
288,160,54403,1,8,0:0:0:0:
288,160,54527,1,8,0:0:0:0:
288,160,54650,1,8,0:0:0:0:
288,160,54773,1,0,0:0:0:0:
256,128,55761,1,4,0:0:0:0:
256,128,56502,1,8,0:0:0:0:
256,128,56749,1,0,0:0:0:0:
256,128,56996,1,8,0:0:0:0:
256,128,57119,1,0,0:0:0:0:
256,128,57366,1,0,0:0:0:0:
256,128,57490,1,8,0:0:0:0:
256,128,57736,1,0,0:0:0:0:
256,128,58354,1,0,0:0:0:0:
256,128,58477,1,8,0:0:0:0:
256,128,58724,1,0,0:0:0:0:
256,128,59094,1,8,0:0:0:0:
256,128,59341,1,0,0:0:0:0:
256,128,59712,1,8,0:0:0:0:
256,128,59959,1,0,0:0:0:0:
256,128,60082,1,8,0:0:0:0:
256,128,60453,1,0,0:0:0:0:
256,128,60699,1,8,0:0:0:0:
256,128,60946,1,0,0:0:0:0:
256,128,61193,1,8,0:0:0:0:
256,128,61317,1,8,0:0:0:0:
256,128,61440,1,0,0:0:0:0:
256,128,61687,1,8,0:0:0:0:
256,128,61934,1,0,0:0:0:0:
256,128,62181,1,8,0:0:0:0:
256,128,62304,1,0,0:0:0:0:
256,128,62428,1,8,0:0:0:0:
256,128,62675,1,0,0:0:0:0:
256,128,62922,1,0,0:0:0:0:
242,112,63169,1,8,0:0:0:0:
256,128,63662,1,4,0:0:0:0:
256,128,64403,1,8,0:0:0:0:
256,128,64650,1,0,0:0:0:0:
256,128,64897,1,8,0:0:0:0:
256,128,65020,1,0,0:0:0:0:
256,128,65267,1,0,0:0:0:0:
256,128,65391,1,8,0:0:0:0:
256,128,65638,1,0,0:0:0:0:
256,128,66255,1,8,0:0:0:0:
256,128,66378,1,8,0:0:0:0:
256,128,66625,1,0,0:0:0:0:
256,128,66996,1,8,0:0:0:0:
256,128,67243,1,0,0:0:0:0:
256,128,67613,1,8,0:0:0:0:
256,128,67860,1,0,0:0:0:0:
256,128,67983,1,8,0:0:0:0:
256,128,68354,1,0,0:0:0:0:
256,128,68601,1,8,0:0:0:0:
256,128,68848,1,0,0:0:0:0:
256,128,69094,1,0,0:0:0:0:
256,128,69218,1,0,0:0:0:0:
256,128,69341,1,8,0:0:0:0:
256,128,69588,1,0,0:0:0:0:
256,128,69835,1,8,0:0:0:0:
256,128,70082,1,8,0:0:0:0:
256,128,70206,1,0,0:0:0:0:
256,128,70329,1,8,0:0:0:0:
256,128,70576,1,0,0:0:0:0:
154,30,70823,1,0,0:0:0:0:
256,128,71070,1,8,0:0:0:0:
256,128,71564,1,0,0:0:0:0:
256,128,71811,1,8,0:0:0:0:
256,128,71934,1,0,0:0:0:0:
256,128,72304,1,8,0:0:0:0:
256,128,72551,1,0,0:0:0:0:
256,128,72675,1,8,0:0:0:0:
256,128,72798,1,8,0:0:0:0:
269,125,72922,1,8,0:0:0:0:
256,128,73045,1,0,0:0:0:0:
256,128,73292,1,8,0:0:0:0:
256,128,73539,1,0,0:0:0:0:
256,128,74280,1,8,0:0:0:0:
288,96,74527,1,0,0:0:0:0:
288,96,74773,1,8,0:0:0:0:
288,96,75020,1,8,0:0:0:0:
288,96,75144,1,0,0:0:0:0:
288,96,75267,1,8,0:0:0:0:
288,96,75514,1,0,0:0:0:0:
288,96,75761,1,8,0:0:0:0:
288,96,75885,1,0,0:0:0:0:
288,96,76255,1,0,0:0:0:0:
288,96,76502,1,8,0:0:0:0:
288,96,76872,1,8,0:0:0:0:
288,96,76996,1,0,0:0:0:0:
291,103,77119,1,0,0:0:0:0:
288,96,77243,1,8,0:0:0:0:
288,96,77490,1,0,0:0:0:0:
288,96,77860,1,0,0:0:0:0:
288,96,77983,1,8,0:0:0:0:
288,96,78230,1,0,0:0:0:0:
288,96,78477,1,8,0:0:0:0:
288,96,78724,1,0,0:0:0:0:
288,96,78971,1,8,0:0:0:0:
256,128,79465,1,0,0:0:0:0:
256,128,79712,1,8,0:0:0:0:
256,128,79835,1,0,0:0:0:0:
256,128,80206,1,8,0:0:0:0:
256,128,80453,1,0,0:0:0:0:
256,128,80576,1,8,0:0:0:0:
256,128,80699,1,8,0:0:0:0:
225,92,80823,1,8,0:0:0:0:
256,128,80946,1,0,0:0:0:0:
256,128,81193,1,8,0:0:0:0:
256,128,81440,1,0,0:0:0:0:
256,128,82181,1,8,0:0:0:0:
288,96,82428,1,0,0:0:0:0:
288,96,82675,1,8,0:0:0:0:
288,96,82922,1,8,0:0:0:0:
288,96,83045,1,0,0:0:0:0:
288,96,83169,1,8,0:0:0:0:
288,96,83415,1,0,0:0:0:0:
288,96,83662,1,8,0:0:0:0:
288,96,83786,1,0,0:0:0:0:
288,96,84156,1,0,0:0:0:0:
288,96,84403,1,8,0:0:0:0:
288,96,84773,1,8,0:0:0:0:
288,96,84897,1,0,0:0:0:0:
179,125,85020,1,0,0:0:0:0:
288,96,85144,1,8,0:0:0:0:
288,96,85391,1,0,0:0:0:0:
288,96,85761,1,0,0:0:0:0:
288,96,85885,1,8,0:0:0:0:
288,96,86132,1,0,0:0:0:0:
288,96,86378,1,8,0:0:0:0:
288,96,86625,1,8,0:0:0:0:
288,96,86872,1,8,0:0:0:0:
288,96,87119,1,8,0:0:0:0:
288,160,88354,1,4,0:0:0:0:
256,96,88848,1,0,0:0:0:0:
256,96,89341,1,8,0:0:0:0:
226,123,89465,1,0,0:0:0:0:
256,96,89712,1,8,0:0:0:0:
256,96,90329,1,0,0:0:0:0:
256,96,90823,1,8,0:0:0:0:
256,96,91317,1,0,0:0:0:0:
256,96,91564,1,8,0:0:0:0:
256,96,91811,1,0,0:0:0:0:
256,96,92304,1,0,0:0:0:0:
256,96,92798,1,8,0:0:0:0:
256,96,93292,1,0,0:0:0:0:
256,96,93662,1,8,0:0:0:0:
256,96,93909,1,8,0:0:0:0:
256,96,94280,1,0,0:0:0:0:
256,96,94773,1,8,0:0:0:0:
256,96,95020,1,8,0:0:0:0:
256,96,95267,1,0,0:0:0:0:
256,96,95761,1,8,0:0:0:0:
288,160,96255,1,4,0:0:0:0:
256,96,96749,1,8,0:0:0:0:
256,96,97243,1,8,0:0:0:0:
288,128,97490,1,0,0:0:0:0:
256,96,97736,1,8,0:0:0:0:
256,96,98230,1,0,0:0:0:0:
256,96,98724,1,8,0:0:0:0:
256,96,98971,1,8,0:0:0:0:
256,96,99218,1,0,0:0:0:0:
256,96,99465,1,0,0:0:0:0:
256,96,99712,1,8,0:0:0:0:
256,96,100206,1,0,0:0:0:0:
256,96,100699,1,8,0:0:0:0:
256,96,101193,1,8,0:0:0:0:
256,96,101440,1,0,0:0:0:0:
256,96,101687,1,8,0:0:0:0:
256,96,102181,1,0,0:0:0:0:
256,96,102675,1,8,0:0:0:0:
256,96,102922,1,8,0:0:0:0:
256,96,103169,1,0,0:0:0:0:
256,96,104156,1,4,0:0:0:0:
256,192,105144,1,8,0:0:0:0:
288,160,105885,1,0,0:0:0:0:
288,160,106132,1,0,0:0:0:0:
288,160,106872,1,0,0:0:0:0:
288,160,107119,1,8,0:0:0:0:
288,160,108107,1,0,0:0:0:0:
288,160,108354,1,8,0:0:0:0:
288,160,108601,1,8,0:0:0:0:
288,160,108724,1,0,0:0:0:0:
288,160,108848,1,8,0:0:0:0:
288,160,109094,1,8,0:0:0:0:
288,160,109341,1,0,0:0:0:0:
288,160,109588,1,8,0:0:0:0:
288,160,109712,1,8,0:0:0:0:
288,160,109835,1,8,0:0:0:0:
288,160,110082,1,0,0:0:0:0:
288,160,110329,1,8,0:0:0:0:
288,160,110576,1,8,0:0:0:0:
288,160,110699,1,8,0:0:0:0:
288,160,110823,1,8,0:0:0:0:
288,160,110946,1,8,0:0:0:0:
288,160,111070,1,0,0:0:0:0:
256,192,112057,5,0,0:0:0:0:
256,192,112797,1,0,0:0:0:0:
256,192,113044,1,8,0:0:0:0:
256,192,113291,1,8,0:0:0:0:
256,192,113538,1,0,0:0:0:0:
256,192,114032,1,0,0:0:0:0:
256,192,114279,1,8,0:0:0:0:
256,192,114773,1,8,0:0:0:0:
256,192,115019,1,0,0:0:0:0:
256,192,115760,1,8,0:0:0:0:
256,192,116501,1,0,0:0:0:0:
256,192,117242,1,0,0:0:0:0:
256,192,117736,1,0,0:0:0:0:
256,192,117982,1,8,0:0:0:0:
256,192,118723,1,8,0:0:0:0:
256,192,119217,1,8,0:0:0:0:
256,192,119464,1,8,0:0:0:0:
256,192,120205,1,8,0:0:0:0:
256,192,120452,1,0,0:0:0:0:
224,128,120945,1,0,0:0:0:0:
288,64,121587,1,0,0:0:0:0:
288,64,121987,1,8,0:0:0:0:
288,64,122467,1,0,0:0:0:0:
288,64,123067,1,0,0:0:0:0:
256,192,123877,12,0,125189,0:0:0:0:
256,192,125377,5,0,0:0:0:0:
256,128,127104,1,4,0:0:0:0:
256,128,127844,1,8,0:0:0:0:
256,128,128091,1,0,0:0:0:0:
256,128,128338,1,8,0:0:0:0:
256,128,128462,1,8,0:0:0:0:
256,128,128708,1,0,0:0:0:0:
256,128,128832,1,8,0:0:0:0:
256,128,129079,1,0,0:0:0:0:
256,128,129696,1,0,0:0:0:0:
256,128,129820,1,8,0:0:0:0:
256,128,130066,1,0,0:0:0:0:
256,128,130437,1,8,0:0:0:0:
256,128,130684,1,0,0:0:0:0:
256,128,131054,1,8,0:0:0:0:
256,128,131301,1,0,0:0:0:0:
256,128,131424,1,8,0:0:0:0:
256,128,131795,1,0,0:0:0:0:
256,128,132042,1,8,0:0:0:0:
256,128,132289,1,0,0:0:0:0:
256,128,132536,1,8,0:0:0:0:
256,128,132659,1,8,0:0:0:0:
256,128,132783,1,0,0:0:0:0:
256,128,133029,1,8,0:0:0:0:
256,128,133276,1,0,0:0:0:0:
256,128,133523,1,8,0:0:0:0:
256,128,133647,1,8,0:0:0:0:
256,128,133770,1,8,0:0:0:0:
256,128,134017,1,0,0:0:0:0:
256,128,134264,1,0,0:0:0:0:
242,112,134511,1,8,0:0:0:0:
256,128,135005,1,4,0:0:0:0:
256,128,135745,1,8,0:0:0:0:
256,128,135992,1,0,0:0:0:0:
256,128,136239,1,8,0:0:0:0:
256,128,136363,1,8,0:0:0:0:
256,128,136610,1,0,0:0:0:0:
256,128,136733,1,8,0:0:0:0:
256,128,136980,1,0,0:0:0:0:
256,128,137597,1,8,0:0:0:0:
256,128,137721,1,8,0:0:0:0:
256,128,137968,1,0,0:0:0:0:
256,128,138338,1,8,0:0:0:0:
256,128,138585,1,0,0:0:0:0:
256,128,138955,1,8,0:0:0:0:
256,128,139202,1,0,0:0:0:0:
256,128,139326,1,8,0:0:0:0:
256,128,139696,1,0,0:0:0:0:
256,128,139943,1,8,0:0:0:0:
256,128,140190,1,0,0:0:0:0:
256,128,140437,1,0,0:0:0:0:
256,128,140560,1,0,0:0:0:0:
256,128,140684,1,8,0:0:0:0:
256,128,140931,1,0,0:0:0:0:
256,128,141178,1,8,0:0:0:0:
256,128,141424,1,8,0:0:0:0:
256,128,141548,1,8,0:0:0:0:
256,128,141671,1,8,0:0:0:0:
256,128,141918,1,0,0:0:0:0:
256,128,142165,1,0,0:0:0:0:
256,128,142412,1,8,0:0:0:0:
256,128,142906,1,0,0:0:0:0:
256,128,143153,1,8,0:0:0:0:
256,128,143276,1,0,0:0:0:0:
256,128,143647,1,8,0:0:0:0:
256,128,143894,1,8,0:0:0:0:
256,128,144017,1,8,0:0:0:0:
256,128,144141,1,8,0:0:0:0:
170,77,144264,1,8,0:0:0:0:
256,128,144387,1,0,0:0:0:0:
256,128,144634,1,8,0:0:0:0:
256,128,144881,1,0,0:0:0:0:
256,128,145622,1,8,0:0:0:0:
288,96,145869,1,0,0:0:0:0:
288,96,146116,1,8,0:0:0:0:
288,96,146363,1,8,0:0:0:0:
288,96,146486,1,0,0:0:0:0:
288,96,146610,1,8,0:0:0:0:
288,96,146857,1,0,0:0:0:0:
288,96,147104,1,8,0:0:0:0:
288,96,147227,1,0,0:0:0:0:
288,96,147597,1,0,0:0:0:0:
288,96,147844,1,8,0:0:0:0:
288,96,148215,1,8,0:0:0:0:
288,96,148338,1,8,0:0:0:0:
133,68,148462,1,0,0:0:0:0:
288,96,148585,1,8,0:0:0:0:
288,96,148832,1,0,0:0:0:0:
288,96,149202,1,8,0:0:0:0:
288,96,149326,1,8,0:0:0:0:
288,96,149573,1,0,0:0:0:0:
288,96,149820,1,8,0:0:0:0:
288,96,150066,1,0,0:0:0:0:
288,96,150313,1,8,0:0:0:0:
256,128,150807,1,0,0:0:0:0:
256,128,151054,1,8,0:0:0:0:
256,128,151178,1,0,0:0:0:0:
256,128,151548,1,8,0:0:0:0:
256,128,151795,1,8,0:0:0:0:
256,128,151918,1,8,0:0:0:0:
256,128,152042,1,8,0:0:0:0:
133,81,152165,1,8,0:0:0:0:
256,128,152289,1,0,0:0:0:0:
256,128,152536,1,8,0:0:0:0:
256,128,152783,1,0,0:0:0:0:
256,128,153523,1,8,0:0:0:0:
288,96,153770,1,0,0:0:0:0:
288,96,154017,1,8,0:0:0:0:
288,96,154264,1,8,0:0:0:0:
288,96,154387,1,0,0:0:0:0:
288,96,154511,1,8,0:0:0:0:
288,96,154758,1,0,0:0:0:0:
288,96,155005,1,8,0:0:0:0:
288,96,155128,1,0,0:0:0:0:
288,96,155499,1,0,0:0:0:0:
288,96,155745,1,8,0:0:0:0:
288,96,156116,1,8,0:0:0:0:
288,96,156239,1,8,0:0:0:0:
96,93,156363,1,0,0:0:0:0:
288,96,156486,1,8,0:0:0:0:
288,96,156733,1,0,0:0:0:0:
288,96,157104,1,8,0:0:0:0:
288,96,157227,1,8,0:0:0:0:
288,96,157474,1,0,0:0:0:0:
288,96,157721,1,8,0:0:0:0:
288,96,157968,1,8,0:0:0:0:
288,96,158215,1,8,0:0:0:0:
288,96,158462,1,8,0:0:0:0:
288,160,159696,5,4,0:0:0:0:
