osu file format v14

[General]
AudioFilename: audio.ogg
AudioLeadIn: 0
PreviewTime: 55020
Countdown: 0
SampleSet: Normal
StackLeniency: 0.7
Mode: 1
LetterboxInBreaks: 0
WidescreenStoryboard: 0

[Editor]
Bookmarks: 443,8344,16245,24146,32047,39949,47850,55751,63652,71554,79455,88344,96245,104146,112047,120945,127091,134993,142894,150795
DistanceSpacing: 0.1
BeatDivisor: 4
GridSize: 32
TimelineZoom: 2.200002

[Metadata]
Title:AAAA Chazuke Gang
TitleUnicode:ああああ茶漬けギャング
Artist:Kuki Akumu
ArtistUnicode:茎悪夢
Creator:gaston_2199
Version:Crazy Oni
Source:
Tags:pm04034 electronic instrumental chiptune 8-bit 8bit retro pixel miyoi reficul midnaait kyex trollocat
BeatmapID:3211585
BeatmapSetID:1572917

[Difficulty]
HPDrainRate:6
CircleSize:2
OverallDifficulty:7.2
ApproachRate:10
SliderMultiplier:1.4
SliderTickRate:1

[Events]
//Background and Video events
0,0,"BG.jpg",0,0
//Break Periods
//Storyboard Layer 0 (Background)
//Storyboard Layer 1 (Fail)
//Storyboard Layer 2 (Pass)
//Storyboard Layer 3 (Foreground)
//Storyboard Layer 4 (Overlay)
//Storyboard Sound Samples

[TimingPoints]
453,246.913580246914,4,1,0,70,1,0
453,-125,4,1,0,70,0,0
8349,-111.111111111111,4,1,0,70,0,0
16250,-125,4,1,0,60,0,0
24151,-111.111111111111,4,1,0,80,0,0
31312,-117.647058823529,4,1,0,40,0,0
31559,-125,4,1,0,20,0,0
31806,-133.333333333333,4,1,0,5,0,0
32052,-125,4,1,0,70,0,0
39954,-111.111111111111,4,1,0,80,0,0
47114,-117.647058823529,4,1,0,40,0,0
47361,-125,4,1,0,20,0,0
47608,-133.333333333333,4,1,0,5,0,0
47855,-142.857142857143,4,1,0,70,0,0
51801,-111.111111111111,4,1,0,80,0,0
51929,-110.599037567175,4,1,0,80,0,0
51991,-110.344827586207,4,1,0,80,0,0
52052,-110.091783519921,4,1,0,80,0,0
52176,-109.58904109589,4,1,0,80,0,0
52299,-109.090869421502,4,1,0,80,0,0
52423,-108.597324379122,4,1,0,80,0,0
52485,-108.352105335583,4,1,0,80,0,0
52546,-108.108108108108,4,1,0,80,0,0
52608,-107.865207322322,4,1,0,80,0,0
52670,-107.623279776402,4,1,0,80,0,0
52731,-107.38255033557,4,1,0,80,0,0
52793,-107.142895408177,4,1,0,80,0,0
52917,-106.666666666667,4,1,0,80,0,0
52978,-106.430192968583,4,1,0,80,0,0
53040,-106.194652674459,4,1,0,80,0,0
53164,-105.726909507281,4,1,0,80,0,0
53287,-105.263157894737,4,1,0,80,0,0
53410,-104.80345683722,4,1,0,80,0,0
53472,-104.575163398693,4,1,0,80,0,0
53534,-104.347862381865,4,1,0,80,0,0
53596,-104.121438916637,4,1,0,80,0,0
53657,-103.896103896104,4,1,0,80,0,0
53719,-103.671742089587,4,1,0,80,0,0
53781,-103.448240190262,4,1,0,80,0,0
53904,-103.004327211786,4,1,0,80,0,0
53945,-102.857166367352,4,1,0,80,0,0
53987,-102.710425416311,4,1,0,80,0,0
54028,-102.564102564103,4,1,0,80,0,0
54151,-102.127624807617,4,1,0,80,0,0
54213,-101.910828025478,4,1,0,80,0,0
54275,-101.694949727102,4,1,0,80,0,0
54398,-101.26582278481,4,1,0,80,0,0
54439,-101.123584143418,4,1,0,80,0,0
54480,-100.981744520226,4,1,0,80,0,0
54522,-100.840302238554,4,1,0,80,0,0
54645,-100.418443654709,4,1,0,80,0,0
54707,-100.208734794577,4,1,0,80,0,0
54768,-100,4,1,0,80,0,0
55761,-100,4,1,0,90,0,1
71317,-100,4,1,0,80,0,0
71564,-100,4,1,0,90,0,1
87119,-100,4,1,0,80,0,0
87361,-106.666666666667,4,1,0,61,0,0
87608,-114.285714285714,4,1,0,42,0,0
87855,-123.076923076923,4,1,0,24,0,0
88102,-133.333333333333,4,1,0,5,0,0
88349,-125,4,1,0,70,0,0
96250,-111.111111111111,4,1,0,80,0,0
103410,-117.647058823529,4,1,0,40,0,0
103657,-125,4,1,0,20,0,0
103904,-133.333333333333,4,1,0,5,0,0
104151,-142.857142857143,4,1,0,70,0,0
108102,-111.111111111111,4,1,0,80,0,0
108225,-110.599037567175,4,1,0,80,0,0
108287,-110.344827586207,4,1,0,80,0,0
108348,-110.091783519921,4,1,0,80,0,0
108472,-109.58904109589,4,1,0,80,0,0
108595,-109.090869421502,4,1,0,80,0,0
108719,-108.597324379122,4,1,0,80,0,0
108781,-108.352105335583,4,1,0,80,0,0
108842,-108.108108108108,4,1,0,80,0,0
108904,-107.865207322322,4,1,0,80,0,0
108966,-107.623279776402,4,1,0,80,0,0
109027,-107.38255033557,4,1,0,80,0,0
109089,-107.142895408177,4,1,0,80,0,0
109213,-106.666666666667,4,1,0,80,0,0
109274,-106.430192968583,4,1,0,80,0,0
109336,-106.194652674459,4,1,0,80,0,0
109460,-105.726909507281,4,1,0,80,0,0
109583,-105.263157894737,4,1,0,80,0,0
109706,-104.80345683722,4,1,0,80,0,0
109768,-104.575163398693,4,1,0,80,0,0
109830,-104.347862381865,4,1,0,80,0,0
109892,-104.121438916637,4,1,0,80,0,0
109953,-103.896103896104,4,1,0,80,0,0
110015,-103.671742089587,4,1,0,80,0,0
110077,-103.448240190262,4,1,0,80,0,0
110200,-103.004327211786,4,1,0,80,0,0
110241,-102.857166367352,4,1,0,80,0,0
110283,-102.710425416311,4,1,0,80,0,0
110324,-102.564102564103,4,1,0,80,0,0
110447,-102.127624807617,4,1,0,80,0,0
110509,-101.910828025478,4,1,0,80,0,0
110571,-101.694949727102,4,1,0,80,0,0
110694,-101.26582278481,4,1,0,80,0,0
110735,-101.123584143418,4,1,0,80,0,0
110776,-100.981744520226,4,1,0,80,0,0
110818,-100.840302238554,4,1,0,80,0,0
110941,-100.418443654709,4,1,0,80,0,0
111003,-100.208734794577,4,1,0,80,0,0
111064,-100,4,1,0,80,0,0
112057,246.913580246914,3,1,0,60,1,0
112057,-133.333333333333,3,1,0,60,0,0
120945,300,3,1,0,60,1,0
120945,-109.739368998628,3,1,0,60,0,0
121245,342.857142857143,3,1,0,60,1,8
121245,-98.7449812985623,3,1,0,60,0,8
121327,-99.5563748963074,3,1,0,60,0,8
121413,-100.396670599328,3,1,0,60,0,8
121587,400,3,1,0,60,1,8
121587,-87.5390474914395,3,1,0,60,0,8
121987,480,3,1,0,60,1,0
121987,-76.1012916835706,3,1,0,60,0,0
122467,600,3,1,0,60,1,8
122467,-64.3826666655345,3,1,0,60,0,8
123067,810.810810810811,3,1,0,60,1,8
123067,-51.6733918698541,3,1,0,60,0,8
123877,1500,3,1,0,60,1,0
123877,-32.9218106995885,3,1,0,60,0,0
125377,246.913580246914,4,1,0,80,1,8
126354,246.913580246914,4,1,0,80,1,8
126354,-111.111111111111,4,1,0,80,0,0
127104,246.913580246914,4,1,0,90,1,1
142659,-100,4,1,0,80,0,0
142906,-100,4,1,0,90,0,1
158462,-100,4,1,0,80,0,0
158703,-106.666666666667,4,1,0,61,0,0
158950,-114.285714285714,4,1,0,42,0,0
159197,-123.076923076923,4,1,0,24,0,0
159444,-133.333333333333,4,1,0,5,0,0
159691,-66.6666666666667,4,1,0,80,0,0

[HitObjects]
256,192,453,5,0,0:0:0:0:
256,192,2428,1,0,0:0:0:0:
256,192,4403,1,8,0:0:0:0:
256,192,6378,1,8,0:0:0:0:
256,192,8354,1,0,0:0:0:0:
256,192,8477,1,8,0:0:0:0:
256,192,8724,1,0,0:0:0:0:
256,192,8848,1,0,0:0:0:0:
256,192,8971,1,8,0:0:0:0:
256,192,9218,1,8,0:0:0:0:
256,192,9341,1,0,0:0:0:0:
256,192,9465,1,8,0:0:0:0:
256,192,9712,1,0,0:0:0:0:
256,192,9835,1,0,0:0:0:0:
256,192,9959,1,8,0:0:0:0:
256,192,10206,1,8,0:0:0:0:
256,192,10329,1,0,0:0:0:0:
256,192,10453,1,8,0:0:0:0:
256,192,10699,1,0,0:0:0:0:
256,192,10823,1,0,0:0:0:0:
256,192,10946,1,8,0:0:0:0:
256,192,11193,1,8,0:0:0:0:
256,192,11317,1,0,0:0:0:0:
256,192,11440,1,8,0:0:0:0:
256,192,11687,1,0,0:0:0:0:
256,192,11811,1,0,0:0:0:0:
256,192,11934,1,8,0:0:0:0:
256,192,12181,1,8,0:0:0:0:
256,192,12304,1,8,0:0:0:0:
256,192,12428,1,8,0:0:0:0:
256,192,12675,1,0,0:0:0:0:
256,192,12798,1,0,0:0:0:0:
256,192,12922,1,8,0:0:0:0:
256,192,13169,1,8,0:0:0:0:
256,192,13292,1,0,0:0:0:0:
256,192,13415,1,8,0:0:0:0:
256,192,13662,1,0,0:0:0:0:
256,192,13786,1,0,0:0:0:0:
256,192,13909,1,8,0:0:0:0:
256,192,14156,1,8,0:0:0:0:
256,192,14280,1,8,0:0:0:0:
256,192,14403,1,8,0:0:0:0:
256,192,14650,1,0,0:0:0:0:
256,192,14773,1,0,0:0:0:0:
256,192,14897,1,8,0:0:0:0:
256,192,15144,1,8,0:0:0:0:
256,192,15267,1,0,0:0:0:0:
256,192,16255,1,0,0:0:0:0:
256,192,16502,1,8,0:0:0:0:
256,192,16625,1,0,0:0:0:0:
256,192,16872,1,0,0:0:0:0:
256,192,16996,1,8,0:0:0:0:
256,192,17119,1,8,0:0:0:0:
256,192,17243,1,0,0:0:0:0:
256,192,17366,1,0,0:0:0:0:
256,192,17490,1,8,0:0:0:0:
256,192,17613,1,0,0:0:0:0:
256,192,17860,1,0,0:0:0:0:
256,192,17983,1,8,0:0:0:0:
256,192,18107,1,8,0:0:0:0:
256,192,18230,1,0,0:0:0:0:
256,192,18477,1,8,0:0:0:0:
256,192,18848,1,8,0:0:0:0:
256,192,18971,1,8,0:0:0:0:
256,192,19094,1,0,0:0:0:0:
256,192,19218,1,8,0:0:0:0:
256,192,19465,1,8,0:0:0:0:
256,192,19588,1,0,0:0:0:0:
256,192,19835,1,8,0:0:0:0:
256,192,20082,1,0,0:0:0:0:
256,192,20206,1,8,0:0:0:0:
256,192,20329,1,0,0:0:0:0:
256,192,20453,1,8,0:0:0:0:
256,192,20576,1,8,0:0:0:0:
256,192,20699,1,0,0:0:0:0:
256,192,20823,1,8,0:0:0:0:
256,192,20946,1,0,0:0:0:0:
256,192,21193,1,8,0:0:0:0:
256,192,21317,1,0,0:0:0:0:
256,192,21440,1,8,0:0:0:0:
256,192,21564,1,0,0:0:0:0:
256,192,21687,1,0,0:0:0:0:
256,192,21811,1,0,0:0:0:0:
256,192,21934,1,8,0:0:0:0:
256,192,22057,1,8,0:0:0:0:
256,192,22181,1,0,0:0:0:0:
256,192,22428,1,0,0:0:0:0:
256,192,22551,1,0,0:0:0:0:
256,192,22675,1,8,0:0:0:0:
256,192,22798,1,0,0:0:0:0:
256,192,22922,1,8,0:0:0:0:
256,192,23045,1,8,0:0:0:0:
256,192,23169,1,0,0:0:0:0:
256,192,23415,1,8,0:0:0:0:
256,192,23662,1,8,0:0:0:0:
256,192,23786,1,0,0:0:0:0:
256,192,23909,1,8,0:0:0:0:
256,192,24156,1,4,0:0:0:0:
256,192,24403,1,8,0:0:0:0:
256,192,24527,1,0,0:0:0:0:
256,192,24773,1,0,0:0:0:0:
256,192,24897,1,8,0:0:0:0:
256,192,25020,1,8,0:0:0:0:
256,192,25144,1,0,0:0:0:0:
256,192,25206,1,8,0:0:0:0:
256,192,25267,1,0,0:0:0:0:
256,192,25391,1,8,0:0:0:0:
256,192,25514,1,0,0:0:0:0:
256,192,25761,1,0,0:0:0:0:
256,192,25885,1,8,0:0:0:0:
256,192,26008,1,8,0:0:0:0:
256,192,26132,1,0,0:0:0:0:
256,192,26255,1,0,0:0:0:0:
256,192,26378,1,8,0:0:0:0:
256,192,26502,1,0,0:0:0:0:
256,192,26749,1,8,0:0:0:0:
256,192,26872,1,8,0:0:0:0:
256,192,26996,1,0,0:0:0:0:
256,192,27119,1,8,0:0:0:0:
256,192,27243,1,0,0:0:0:0:
256,192,27366,1,8,0:0:0:0:
256,192,27490,1,0,0:0:0:0:
256,192,27736,1,8,0:0:0:0:
256,192,27983,1,0,0:0:0:0:
256,192,28107,1,8,0:0:0:0:
256,192,28230,1,0,0:0:0:0:
256,192,28292,1,0,0:0:0:0:
256,192,28354,1,8,0:0:0:0:
256,192,28477,1,8,0:0:0:0:
256,192,28601,1,0,0:0:0:0:
256,192,28662,1,0,0:0:0:0:
256,192,28724,1,8,0:0:0:0:
256,192,28848,1,8,0:0:0:0:
256,192,28971,1,0,0:0:0:0:
256,192,29094,1,8,0:0:0:0:
256,192,29218,1,0,0:0:0:0:
256,192,29280,1,0,0:0:0:0:
256,192,29341,1,8,0:0:0:0:
256,192,29465,1,0,0:0:0:0:
256,192,29527,1,8,0:0:0:0:
256,192,29588,1,0,0:0:0:0:
256,192,29712,1,0,0:0:0:0:
256,192,29835,1,8,0:0:0:0:
256,192,29959,1,8,0:0:0:0:
256,192,30082,1,0,0:0:0:0:
256,192,30206,1,0,0:0:0:0:
256,192,30267,1,0,0:0:0:0:
256,192,30329,1,8,0:0:0:0:
256,192,30453,1,0,0:0:0:0:
256,192,30576,1,8,0:0:0:0:
256,192,30699,1,0,0:0:0:0:
256,192,30823,1,8,0:0:0:0:
256,192,30946,1,8,0:0:0:0:
256,192,31070,1,0,0:0:0:0:
256,192,31317,1,8,0:0:0:0:
256,192,31564,1,8,0:0:0:0:
256,192,31811,1,8,0:0:0:0:
288,160,32057,1,4,0:0:0:0:
256,96,32304,1,8,0:0:0:0:
256,96,32551,1,0,0:0:0:0:
256,96,32922,1,0,0:0:0:0:
256,96,33045,1,8,0:0:0:0:
256,96,33169,1,0,0:0:0:0:
256,96,33415,1,8,0:0:0:0:
256,96,33662,1,8,0:0:0:0:
256,96,33909,1,0,0:0:0:0:
256,96,34033,1,0,0:0:0:0:
256,96,34280,1,8,0:0:0:0:
256,96,34527,1,8,0:0:0:0:
256,96,34773,1,0,0:0:0:0:
256,96,35020,1,8,0:0:0:0:
256,96,35267,1,0,0:0:0:0:
256,96,35514,1,8,0:0:0:0:
256,96,35638,1,0,0:0:0:0:
256,96,35761,1,8,0:0:0:0:
256,96,35885,1,8,0:0:0:0:
256,96,36008,1,0,0:0:0:0:
256,96,36255,1,8,0:0:0:0:
256,96,36502,1,0,0:0:0:0:
256,96,36749,1,8,0:0:0:0:
256,96,36996,1,8,0:0:0:0:
256,96,37243,1,0,0:0:0:0:
256,96,37366,1,8,0:0:0:0:
256,96,37613,1,8,0:0:0:0:
256,96,37860,1,8,0:0:0:0:
256,96,37983,1,0,0:0:0:0:
256,96,38230,1,8,0:0:0:0:
256,96,38477,1,0,0:0:0:0:
256,96,38724,1,0,0:0:0:0:
256,96,38848,1,8,0:0:0:0:
256,96,38971,1,0,0:0:0:0:
256,96,39218,1,0,0:0:0:0:
256,96,39465,1,8,0:0:0:0:
256,96,39712,1,8,0:0:0:0:
288,160,39959,1,4,0:0:0:0:
256,96,40206,1,8,0:0:0:0:
256,96,40453,1,0,0:0:0:0:
288,128,40699,1,8,0:0:0:0:
256,32,40823,1,8,0:0:0:0:
256,96,40946,1,0,0:0:0:0:
288,128,41193,1,8,0:0:0:0:
288,128,41317,1,0,0:0:0:0:
256,96,41440,1,8,0:0:0:0:
256,96,41564,1,0,0:0:0:0:
256,96,41687,1,8,0:0:0:0:
256,96,41934,1,0,0:0:0:0:
256,96,42181,1,8,0:0:0:0:
256,96,42428,1,0,0:0:0:0:
256,96,42551,1,0,0:0:0:0:
256,96,42675,1,8,0:0:0:0:
256,96,42922,1,0,0:0:0:0:
256,96,43169,1,8,0:0:0:0:
256,96,43415,1,8,0:0:0:0:
256,96,43539,1,0,0:0:0:0:
256,96,43662,1,8,0:0:0:0:
256,96,43786,1,8,0:0:0:0:
256,96,43909,1,0,0:0:0:0:
256,96,44156,1,8,0:0:0:0:
256,96,44403,1,0,0:0:0:0:
256,96,44650,1,8,0:0:0:0:
224,64,44773,1,8,0:0:0:0:
256,96,44897,1,0,0:0:0:0:
256,96,45144,1,8,0:0:0:0:
256,96,45267,1,0,0:0:0:0:
256,96,45391,1,8,0:0:0:0:
256,96,45514,1,0,0:0:0:0:
256,96,45638,1,8,0:0:0:0:
256,96,45885,1,0,0:0:0:0:
256,96,46132,1,8,0:0:0:0:
256,96,46378,1,0,0:0:0:0:
256,96,46502,1,0,0:0:0:0:
256,96,46625,1,8,0:0:0:0:
256,96,46872,1,0,0:0:0:0:
256,96,47119,1,0,0:0:0:0:
256,96,47366,1,0,0:0:0:0:
256,96,47613,1,0,0:0:0:0:
256,96,47860,1,12,0:0:0:0:
256,192,48601,1,0,0:0:0:0:
256,192,48848,1,8,0:0:0:0:
288,160,49588,1,0,0:0:0:0:
288,160,49835,1,0,0:0:0:0:
288,160,50206,1,0,0:0:0:0:
288,160,50576,1,0,0:0:0:0:
288,160,50823,1,8,0:0:0:0:
288,160,51564,1,8,0:0:0:0:
288,160,51811,1,8,0:0:0:0:
288,160,51934,1,0,0:0:0:0:
288,160,51996,1,0,0:0:0:0:
288,160,52057,1,8,0:0:0:0:
288,160,52181,1,0,0:0:0:0:
288,160,52304,1,8,0:0:0:0:
288,160,52428,1,0,0:0:0:0:
288,160,52490,1,0,0:0:0:0:
288,160,52551,1,8,0:0:0:0:
288,160,52613,1,8,0:0:0:0:
288,160,52675,1,0,0:0:0:0:
288,160,52736,1,0,0:0:0:0:
288,160,52798,1,8,0:0:0:0:
288,160,52922,1,0,0:0:0:0:
288,160,52983,1,0,0:0:0:0:
288,160,53045,1,8,0:0:0:0:
288,160,53169,1,0,0:0:0:0:
288,160,53292,1,8,0:0:0:0:
288,160,53415,1,0,0:0:0:0:
288,160,53477,1,0,0:0:0:0:
288,160,53539,1,8,0:0:0:0:
288,160,53601,1,8,0:0:0:0:
288,160,53662,1,0,0:0:0:0:
288,160,53724,1,0,0:0:0:0:
288,160,53786,1,8,0:0:0:0:
288,160,53909,1,0,0:0:0:0:
320,128,53950,1,0,0:0:0:0:
288,160,53992,1,0,0:0:0:0:
288,160,54033,1,8,0:0:0:0:
288,160,54156,1,0,0:0:0:0:
288,160,54218,1,0,0:0:0:0:
288,160,54280,1,8,0:0:0:0:
288,160,54403,1,8,0:0:0:0:
288,64,54444,1,0,0:0:0:0:
288,160,54485,1,0,0:0:0:0:
288,160,54527,1,8,0:0:0:0:
288,160,54650,1,0,0:0:0:0:
288,160,54712,1,0,0:0:0:0:
288,160,54773,1,8,0:0:0:0:
256,128,55761,1,4,0:0:0:0:
256,128,55885,1,0,0:0:0:0:
256,128,55946,1,0,0:0:0:0:
256,128,56008,1,8,0:0:0:0:
256,128,56132,1,0,0:0:0:0:
256,128,56193,1,0,0:0:0:0:
256,128,56255,1,0,0:0:0:0:
256,128,56378,1,0,0:0:0:0:
256,128,56502,1,8,0:0:0:0:
256,128,56625,1,8,0:0:0:0:
256,128,56749,1,0,0:0:0:0:
256,128,56811,1,8,0:0:0:0:
256,128,56872,1,0,0:0:0:0:
256,128,56934,1,0,0:0:0:0:
256,128,56996,1,8,0:0:0:0:
256,128,57119,1,8,0:0:0:0:
256,128,57243,1,0,0:0:0:0:
256,128,57366,1,0,0:0:0:0:
256,128,57428,1,0,0:0:0:0:
256,128,57490,1,8,0:0:0:0:
256,128,57613,1,8,0:0:0:0:
256,128,57736,1,0,0:0:0:0:
256,128,57860,1,0,0:0:0:0:
256,128,57983,1,8,0:0:0:0:
256,128,58107,1,0,0:0:0:0:
256,128,58354,1,0,0:0:0:0:
256,128,58477,1,8,0:0:0:0:
256,128,58601,1,8,0:0:0:0:
256,128,58724,1,0,0:0:0:0:
256,128,58848,1,0,0:0:0:0:
256,128,58909,1,0,0:0:0:0:
256,128,58971,1,8,0:0:0:0:
256,128,59094,1,0,0:0:0:0:
256,128,59156,1,8,0:0:0:0:
256,128,59218,1,0,0:0:0:0:
256,128,59341,1,0,0:0:0:0:
256,128,59465,1,8,0:0:0:0:
256,128,59588,1,0,0:0:0:0:
256,128,59650,1,0,0:0:0:0:
256,128,59712,1,8,0:0:0:0:
256,128,59835,1,0,0:0:0:0:
256,128,59897,1,8,0:0:0:0:
256,128,59959,1,0,0:0:0:0:
256,128,60082,1,8,0:0:0:0:
256,128,60144,1,0,0:0:0:0:
256,128,60206,1,0,0:0:0:0:
256,128,60267,1,0,0:0:0:0:
256,128,60329,1,8,0:0:0:0:
256,128,60453,1,8,0:0:0:0:
256,128,60576,1,0,0:0:0:0:
256,128,60699,1,8,0:0:0:0:
256,128,60823,1,0,0:0:0:0:
256,128,60885,1,0,0:0:0:0:
256,128,60946,1,8,0:0:0:0:
256,128,61070,1,0,0:0:0:0:
256,128,61132,1,0,0:0:0:0:
280,154,61193,1,8,0:0:0:0:
272,146,61255,1,0,0:0:0:0:
256,128,61317,1,8,0:0:0:0:
256,128,61440,1,0,0:0:0:0:
256,128,61564,1,8,0:0:0:0:
256,128,61687,1,0,0:0:0:0:
256,128,61811,1,0,0:0:0:0:
256,128,61872,1,0,0:0:0:0:
256,128,61934,1,8,0:0:0:0:
256,128,62057,1,0,0:0:0:0:
256,128,62181,1,8,0:0:0:0:
256,128,62243,1,8,0:0:0:0:
256,128,62304,1,0,0:0:0:0:
256,128,62366,1,0,0:0:0:0:
256,128,62428,1,8,0:0:0:0:
256,128,62551,1,8,0:0:0:0:
256,128,62675,1,0,0:0:0:0:
256,128,62798,1,0,0:0:0:0:
256,128,62860,1,0,0:0:0:0:
256,128,62922,1,8,0:0:0:0:
256,128,62983,1,0,0:0:0:0:
256,128,63045,1,0,0:0:0:0:
256,128,63107,1,0,0:0:0:0:
256,128,63169,1,8,0:0:0:0:
256,128,63230,1,8,0:0:0:0:
256,128,63292,1,0,0:0:0:0:
256,128,63354,1,0,0:0:0:0:
256,128,63415,1,8,0:0:0:0:
256,128,63662,1,4,0:0:0:0:
256,128,63786,1,0,0:0:0:0:
256,128,63848,1,0,0:0:0:0:
256,128,63909,1,8,0:0:0:0:
256,128,64033,1,0,0:0:0:0:
217,228,64094,1,0,0:0:0:0:
179,348,64156,1,0,0:0:0:0:
256,128,64280,1,0,0:0:0:0:
256,128,64403,1,8,0:0:0:0:
256,128,64527,1,8,0:0:0:0:
256,128,64650,1,0,0:0:0:0:
256,128,64712,1,8,0:0:0:0:
256,128,64773,1,0,0:0:0:0:
256,128,64835,1,0,0:0:0:0:
256,128,64897,1,8,0:0:0:0:
256,128,65020,1,8,0:0:0:0:
256,128,65144,1,0,0:0:0:0:
256,128,65267,1,0,0:0:0:0:
256,128,65329,1,0,0:0:0:0:
256,128,65391,1,8,0:0:0:0:
256,128,65514,1,8,0:0:0:0:
256,128,65638,1,0,0:0:0:0:
256,128,65761,1,0,0:0:0:0:
256,128,65885,1,8,0:0:0:0:
256,128,66008,1,0,0:0:0:0:
256,128,66255,1,8,0:0:0:0:
256,128,66378,1,8,0:0:0:0:
256,128,66502,1,0,0:0:0:0:
256,128,66625,1,8,0:0:0:0:
320,192,66749,1,0,0:0:0:0:
224,64,66811,1,0,0:0:0:0:
256,128,66872,1,8,0:0:0:0:
256,128,66996,1,8,0:0:0:0:
288,192,67057,1,8,0:0:0:0:
256,128,67119,1,0,0:0:0:0:
256,128,67243,1,0,0:0:0:0:
256,128,67366,1,8,0:0:0:0:
256,128,67490,1,0,0:0:0:0:
256,128,67551,1,0,0:0:0:0:
256,128,67613,1,8,0:0:0:0:
256,128,67736,1,0,0:0:0:0:
256,128,67798,1,8,0:0:0:0:
256,128,67860,1,0,0:0:0:0:
256,128,67983,1,8,0:0:0:0:
256,128,68045,1,8,0:0:0:0:
256,128,68107,1,0,0:0:0:0:
256,128,68169,1,0,0:0:0:0:
256,128,68230,1,8,0:0:0:0:
256,128,68354,1,8,0:0:0:0:
256,128,68477,1,0,0:0:0:0:
256,128,68601,1,8,0:0:0:0:
256,128,68724,1,0,0:0:0:0:
256,128,68786,1,0,0:0:0:0:
256,128,68848,1,8,0:0:0:0:
256,128,68971,1,0,0:0:0:0:
256,128,69033,1,8,0:0:0:0:
256,128,69094,1,0,0:0:0:0:
193,35,69156,1,0,0:0:0:0:
257,114,69218,1,8,0:0:0:0:
256,128,69341,1,0,0:0:0:0:
256,128,69465,1,8,0:0:0:0:
256,128,69588,1,0,0:0:0:0:
256,128,69712,1,0,0:0:0:0:
256,128,69773,1,0,0:0:0:0:
256,128,69835,1,8,0:0:0:0:
256,128,69959,1,0,0:0:0:0:
256,128,70082,1,8,0:0:0:0:
256,128,70144,1,0,0:0:0:0:
256,128,70206,1,8,0:0:0:0:
256,128,70267,1,0,0:0:0:0:
256,128,70329,1,8,0:0:0:0:
256,128,70453,1,8,0:0:0:0:
256,128,70576,1,0,0:0:0:0:
256,128,70699,1,0,0:0:0:0:
256,128,70761,1,0,0:0:0:0:
256,128,70823,1,8,0:0:0:0:
256,128,70946,1,0,0:0:0:0:
256,128,71008,1,0,0:0:0:0:
256,128,71070,1,8,0:0:0:0:
256,128,71193,1,0,0:0:0:0:
256,128,71255,1,0,0:0:0:0:
256,128,71317,1,8,0:0:0:0:
256,128,71564,1,8,0:0:0:0:
256,128,71625,1,8,0:0:0:0:
256,128,71687,1,0,0:0:0:0:
256,128,71749,1,0,0:0:0:0:
256,128,71811,1,8,0:0:0:0:
256,128,71872,1,0,0:0:0:0:
256,128,71934,1,8,0:0:0:0:
256,128,71996,1,0,0:0:0:0:
256,128,72057,1,0,0:0:0:0:
256,128,72119,1,0,0:0:0:0:
256,128,72181,1,8,0:0:0:0:
256,128,72243,1,0,0:0:0:0:
256,128,72304,1,8,0:0:0:0:
256,128,72366,1,0,0:0:0:0:
256,128,72428,1,8,0:0:0:0:
256,128,72490,1,8,0:0:0:0:
256,128,72551,1,0,0:0:0:0:
256,128,72613,1,0,0:0:0:0:
256,128,72675,1,8,0:0:0:0:
256,128,72736,1,0,0:0:0:0:
256,128,72798,1,8,0:0:0:0:
256,128,72860,1,0,0:0:0:0:
256,128,72922,1,8,0:0:0:0:
256,128,72983,1,0,0:0:0:0:
256,128,73045,1,8,0:0:0:0:
256,128,73107,1,8,0:0:0:0:
256,128,73169,1,0,0:0:0:0:
256,128,73230,1,0,0:0:0:0:
256,128,73292,1,8,0:0:0:0:
256,128,73354,1,0,0:0:0:0:
256,128,73415,1,8,0:0:0:0:
320,96,73477,1,8,0:0:0:0:
256,128,73539,1,0,0:0:0:0:
256,128,73601,1,8,0:0:0:0:
256,128,73662,1,0,0:0:0:0:
256,128,73724,1,0,0:0:0:0:
256,128,73786,1,8,0:0:0:0:
256,128,73848,1,0,0:0:0:0:
256,128,73909,1,0,0:0:0:0:
288,96,74156,1,0,0:0:0:0:
256,128,74280,1,8,0:0:0:0:
320,64,74341,1,8,0:0:0:0:
256,128,74403,1,0,0:0:0:0:
288,96,74527,1,0,0:0:0:0:
288,96,74588,1,8,0:0:0:0:
288,96,74650,1,0,0:0:0:0:
288,96,74712,1,0,0:0:0:0:
288,96,74773,1,8,0:0:0:0:
288,96,74835,1,8,0:0:0:0:
288,96,74897,1,0,0:0:0:0:
288,96,74959,1,0,0:0:0:0:
288,96,75020,1,8,0:0:0:0:
288,96,75082,1,0,0:0:0:0:
288,96,75144,1,0,0:0:0:0:
288,96,75206,1,0,0:0:0:0:
288,96,75267,1,8,0:0:0:0:
288,96,75329,1,0,0:0:0:0:
288,96,75391,1,8,0:0:0:0:
288,96,75453,1,8,0:0:0:0:
288,96,75514,1,0,0:0:0:0:
288,96,75576,1,8,0:0:0:0:
288,96,75638,1,0,0:0:0:0:
288,96,75699,1,0,0:0:0:0:
288,96,75761,1,8,0:0:0:0:
288,96,75823,1,0,0:0:0:0:
288,96,75885,1,8,0:0:0:0:
288,96,75946,1,0,0:0:0:0:
288,96,76008,1,0,0:0:0:0:
288,96,76070,1,0,0:0:0:0:
288,96,76132,1,8,0:0:0:0:
288,96,76193,1,0,0:0:0:0:
288,96,76255,1,8,0:0:0:0:
288,96,76317,1,8,0:0:0:0:
288,96,76378,1,0,0:0:0:0:
288,96,76440,1,0,0:0:0:0:
288,96,76502,1,8,0:0:0:0:
288,96,76564,1,0,0:0:0:0:
288,96,76625,1,0,0:0:0:0:
288,96,76687,1,8,0:0:0:0:
288,96,76749,1,0,0:0:0:0:
288,96,76811,1,0,0:0:0:0:
288,96,76872,1,8,0:0:0:0:
288,96,76934,1,0,0:0:0:0:
288,96,76996,1,8,0:0:0:0:
288,96,77057,1,0,0:0:0:0:
288,96,77119,1,8,0:0:0:0:
288,96,77181,1,0,0:0:0:0:
288,96,77243,1,8,0:0:0:0:
288,96,77304,1,8,0:0:0:0:
288,96,77366,1,0,0:0:0:0:
288,96,77428,1,0,0:0:0:0:
288,96,77490,1,8,0:0:0:0:
288,96,77551,1,0,0:0:0:0:
288,96,77613,1,0,0:0:0:0:
288,96,77675,1,0,0:0:0:0:
288,96,77736,1,8,0:0:0:0:
288,96,77798,1,0,0:0:0:0:
288,96,77860,1,8,0:0:0:0:
288,96,77922,1,8,0:0:0:0:
288,96,77983,1,0,0:0:0:0:
288,96,78045,1,8,0:0:0:0:
288,96,78107,1,0,0:0:0:0:
288,96,78169,1,0,0:0:0:0:
288,96,78230,1,8,0:0:0:0:
288,96,78292,1,0,0:0:0:0:
288,96,78354,1,8,0:0:0:0:
288,96,78415,1,0,0:0:0:0:
288,96,78477,1,8,0:0:0:0:
288,96,78539,1,0,0:0:0:0:
288,96,78601,1,0,0:0:0:0:
288,96,78662,1,0,0:0:0:0:
288,96,78724,1,8,0:0:0:0:
288,96,78786,1,0,0:0:0:0:
288,96,78848,1,0,0:0:0:0:
288,96,78909,1,0,0:0:0:0:
288,96,78971,1,8,0:0:0:0:
288,96,79033,1,0,0:0:0:0:
288,96,79094,1,0,0:0:0:0:
288,96,79156,1,0,0:0:0:0:
288,96,79218,1,8,0:0:0:0:
288,96,79280,1,0,0:0:0:0:
288,96,79341,1,0,0:0:0:0:
288,96,79403,1,0,0:0:0:0:
256,128,79465,1,8,0:0:0:0:
256,128,79527,1,8,0:0:0:0:
256,128,79588,1,0,0:0:0:0:
256,128,79650,1,0,0:0:0:0:
256,128,79712,1,8,0:0:0:0:
256,128,79773,1,0,0:0:0:0:
256,128,79835,1,8,0:0:0:0:
256,128,79897,1,0,0:0:0:0:
256,128,79959,1,0,0:0:0:0:
256,128,80020,1,0,0:0:0:0:
256,128,80082,1,8,0:0:0:0:
256,128,80144,1,0,0:0:0:0:
256,128,80206,1,8,0:0:0:0:
256,128,80267,1,0,0:0:0:0:
256,128,80329,1,8,0:0:0:0:
256,128,80391,1,8,0:0:0:0:
256,128,80453,1,0,0:0:0:0:
256,128,80514,1,0,0:0:0:0:
256,128,80576,1,8,0:0:0:0:
256,128,80638,1,0,0:0:0:0:
256,128,80699,1,8,0:0:0:0:
256,128,80761,1,0,0:0:0:0:
256,128,80823,1,8,0:0:0:0:
256,128,80885,1,0,0:0:0:0:
256,128,80946,1,8,0:0:0:0:
256,128,81008,1,8,0:0:0:0:
256,128,81070,1,0,0:0:0:0:
256,128,81132,1,0,0:0:0:0:
256,128,81193,1,8,0:0:0:0:
256,128,81255,1,0,0:0:0:0:
256,128,81317,1,8,0:0:0:0:
256,128,81378,1,8,0:0:0:0:
256,128,81440,1,0,0:0:0:0:
256,128,81502,1,0,0:0:0:0:
256,128,81564,1,8,0:0:0:0:
256,128,81625,1,0,0:0:0:0:
256,128,81687,1,8,0:0:0:0:
256,128,81749,1,0,0:0:0:0:
256,128,81811,1,0,0:0:0:0:
288,96,82057,1,0,0:0:0:0:
256,128,82181,1,8,0:0:0:0:
320,64,82243,1,8,0:0:0:0:
256,128,82304,1,0,0:0:0:0:
288,96,82428,1,0,0:0:0:0:
288,96,82490,1,8,0:0:0:0:
288,96,82551,1,0,0:0:0:0:
288,96,82613,1,0,0:0:0:0:
288,96,82675,1,8,0:0:0:0:
288,96,82736,1,8,0:0:0:0:
288,96,82798,1,0,0:0:0:0:
288,96,82860,1,0,0:0:0:0:
288,96,82922,1,8,0:0:0:0:
288,96,82983,1,0,0:0:0:0:
288,96,83045,1,0,0:0:0:0:
288,96,83107,1,0,0:0:0:0:
288,96,83169,1,8,0:0:0:0:
288,96,83230,1,0,0:0:0:0:
288,96,83292,1,8,0:0:0:0:
288,96,83354,1,8,0:0:0:0:
288,96,83415,1,0,0:0:0:0:
288,96,83477,1,8,0:0:0:0:
288,96,83539,1,0,0:0:0:0:
288,96,83601,1,0,0:0:0:0:
288,96,83662,1,8,0:0:0:0:
288,96,83724,1,0,0:0:0:0:
288,96,83786,1,8,0:0:0:0:
288,96,83848,1,0,0:0:0:0:
288,96,83909,1,0,0:0:0:0:
288,96,83971,1,0,0:0:0:0:
288,96,84033,1,8,0:0:0:0:
288,96,84094,1,0,0:0:0:0:
288,96,84156,1,8,0:0:0:0:
288,96,84218,1,8,0:0:0:0:
288,96,84280,1,0,0:0:0:0:
288,96,84341,1,0,0:0:0:0:
288,96,84403,1,8,0:0:0:0:
288,96,84465,1,0,0:0:0:0:
288,96,84527,1,0,0:0:0:0:
288,96,84588,1,8,0:0:0:0:
288,96,84650,1,0,0:0:0:0:
288,96,84712,1,0,0:0:0:0:
288,96,84773,1,8,0:0:0:0:
288,96,84835,1,0,0:0:0:0:
288,96,84897,1,8,0:0:0:0:
288,96,84959,1,0,0:0:0:0:
288,96,85020,1,8,0:0:0:0:
288,96,85082,1,0,0:0:0:0:
288,96,85144,1,8,0:0:0:0:
288,96,85206,1,8,0:0:0:0:
288,96,85267,1,0,0:0:0:0:
288,96,85329,1,0,0:0:0:0:
288,96,85391,1,8,0:0:0:0:
288,96,85453,1,0,0:0:0:0:
288,96,85514,1,0,0:0:0:0:
288,96,85576,1,0,0:0:0:0:
288,96,85638,1,8,0:0:0:0:
288,96,85699,1,0,0:0:0:0:
288,96,85761,1,8,0:0:0:0:
288,96,85823,1,8,0:0:0:0:
288,96,85885,1,0,0:0:0:0:
288,96,85946,1,8,0:0:0:0:
288,96,86008,1,0,0:0:0:0:
288,96,86070,1,0,0:0:0:0:
288,96,86132,1,8,0:0:0:0:
288,96,86193,1,0,0:0:0:0:
288,96,86255,1,8,0:0:0:0:
288,96,86317,1,0,0:0:0:0:
288,96,86378,1,8,0:0:0:0:
288,96,86440,1,0,0:0:0:0:
288,96,86502,1,0,0:0:0:0:
288,96,86564,1,0,0:0:0:0:
288,96,86625,1,8,0:0:0:0:
288,96,86687,1,0,0:0:0:0:
288,96,86749,1,0,0:0:0:0:
288,96,86811,1,0,0:0:0:0:
288,96,86872,1,8,0:0:0:0:
288,96,86934,1,0,0:0:0:0:
288,96,86996,1,0,0:0:0:0:
288,96,87057,1,0,0:0:0:0:
288,96,87119,1,8,0:0:0:0:
288,96,87366,1,8,0:0:0:0:
288,96,87613,1,8,0:0:0:0:
288,96,87860,1,8,0:0:0:0:
288,96,88107,1,8,0:0:0:0:
288,160,88354,1,4,0:0:0:0:
256,96,88601,1,8,0:0:0:0:
256,96,88848,1,0,0:0:0:0:
256,96,89218,1,0,0:0:0:0:
256,96,89341,1,8,0:0:0:0:
256,96,89465,1,0,0:0:0:0:
256,96,89712,1,8,0:0:0:0:
256,96,89959,1,8,0:0:0:0:
256,96,90206,1,0,0:0:0:0:
256,96,90329,1,0,0:0:0:0:
256,96,90576,1,8,0:0:0:0:
256,96,90823,1,8,0:0:0:0:
256,96,91070,1,0,0:0:0:0:
256,96,91317,1,8,0:0:0:0:
256,96,91564,1,0,0:0:0:0:
256,96,91811,1,8,0:0:0:0:
256,96,91934,1,0,0:0:0:0:
256,96,92057,1,8,0:0:0:0:
256,96,92181,1,8,0:0:0:0:
256,96,92304,1,0,0:0:0:0:
256,96,92551,1,8,0:0:0:0:
256,96,92798,1,0,0:0:0:0:
256,96,93045,1,8,0:0:0:0:
256,96,93292,1,8,0:0:0:0:
256,96,93539,1,0,0:0:0:0:
256,96,93662,1,8,0:0:0:0:
256,96,93909,1,8,0:0:0:0:
256,96,94156,1,8,0:0:0:0:
256,96,94280,1,0,0:0:0:0:
256,96,94527,1,8,0:0:0:0:
256,96,94773,1,0,0:0:0:0:
256,96,95020,1,0,0:0:0:0:
256,96,95144,1,8,0:0:0:0:
256,96,95267,1,0,0:0:0:0:
256,96,95514,1,0,0:0:0:0:
256,96,95761,1,8,0:0:0:0:
256,96,96008,1,8,0:0:0:0:
288,160,96255,1,4,0:0:0:0:
256,96,96502,1,8,0:0:0:0:
256,96,96749,1,0,0:0:0:0:
288,128,96996,1,8,0:0:0:0:
256,32,97119,1,8,0:0:0:0:
256,96,97243,1,0,0:0:0:0:
288,128,97490,1,8,0:0:0:0:
288,128,97613,1,0,0:0:0:0:
256,96,97736,1,8,0:0:0:0:
256,96,97860,1,0,0:0:0:0:
256,96,97983,1,8,0:0:0:0:
256,96,98230,1,0,0:0:0:0:
256,96,98477,1,8,0:0:0:0:
256,96,98724,1,0,0:0:0:0:
256,96,98848,1,0,0:0:0:0:
256,96,98971,1,8,0:0:0:0:
256,96,99218,1,0,0:0:0:0:
256,96,99465,1,8,0:0:0:0:
256,96,99712,1,8,0:0:0:0:
256,96,99835,1,0,0:0:0:0:
256,96,99959,1,8,0:0:0:0:
256,96,100082,1,8,0:0:0:0:
256,96,100206,1,0,0:0:0:0:
256,96,100453,1,8,0:0:0:0:
256,96,100699,1,0,0:0:0:0:
256,96,100946,1,8,0:0:0:0:
224,64,101070,1,8,0:0:0:0:
256,96,101193,1,0,0:0:0:0:
256,96,101440,1,8,0:0:0:0:
256,96,101564,1,0,0:0:0:0:
256,96,101687,1,8,0:0:0:0:
256,96,101811,1,0,0:0:0:0:
256,96,101934,1,8,0:0:0:0:
256,96,102181,1,0,0:0:0:0:
256,96,102428,1,8,0:0:0:0:
256,96,102675,1,0,0:0:0:0:
256,96,102798,1,0,0:0:0:0:
256,96,102922,1,8,0:0:0:0:
256,96,103169,5,0,0:0:0:0:
256,96,103415,5,0,0:0:0:0:
256,96,103662,1,0,0:0:0:0:
256,96,103909,1,0,0:0:0:0:
256,96,104156,1,12,0:0:0:0:
256,192,104897,1,0,0:0:0:0:
256,192,105144,1,8,0:0:0:0:
288,160,105885,1,0,0:0:0:0:
288,160,106132,1,0,0:0:0:0:
288,160,106502,1,0,0:0:0:0:
288,160,106872,1,0,0:0:0:0:
288,160,107119,1,8,0:0:0:0:
288,160,107860,1,8,0:0:0:0:
288,160,108107,1,8,0:0:0:0:
288,160,108230,1,0,0:0:0:0:
288,160,108292,1,0,0:0:0:0:
288,160,108354,1,8,0:0:0:0:
288,160,108477,1,0,0:0:0:0:
288,160,108601,1,8,0:0:0:0:
288,160,108724,1,0,0:0:0:0:
288,160,108786,1,0,0:0:0:0:
288,160,108848,1,8,0:0:0:0:
288,160,108909,1,8,0:0:0:0:
288,160,108971,1,0,0:0:0:0:
288,160,109033,1,0,0:0:0:0:
288,160,109094,1,8,0:0:0:0:
288,160,109218,1,0,0:0:0:0:
288,160,109280,1,0,0:0:0:0:
288,160,109341,1,8,0:0:0:0:
288,160,109465,1,0,0:0:0:0:
288,160,109588,1,8,0:0:0:0:
288,160,109712,1,0,0:0:0:0:
288,160,109773,1,0,0:0:0:0:
288,160,109835,1,8,0:0:0:0:
288,160,109897,1,8,0:0:0:0:
288,160,109959,1,0,0:0:0:0:
288,160,110020,1,0,0:0:0:0:
288,160,110082,1,8,0:0:0:0:
288,160,110206,1,0,0:0:0:0:
320,128,110247,1,0,0:0:0:0:
288,160,110288,1,0,0:0:0:0:
288,160,110329,1,8,0:0:0:0:
288,160,110453,1,0,0:0:0:0:
288,160,110514,1,0,0:0:0:0:
288,160,110576,1,8,0:0:0:0:
288,160,110699,1,8,0:0:0:0:
288,64,110741,1,0,0:0:0:0:
288,160,110782,1,0,0:0:0:0:
288,160,110823,1,8,0:0:0:0:
288,160,110946,1,0,0:0:0:0:
288,160,111008,1,0,0:0:0:0:
288,160,111070,1,8,0:0:0:0:
256,192,112057,1,0,0:0:0:0:
256,192,112303,1,8,0:0:0:0:
256,192,112550,1,8,0:0:0:0:
256,192,112797,1,0,0:0:0:0:
256,192,113044,1,8,0:0:0:0:
256,192,113291,1,8,0:0:0:0:
256,192,113538,1,0,0:0:0:0:
256,192,113569,1,0,0:0:0:0:
256,192,113785,1,8,0:0:0:0:
256,192,114032,1,8,0:0:0:0:
256,192,114279,1,0,0:0:0:0:
256,192,114526,1,8,0:0:0:0:
256,192,114773,1,8,0:0:0:0:
256,192,115019,1,0,0:0:0:0:
256,192,115266,1,8,0:0:0:0:
256,192,115390,1,0,0:0:0:0:
256,192,115637,1,0,0:0:0:0:
256,192,115760,1,8,0:0:0:0:
256,192,116007,1,0,0:0:0:0:
256,192,116131,1,8,0:0:0:0:
256,192,116254,1,0,0:0:0:0:
256,192,116501,1,8,0:0:0:0:
256,192,116748,1,8,0:0:0:0:
256,192,116995,1,8,0:0:0:0:
256,192,117242,1,0,0:0:0:0:
256,192,117489,1,8,0:0:0:0:
256,192,117736,1,8,0:0:0:0:
256,192,117859,1,0,0:0:0:0:
256,192,117982,1,8,0:0:0:0:
256,192,118229,1,0,0:0:0:0:
256,192,118353,1,0,0:0:0:0:
256,192,118476,1,8,0:0:0:0:
256,192,118723,1,8,0:0:0:0:
256,192,118970,1,0,0:0:0:0:
256,192,119217,1,8,0:0:0:0:
256,192,119464,1,8,0:0:0:0:
256,192,119711,1,0,0:0:0:0:
256,192,119834,1,0,0:0:0:0:
256,192,119958,1,8,0:0:0:0:
256,192,120205,1,0,0:0:0:0:
256,192,120328,1,8,0:0:0:0:
256,192,120452,1,0,0:0:0:0:
256,192,120698,1,8,0:0:0:0:
224,128,120945,1,0,0:0:0:0:
288,64,121245,1,0,0:0:0:0:
224,32,121330,1,0,0:0:0:0:
224,160,121416,1,8,0:0:0:0:
288,64,121587,1,8,0:0:0:0:
288,64,121987,1,8,0:0:0:0:
288,64,122467,1,0,0:0:0:0:
288,64,123067,1,8,0:0:0:0:
256,192,123877,12,0,125252,0:0:0:0:
256,192,125377,5,0,0:0:0:0:
256,128,126354,1,0,0:0:0:0:
256,128,126600,1,8,0:0:0:0:
256,128,126847,1,8,0:0:0:0:
256,128,127104,1,4,0:0:0:0:
256,128,127227,1,0,0:0:0:0:
256,128,127289,1,0,0:0:0:0:
256,128,127350,1,8,0:0:0:0:
256,128,127474,1,0,0:0:0:0:
256,128,127536,1,8,0:0:0:0:
256,128,127597,1,0,0:0:0:0:
256,128,127721,1,0,0:0:0:0:
256,128,127783,1,0,0:0:0:0:
256,128,127844,1,8,0:0:0:0:
256,128,127968,1,8,0:0:0:0:
256,128,128091,1,0,0:0:0:0:
256,128,128153,1,8,0:0:0:0:
256,128,128215,1,0,0:0:0:0:
256,128,128276,1,0,0:0:0:0:
256,128,128338,1,8,0:0:0:0:
256,128,128462,1,8,0:0:0:0:
256,128,128585,1,0,0:0:0:0:
256,128,128708,1,0,0:0:0:0:
256,128,128770,1,0,0:0:0:0:
256,128,128832,1,8,0:0:0:0:
256,128,128894,1,0,0:0:0:0:
256,128,128955,1,8,0:0:0:0:
256,128,129079,1,0,0:0:0:0:
256,128,129202,1,0,0:0:0:0:
256,128,129264,1,0,0:0:0:0:
256,128,129326,1,8,0:0:0:0:
256,128,129449,1,0,0:0:0:0:
256,128,129696,1,0,0:0:0:0:
256,128,129820,1,8,0:0:0:0:
256,128,129881,1,0,0:0:0:0:
256,128,129943,1,8,0:0:0:0:
256,128,130066,1,0,0:0:0:0:
256,128,130128,1,8,0:0:0:0:
256,128,130190,1,0,0:0:0:0:
256,128,130252,1,0,0:0:0:0:
256,128,130313,1,8,0:0:0:0:
256,128,130437,1,0,0:0:0:0:
256,128,130499,1,8,0:0:0:0:
256,128,130560,1,0,0:0:0:0:
256,128,130684,1,0,0:0:0:0:
256,128,130807,1,8,0:0:0:0:
256,128,130931,1,0,0:0:0:0:
256,128,130992,1,0,0:0:0:0:
256,128,131054,1,8,0:0:0:0:
256,128,131178,1,0,0:0:0:0:
256,128,131239,1,8,0:0:0:0:
256,128,131301,1,0,0:0:0:0:
256,128,131424,1,8,0:0:0:0:
256,128,131486,1,0,0:0:0:0:
256,128,131548,1,0,0:0:0:0:
256,128,131610,1,0,0:0:0:0:
256,128,131671,1,8,0:0:0:0:
352,192,131733,1,0,0:0:0:0:
256,128,131795,1,8,0:0:0:0:
256,128,131918,1,0,0:0:0:0:
256,128,132042,1,8,0:0:0:0:
256,128,132165,1,0,0:0:0:0:
256,128,132227,1,0,0:0:0:0:
256,128,132289,1,8,0:0:0:0:
256,128,132412,1,0,0:0:0:0:
256,128,132474,1,0,0:0:0:0:
256,128,132536,1,8,0:0:0:0:
261,106,132597,1,0,0:0:0:0:
256,128,132659,1,8,0:0:0:0:
256,128,132783,1,0,0:0:0:0:
256,128,132844,1,0,0:0:0:0:
256,128,132906,1,8,0:0:0:0:
256,128,133029,1,0,0:0:0:0:
256,128,133153,1,0,0:0:0:0:
256,128,133215,1,0,0:0:0:0:
256,128,133276,1,8,0:0:0:0:
256,128,133400,1,0,0:0:0:0:
256,128,133523,1,8,0:0:0:0:
256,128,133585,1,8,0:0:0:0:
256,128,133647,1,0,0:0:0:0:
256,128,133708,1,0,0:0:0:0:
256,128,133770,1,8,0:0:0:0:
256,128,133832,1,0,0:0:0:0:
256,128,133894,1,8,0:0:0:0:
256,128,134017,1,0,0:0:0:0:
256,128,134141,1,0,0:0:0:0:
256,128,134202,1,0,0:0:0:0:
256,128,134264,1,8,0:0:0:0:
256,128,134326,1,0,0:0:0:0:
256,128,134387,1,0,0:0:0:0:
256,128,134449,1,0,0:0:0:0:
256,128,134511,1,8,0:0:0:0:
256,128,134573,1,8,0:0:0:0:
256,128,134634,1,0,0:0:0:0:
256,128,134696,1,0,0:0:0:0:
256,128,134758,1,8,0:0:0:0:
256,128,135005,1,4,0:0:0:0:
256,128,135128,1,0,0:0:0:0:
256,128,135190,1,0,0:0:0:0:
256,128,135252,1,8,0:0:0:0:
256,128,135375,1,0,0:0:0:0:
256,128,135437,1,8,0:0:0:0:
256,128,135499,1,0,0:0:0:0:
256,128,135622,1,0,0:0:0:0:
256,128,135684,1,0,0:0:0:0:
256,128,135745,1,8,0:0:0:0:
256,128,135869,1,8,0:0:0:0:
256,128,135992,1,0,0:0:0:0:
256,128,136054,1,8,0:0:0:0:
256,128,136116,1,0,0:0:0:0:
256,128,136178,1,0,0:0:0:0:
256,128,136239,1,8,0:0:0:0:
256,128,136363,1,8,0:0:0:0:
256,128,136486,1,0,0:0:0:0:
256,128,136610,1,0,0:0:0:0:
256,128,136671,1,0,0:0:0:0:
256,128,136733,1,8,0:0:0:0:
256,128,136795,1,0,0:0:0:0:
256,128,136857,1,8,0:0:0:0:
256,128,136980,1,0,0:0:0:0:
256,128,137104,1,0,0:0:0:0:
288,160,137165,1,0,0:0:0:0:
256,128,137227,1,8,0:0:0:0:
256,128,137350,1,0,0:0:0:0:
256,128,137597,1,8,0:0:0:0:
256,128,137659,1,0,0:0:0:0:
256,128,137721,1,8,0:0:0:0:
256,128,137844,1,0,0:0:0:0:
256,128,137968,1,8,0:0:0:0:
256,128,138029,1,8,0:0:0:0:
320,192,138091,1,0,0:0:0:0:
224,64,138153,1,0,0:0:0:0:
256,128,138215,1,8,0:0:0:0:
256,128,138338,1,8,0:0:0:0:
288,192,138400,1,8,0:0:0:0:
256,128,138462,1,0,0:0:0:0:
256,128,138585,1,0,0:0:0:0:
256,128,138708,1,8,0:0:0:0:
256,128,138832,1,0,0:0:0:0:
320,192,138894,1,0,0:0:0:0:
256,128,138955,1,8,0:0:0:0:
256,128,139079,1,0,0:0:0:0:
256,128,139141,1,8,0:0:0:0:
256,128,139202,1,0,0:0:0:0:
256,128,139326,1,8,0:0:0:0:
256,128,139387,1,8,0:0:0:0:
256,128,139449,1,0,0:0:0:0:
256,128,139511,1,0,0:0:0:0:
256,128,139573,1,8,0:0:0:0:
320,192,139634,1,0,0:0:0:0:
256,128,139696,1,8,0:0:0:0:
256,128,139820,1,0,0:0:0:0:
256,128,139943,1,8,0:0:0:0:
256,128,140066,1,0,0:0:0:0:
256,128,140128,1,0,0:0:0:0:
256,128,140190,1,8,0:0:0:0:
256,128,140313,1,0,0:0:0:0:
256,128,140375,1,8,0:0:0:0:
256,128,140437,1,0,0:0:0:0:
217,82,140499,1,0,0:0:0:0:
255,117,140560,1,8,0:0:0:0:
256,128,140684,1,0,0:0:0:0:
320,192,140745,1,0,0:0:0:0:
256,128,140807,1,8,0:0:0:0:
256,128,140931,1,0,0:0:0:0:
256,128,141054,1,0,0:0:0:0:
256,128,141116,1,0,0:0:0:0:
256,128,141178,1,8,0:0:0:0:
256,128,141301,1,0,0:0:0:0:
320,160,141363,1,0,0:0:0:0:
256,128,141424,1,8,0:0:0:0:
256,128,141486,1,0,0:0:0:0:
256,128,141548,1,8,0:0:0:0:
256,128,141610,1,0,0:0:0:0:
256,128,141671,1,8,0:0:0:0:
256,128,141795,1,8,0:0:0:0:
256,128,141918,1,0,0:0:0:0:
256,128,142042,1,0,0:0:0:0:
256,128,142104,1,0,0:0:0:0:
256,128,142165,1,8,0:0:0:0:
256,128,142289,1,0,0:0:0:0:
256,128,142350,1,0,0:0:0:0:
256,128,142412,1,8,0:0:0:0:
256,128,142536,1,0,0:0:0:0:
256,128,142597,1,0,0:0:0:0:
256,128,142659,1,8,0:0:0:0:
256,128,142906,1,8,0:0:0:0:
256,128,142968,1,8,0:0:0:0:
256,128,143029,1,0,0:0:0:0:
256,128,143091,1,0,0:0:0:0:
256,128,143153,1,8,0:0:0:0:
256,128,143215,1,0,0:0:0:0:
256,128,143276,1,8,0:0:0:0:
256,128,143338,1,8,0:0:0:0:
256,128,143400,1,0,0:0:0:0:
256,128,143462,1,0,0:0:0:0:
256,128,143523,1,8,0:0:0:0:
256,128,143585,1,0,0:0:0:0:
256,128,143647,1,8,0:0:0:0:
256,128,143708,1,0,0:0:0:0:
256,128,143770,1,8,0:0:0:0:
256,128,143832,1,8,0:0:0:0:
256,128,143894,1,0,0:0:0:0:
256,128,143955,1,0,0:0:0:0:
256,128,144017,1,8,0:0:0:0:
256,128,144079,1,0,0:0:0:0:
256,128,144141,1,8,0:0:0:0:
256,128,144202,1,0,0:0:0:0:
256,128,144264,1,8,0:0:0:0:
256,128,144326,1,0,0:0:0:0:
256,128,144387,1,8,0:0:0:0:
256,128,144449,1,8,0:0:0:0:
256,128,144511,1,0,0:0:0:0:
256,128,144573,1,0,0:0:0:0:
256,128,144634,1,8,0:0:0:0:
256,128,144696,1,0,0:0:0:0:
256,128,144758,1,8,0:0:0:0:
256,128,144820,1,8,0:0:0:0:
256,128,144881,1,0,0:0:0:0:
256,128,144943,1,8,0:0:0:0:
256,128,145005,1,0,0:0:0:0:
256,128,145066,1,0,0:0:0:0:
256,128,145128,1,8,0:0:0:0:
256,128,145190,1,8,0:0:0:0:
256,128,145252,1,0,0:0:0:0:
288,96,145499,1,0,0:0:0:0:
256,128,145622,1,8,0:0:0:0:
320,64,145684,1,8,0:0:0:0:
256,128,145745,1,0,0:0:0:0:
288,96,145869,1,0,0:0:0:0:
288,96,145931,1,8,0:0:0:0:
288,96,145992,1,0,0:0:0:0:
288,96,146054,1,0,0:0:0:0:
288,96,146116,1,8,0:0:0:0:
288,96,146178,1,8,0:0:0:0:
288,96,146239,1,0,0:0:0:0:
288,96,146301,1,0,0:0:0:0:
288,96,146363,1,8,0:0:0:0:
288,96,146424,1,0,0:0:0:0:
288,96,146486,1,0,0:0:0:0:
288,96,146548,1,0,0:0:0:0:
288,96,146610,1,8,0:0:0:0:
288,96,146671,1,8,0:0:0:0:
288,96,146733,1,8,0:0:0:0:
288,96,146795,1,8,0:0:0:0:
288,96,146857,1,0,0:0:0:0:
288,96,146918,1,8,0:0:0:0:
288,96,146980,1,0,0:0:0:0:
288,96,147042,1,0,0:0:0:0:
288,96,147104,1,8,0:0:0:0:
288,96,147165,1,0,0:0:0:0:
288,96,147227,1,8,0:0:0:0:
288,96,147289,1,0,0:0:0:0:
288,96,147350,1,0,0:0:0:0:
288,96,147412,1,0,0:0:0:0:
288,96,147474,1,8,0:0:0:0:
288,96,147536,1,0,0:0:0:0:
288,96,147597,1,8,0:0:0:0:
288,96,147659,1,8,0:0:0:0:
288,96,147721,1,0,0:0:0:0:
288,96,147783,1,0,0:0:0:0:
288,96,147844,1,8,0:0:0:0:
288,96,147906,1,8,0:0:0:0:
288,96,147968,1,0,0:0:0:0:
288,96,148029,1,8,0:0:0:0:
288,96,148091,1,0,0:0:0:0:
288,96,148153,1,0,0:0:0:0:
288,96,148215,1,8,0:0:0:0:
288,96,148276,1,0,0:0:0:0:
288,96,148338,1,8,0:0:0:0:
288,96,148400,1,0,0:0:0:0:
288,96,148462,1,8,0:0:0:0:
288,96,148523,1,0,0:0:0:0:
288,96,148585,1,8,0:0:0:0:
288,96,148647,1,8,0:0:0:0:
288,96,148708,1,0,0:0:0:0:
288,96,148770,1,0,0:0:0:0:
288,96,148832,1,8,0:0:0:0:
288,96,148894,1,0,0:0:0:0:
288,96,148955,1,0,0:0:0:0:
288,96,149017,1,0,0:0:0:0:
288,96,149079,1,8,0:0:0:0:
288,96,149141,1,0,0:0:0:0:
288,96,149202,1,8,0:0:0:0:
288,96,149264,1,8,0:0:0:0:
288,96,149326,1,8,0:0:0:0:
288,96,149387,1,8,0:0:0:0:
288,96,149449,1,0,0:0:0:0:
288,96,149511,1,0,0:0:0:0:
288,96,149573,1,8,0:0:0:0:
288,96,149634,1,0,0:0:0:0:
288,96,149696,1,8,0:0:0:0:
288,96,149758,1,0,0:0:0:0:
288,96,149820,1,8,0:0:0:0:
288,96,149881,1,8,0:0:0:0:
288,96,149943,1,0,0:0:0:0:
288,96,150005,1,0,0:0:0:0:
288,96,150066,1,8,0:0:0:0:
288,96,150128,1,0,0:0:0:0:
288,96,150190,1,0,0:0:0:0:
288,96,150252,1,0,0:0:0:0:
288,96,150313,1,8,0:0:0:0:
288,96,150375,1,8,0:0:0:0:
288,96,150437,1,0,0:0:0:0:
288,96,150499,1,0,0:0:0:0:
288,96,150560,1,8,0:0:0:0:
288,96,150622,1,0,0:0:0:0:
288,96,150684,1,0,0:0:0:0:
288,96,150745,1,0,0:0:0:0:
256,128,150807,1,8,0:0:0:0:
256,128,150869,1,8,0:0:0:0:
256,128,150931,1,0,0:0:0:0:
256,128,150992,1,0,0:0:0:0:
256,128,151054,1,8,0:0:0:0:
256,128,151116,1,0,0:0:0:0:
256,128,151178,1,8,0:0:0:0:
256,128,151239,1,8,0:0:0:0:
256,128,151301,1,0,0:0:0:0:
256,128,151363,1,0,0:0:0:0:
256,128,151424,1,8,0:0:0:0:
256,128,151486,1,0,0:0:0:0:
256,128,151548,1,8,0:0:0:0:
256,128,151610,1,0,0:0:0:0:
256,128,151671,1,8,0:0:0:0:
256,128,151733,1,8,0:0:0:0:
256,128,151795,1,0,0:0:0:0:
256,128,151857,1,0,0:0:0:0:
256,128,151918,1,8,0:0:0:0:
256,128,151980,1,0,0:0:0:0:
256,128,152042,1,8,0:0:0:0:
256,128,152104,1,0,0:0:0:0:
256,128,152165,1,8,0:0:0:0:
256,128,152227,1,0,0:0:0:0:
256,128,152289,1,8,0:0:0:0:
256,128,152350,1,8,0:0:0:0:
256,128,152412,1,0,0:0:0:0:
256,128,152474,1,0,0:0:0:0:
256,128,152536,1,8,0:0:0:0:
256,128,152597,1,0,0:0:0:0:
256,128,152659,1,8,0:0:0:0:
288,32,152721,1,8,0:0:0:0:
256,64,152783,1,0,0:0:0:0:
256,128,152844,1,8,0:0:0:0:
256,128,152906,1,0,0:0:0:0:
256,128,152968,1,0,0:0:0:0:
256,128,153029,1,8,0:0:0:0:
256,128,153091,1,8,0:0:0:0:
256,128,153153,1,0,0:0:0:0:
288,96,153400,1,0,0:0:0:0:
256,128,153523,1,8,0:0:0:0:
320,64,153585,1,8,0:0:0:0:
256,128,153647,1,0,0:0:0:0:
288,96,153770,1,0,0:0:0:0:
288,96,153832,1,8,0:0:0:0:
288,96,153894,1,0,0:0:0:0:
288,96,153955,1,0,0:0:0:0:
288,96,154017,1,8,0:0:0:0:
288,96,154079,1,8,0:0:0:0:
288,96,154141,1,0,0:0:0:0:
288,96,154202,1,0,0:0:0:0:
288,96,154264,1,8,0:0:0:0:
288,96,154326,1,0,0:0:0:0:
288,96,154387,1,0,0:0:0:0:
288,96,154449,1,0,0:0:0:0:
288,96,154511,1,8,0:0:0:0:
288,96,154573,1,8,0:0:0:0:
288,96,154634,1,8,0:0:0:0:
288,96,154696,1,8,0:0:0:0:
288,96,154758,1,0,0:0:0:0:
288,96,154820,1,8,0:0:0:0:
288,96,154881,1,0,0:0:0:0:
288,96,154943,1,0,0:0:0:0:
288,96,155005,1,8,0:0:0:0:
288,96,155066,1,0,0:0:0:0:
288,96,155128,1,8,0:0:0:0:
288,96,155190,1,0,0:0:0:0:
288,96,155252,1,0,0:0:0:0:
288,96,155313,1,0,0:0:0:0:
288,96,155375,1,8,0:0:0:0:
288,96,155437,1,0,0:0:0:0:
288,96,155499,1,8,0:0:0:0:
288,96,155560,1,8,0:0:0:0:
288,96,155622,1,0,0:0:0:0:
288,96,155684,1,0,0:0:0:0:
288,96,155745,1,8,0:0:0:0:
288,96,155807,1,8,0:0:0:0:
288,96,155869,1,0,0:0:0:0:
288,96,155931,1,8,0:0:0:0:
288,96,155992,1,0,0:0:0:0:
288,96,156054,1,0,0:0:0:0:
288,96,156116,1,8,0:0:0:0:
288,96,156178,1,0,0:0:0:0:
288,96,156239,1,8,0:0:0:0:
288,96,156301,1,0,0:0:0:0:
288,96,156363,1,8,0:0:0:0:
288,96,156424,1,0,0:0:0:0:
288,96,156486,1,8,0:0:0:0:
288,96,156548,1,8,0:0:0:0:
288,96,156610,1,0,0:0:0:0:
288,96,156671,1,0,0:0:0:0:
288,96,156733,1,8,0:0:0:0:
288,96,156795,1,0,0:0:0:0:
288,96,156857,1,0,0:0:0:0:
288,96,156918,1,0,0:0:0:0:
288,96,156980,1,8,0:0:0:0:
288,96,157042,1,0,0:0:0:0:
288,96,157104,1,8,0:0:0:0:
288,96,157165,1,8,0:0:0:0:
288,96,157227,1,8,0:0:0:0:
288,96,157289,1,8,0:0:0:0:
288,96,157350,1,0,0:0:0:0:
288,96,157412,1,0,0:0:0:0:
288,96,157474,1,8,0:0:0:0:
288,96,157536,1,0,0:0:0:0:
288,96,157597,1,8,0:0:0:0:
288,96,157659,1,0,0:0:0:0:
288,96,157721,1,8,0:0:0:0:
288,96,157783,1,8,0:0:0:0:
288,96,157844,1,0,0:0:0:0:
288,96,157906,1,0,0:0:0:0:
288,96,157968,1,8,0:0:0:0:
288,96,158029,1,0,0:0:0:0:
288,96,158091,1,0,0:0:0:0:
288,96,158153,1,0,0:0:0:0:
288,96,158215,1,8,0:0:0:0:
288,96,158276,1,8,0:0:0:0:
288,96,158338,1,0,0:0:0:0:
288,96,158400,1,0,0:0:0:0:
288,96,158462,1,8,0:0:0:0:
288,96,158708,1,8,0:0:0:0:
288,96,158955,1,8,0:0:0:0:
288,96,159202,1,8,0:0:0:0:
288,96,159449,1,8,0:0:0:0:
288,160,159696,1,4,0:0:0:0:
