osu file format v14

[General]
AudioFilename: audio.mp3
AudioLeadIn: 0
PreviewTime: 63183
Countdown: 0
SampleSet: Soft
StackLeniency: 0.5
Mode: 0
LetterboxInBreaks: 0
WidescreenStoryboard: 1

[Editor]
DistanceSpacing: 1.5
BeatDivisor: 4
GridSize: 4
TimelineZoom: 1.5

[Metadata]
Title:Kinmokusei (feat. Ado)
TitleUnicode:金木犀 (feat. Ado)
Artist:Kujira
ArtistUnicode:くじら
Creator:alevi
Version:ponbot's Expert
Source:
Tags:jpop j-pop japanese pop female vocalist whaledontsleep osmanthus アド froskya revialink ponbot yuuma3 suzuaki_rin godkei
BeatmapID:3544796
BeatmapSetID:1679541

[Difficulty]
HPDrainRate:5
CircleSize:3.5
OverallDifficulty:8.8
ApproachRate:9.3
SliderMultiplier:2.2
SliderTickRate:1

[Events]
//Background and Video events
0,0,"woahabg.jpg",0,0
//Break Periods
2,60700,61897
//Storyboard Layer 0 (Background)
//Storyboard Layer 1 (Fail)
//Storyboard Layer 2 (Pass)
//Storyboard Layer 3 (Foreground)
//Storyboard Layer 4 (Overlay)
//Storyboard Sound Samples

[TimingPoints]
1964,487.80487804878,4,2,1,25,1,0
2695,-333.333333333333,4,2,1,25,0,0
3426,-333.333333333333,4,2,1,25,0,0
3915,-333.333333333333,4,2,1,25,0,0
5377,-333.333333333333,4,2,1,25,0,0
5866,-333.333333333333,4,2,1,25,0,0
7329,-333.333333333333,4,2,1,25,0,0
7817,-333.333333333333,4,2,1,25,0,0
9280,-333.333333333333,4,2,1,25,0,0
9768,-200,4,2,1,40,0,0
17573,-83.3333333333333,4,2,1,75,0,0
33183,-100,4,2,1,65,0,0
39037,-55.5555555555556,4,2,1,65,0,0
39281,-62.5,4,2,1,65,0,0
39524,-71.4285714285714,4,2,1,65,0,0
39768,-83.3333333333333,4,2,1,65,0,0
40012,-62.5,4,2,1,65,0,0
40988,-100,4,2,1,65,0,0
48793,-100,4,2,1,75,0,0
54646,-66.6666666666667,4,2,1,75,0,0
55134,-71.4285714285714,4,2,1,75,0,0
55622,-76.9230769230769,4,2,1,75,0,0
56110,-83.3333333333333,4,2,1,75,0,0
56598,-76.9230769230769,4,2,1,75,0,0
60500,-76.9230769230769,4,2,1,70,0,0
62451,-62.5,4,2,1,75,0,0
64403,-66.6666666666667,4,2,1,85,0,0
69768,-55.5555555555556,4,2,1,85,0,0
70012,-47.6190476190476,4,2,1,85,0,0
70256,-50,4,2,1,85,0,0
70500,-100,4,2,1,85,0,0
70744,-55.5555555555556,4,2,1,85,0,0
70988,-100,4,2,1,85,0,0
71232,-58.8235294117647,4,2,1,85,0,0
71476,-100,4,2,1,85,0,0
71720,-55.5555555555556,4,2,1,85,0,0
72207,-66.6666666666667,4,2,1,85,0,0
74159,-58.8235294117647,4,2,1,85,0,0
75622,-71.4285714285714,4,2,1,85,0,0
75866,-90.9090909090909,4,2,1,85,0,0
76110,-66.6666666666667,4,2,1,85,0,0
76598,-100,4,2,1,85,0,0
77817,-83.3333333333333,4,2,1,85,0,0
78061,-83.3333333333333,4,2,1,75,0,0
93671,-66.6666666666667,4,2,1,65,0,0
101476,-83.3333333333333,4,2,1,70,0,0
107329,-71.4285714285714,4,2,1,70,0,0
107817,-76.9230769230769,4,2,1,70,0,0
108305,-83.3333333333333,4,2,1,70,0,0
108793,-90.9090909090909,4,2,1,70,0,0
109281,-83.3333333333333,4,2,1,75,0,0
117085,-71.4285714285714,4,2,1,80,0,0
124159,-62.5,4,2,1,80,0,0
124403,-55.5555555555556,4,2,1,80,0,0
124646,-50,4,2,1,80,0,0
124890,-45.4545454545455,4,2,1,80,0,0
126842,-66.6666666666667,4,2,1,90,0,0
130744,-50,4,2,1,90,0,0
130988,-100,4,2,1,90,0,0
131232,-55.5555555555556,4,2,1,90,0,0
131476,-100,4,2,1,90,0,0
131720,-62.5,4,2,1,90,0,0
131963,-100,4,2,1,90,0,0
132207,-55.5555555555556,4,2,1,90,0,0
132695,-66.6666666666667,4,2,1,90,0,0
134646,-55.5555555555556,4,2,1,90,0,0
137817,-55.5555555555556,4,2,1,45,0,0

[Colours]
Combo1 : 241,107,174
Combo2 : 237,150,179
Combo3 : 158,158,207

[HitObjects]
48,48,1963,5,2,0:0:0:0:
144,112,2329,1,2,0:0:0:0:
253,73,2695,2,0,P|272:48|341:28,1,98.9999969787599,2|0,0:0|0:0,0:0:0:0:
448,176,3915,5,2,0:0:0:0:
503,73,4281,1,2,0:0:0:0:
391,99,4646,2,0,P|412:164|418:207,1,98.9999969787599,2|0,0:0|0:0,0:0:0:0:
368,328,5866,5,2,0:0:0:0:
254,348,6232,1,2,0:0:0:0:
142,316,6598,2,0,P|100:317|44:341,1,98.9999969787599,2|0,0:0|0:0,0:0:0:0:
0,249,7817,5,2,0:0:0:0:
109,210,8183,1,2,0:0:0:0:
55,107,8549,2,0,P|67:53|83:10,1,98.9999969787599,2|0,0:0|0:0,0:0:0:0:
256,128,9768,6,0,L|237:224,1,82.5,2|2,1:2|0:0,0:0:0:0:
281,282,10256,1,0,1:0:0:0:
181,346,10500,5,2,0:0:0:0:
400,272,10744,1,0,1:0:0:0:
428,283,11232,1,0,1:0:0:0:
456,294,11720,2,0,P|442:247|421:199,1,82.5,2|2,1:2|0:0,0:0:0:0:
496,128,12207,5,0,1:0:0:0:
322,174,12451,1,2,0:0:0:0:
233,16,12695,1,0,1:0:0:0:
205,12,13183,1,0,1:0:0:0:
177,8,13671,6,0,P|149:49|127:85,1,82.5,2|2,1:2|0:0,0:0:0:0:
55,113,14159,1,0,1:0:0:0:
116,170,14403,1,2,0:0:0:0:
219,298,14646,1,0,1:0:0:0:
205,323,15134,5,2,1:2:0:0:
56,376,15378,1,2,0:0:0:0:
35,370,16354,5,2,0:0:0:0:
227,154,17573,6,0,P|250:260|263:369,1,197.99999395752,6|0,1:0|0:0,0:0:0:0:
361,189,18061,2,0,P|352:243|271:252,1,131.99999597168,10|2,1:2|3:2,0:0:0:0:
174,337,18427,1,2,0:0:0:0:
174,337,18549,6,0,P|135:283|98:253,1,87.9999973144532,0|0,1:0|0:0,0:0:0:0:
5,285,18793,2,0,B|-11:289|-3:311|-3:311|32:320|32:279,1,87.9999973144532,2|0,3:2|0:0,0:0:0:0:
63,204,19037,2,0,P|43:161|57:108,1,87.9999973144532,8|0,1:2|0:0,0:0:0:0:
100,55,19281,1,2,3:2:0:0:
273,99,19443,1,2,0:0:0:0:
348,64,19524,6,0,L|486:45,1,131.99999597168,2|0,1:2|3:0,0:0:0:0:
478,45,19890,1,0,0:0:0:0:
478,45,20012,2,0,L|458:143,1,65.9999979858399,8|0,1:2|0:0,0:0:0:0:
408,215,20256,1,2,3:2:0:0:
488,303,20378,2,0,P|415:300|383:358,1,131.99999597168,2|0,0:0|0:0,0:0:0:0:
311,384,20744,2,0,L|224:376,1,65.9999979858399,2|0,3:2|0:0,0:0:0:0:
26,257,20988,6,0,P|45:304|94:312,1,87.9999973144532,10|0,1:2|0:0,0:0:0:0:
149,348,21232,1,0,3:2:0:0:
209,297,21313,1,0,3:0:0:0:
190,220,21394,1,0,3:0:0:0:
110,208,21476,6,0,P|24:220|11:129,1,197.99999395752,2|0,1:2|0:0,0:0:0:0:
10,129,21963,2,0,P|69:102|60:20,1,131.99999597168,10|2,1:2|3:2,0:0:0:0:
168,124,22329,2,0,L|320:147,1,131.99999597168,2|0,0:0|0:0,0:0:0:0:
110,208,22695,2,0,L|175:217,1,65.9999979858399,2|0,3:2|0:0,0:0:0:0:
209,297,22939,1,8,1:2:0:0:
376,192,23183,1,2,3:2:0:0:
500,244,23346,5,2,0:0:0:0:
508,272,23427,1,2,1:2:0:0:
400,316,23590,1,2,0:0:0:0:
400,288,23671,1,2,3:2:0:0:
284,280,23833,1,2,0:0:0:0:
279,307,23914,1,10,1:2:0:0:
180,245,24077,1,2,0:0:0:0:
193,219,24158,1,2,3:2:0:0:
56,245,24321,6,0,P|90:272|114:308,1,87.9999973144532,2|0,0:0|0:0,0:0:0:0:
35,343,24565,5,2,0:0:0:0:
16,321,24647,1,2,3:2:0:0:
161,223,24809,1,2,0:0:0:0:
180,245,24891,1,2,1:2:0:0:
16,165,25053,1,2,1:2:0:0:
35,143,25135,1,2,1:2:0:0:
161,267,25297,1,2,1:2:0:0:
180,245,25378,6,0,P|196:151|111:88,1,197.99999395752,2|0,1:0|0:0,0:0:0:0:
124,89,25866,2,0,P|174:19|241:45,1,131.99999597168,10|2,1:2|3:2,0:0:0:0:
296,0,26232,1,2,0:0:0:0:
296,0,26354,6,0,L|404:21,1,87.9999973144532,0|0,1:0|0:0,0:0:0:0:
415,98,26598,2,0,L|342:181,1,87.9999973144532,2|0,3:2|0:0,0:0:0:0:
389,245,26842,2,0,L|476:262,1,87.9999973144532,8|0,1:2|0:0,0:0:0:0:
476,262,27085,1,2,3:2:0:0:
296,378,27248,1,2,0:0:0:0:
309,289,27329,6,0,L|109:323,1,197.99999395752,2|0,1:2|0:0,0:0:0:0:
43,369,27817,2,0,P|7:320|20:247,1,131.99999597168,8|2,1:2|3:2,0:0:0:0:
16,252,28183,2,0,P|94:199|68:125,1,131.99999597168,2|0,0:0|0:0,0:0:0:0:
16,252,28549,6,0,L|127:283,1,65.9999979858399,2|0,3:2|0:0,0:0:0:0:
149,339,28793,2,0,L|264:317,1,87.9999973144532,10|0,1:2|0:0,0:0:0:0:
296,271,29037,5,0,3:2:0:0:
338,337,29118,1,0,3:0:0:0:
414,355,29199,1,0,3:0:0:0:
483,315,29281,2,0,B|516:212|461:223|496:120,1,197.99999395752,2|0,1:2|0:0,0:0:0:0:
434,55,29768,2,0,P|372:48|349:107,1,131.99999597168,10|2,1:2|3:2,0:0:0:0:
276,164,30134,1,2,0:0:0:0:
276,164,30256,6,0,B|224:156|245:139|195:134,1,87.9999973144532,0|0,1:0|0:0,0:0:0:0:
121,75,30500,2,0,B|101:60|117:36|117:36|140:49|132:71,1,87.9999973144532,2|0,3:2|0:0,0:0:0:0:
88,154,30744,2,0,B|44:179|71:186|27:214,1,87.9999973144532,8|0,1:2|0:0,0:0:0:0:
11,223,30988,5,2,3:2:0:0:
91,322,31150,1,2,0:0:0:0:
104,296,31232,1,2,1:2:0:0:
231,285,31394,1,2,0:0:0:0:
244,311,31476,1,2,3:2:0:0:
313,204,31638,1,2,0:0:0:0:
286,195,31720,1,10,1:2:0:0:
233,79,31882,1,2,0:0:0:0:
259,67,31964,1,2,3:2:0:0:
84,39,32126,6,0,P|118:66|142:102,1,87.9999973144532,2|0,0:0|0:0,0:0:0:0:
92,182,32370,1,2,0:0:0:0:
66,170,32452,1,2,3:2:0:0:
259,67,32614,1,2,0:0:0:0:
285,79,32695,1,10,1:2:0:0:
231,285,32858,1,2,0:0:0:0:
205,273,32940,1,2,3:2:0:0:
398,170,33102,1,2,3:2:0:0:
423,181,33183,6,0,P|429:238|423:296,1,110,0|2,1:2|3:2,0:0:0:0:
332,342,33590,1,2,0:0:0:0:
332,342,33671,2,0,P|326:285|332:227,1,110,2|2,1:2|3:2,0:0:0:0:
251,170,34077,1,2,0:0:0:0:
251,170,34159,2,0,L|142:190,2,110,2|2|2,1:2|3:2|1:2,0:0:0:0:
352,25,34890,2,0,P|377:53|396:89,1,73.3333333333333,2|0,3:2|0:0,0:0:0:0:
394,84,35134,6,0,P|439:89|478:22,1,110,0|0,1:0|3:0,0:0:0:0:
250,13,35622,2,0,L|122:41,1,110,2|2,1:2|3:2,0:0:0:0:
87,107,36029,1,0,0:0:0:0:
87,107,36110,2,0,L|-26:90,2,110,2|2|0,1:2|3:2|1:0,0:0:0:0:
159,166,36760,1,2,0:0:0:0:
159,166,36842,2,0,P|166:203|160:249,1,73.3333333333333,2|0,3:2|0:0,0:0:0:0:
95,289,37085,6,0,P|161:287|194:328,1,110,0|2,1:2|3:2,0:0:0:0:
189,315,37573,2,0,P|173:367|178:391,1,73.3333333333333,2|0,1:2|0:0,0:0:0:0:
262,273,37817,2,0,L|249:194,1,73.3333333333333,2|0,3:2|0:0,0:0:0:0:
359,220,38061,2,0,P|395:230|463:187,2,110,2|2|2,1:2|3:2|1:2,0:0:0:0:
385,125,38711,1,0,0:0:0:0:
385,125,38792,2,0,P|394:83|375:44,1,73.3333333333333,2|0,3:2|0:0,0:0:0:0:
95,19,39037,6,0,P|109:85|167:106,1,131.99999597168,2|0,1:2|0:0,0:0:0:0:
193,101,39281,2,0,P|148:151|165:207,1,117.333333333333,2|0,3:2|0:0,0:0:0:0:
172,215,39524,2,0,P|107:222|81:262,1,102.666663533529,2|0,1:2|0:0,0:0:0:0:
80,269,39768,2,0,P|44:236|1:238,1,87.9999973144532,2|0,3:2|0:0,0:0:0:0:
0,241,40012,5,2,1:2:0:0:
141,338,40175,2,0,L|271:355,1,117.333333333333,2|0,0:0|0:0,0:0:0:0:
327,322,40419,1,2,0:0:0:0:
275,265,40500,2,0,P|385:254|392:192,1,176,0|0,1:0|3:0,0:0:0:0:
488,226,40988,6,0,L|475:134,1,73.3333333333333,0|2,1:2|0:0,0:0:0:0:
465,71,41232,2,0,P|435:50|397:44,1,73.3333333333333,2|2,3:2|0:0,0:0:0:0:
325,9,41476,2,0,L|236:28,1,73.3333333333333,2|0,1:2|0:0,0:0:0:0:
233,30,41720,1,2,3:2:0:0:
132,164,41963,6,0,L|50:149,1,73.3333333333333,2|0,1:2|0:0,0:0:0:0:
40,147,42207,1,2,3:2:0:0:
69,246,42370,2,0,L|178:266,1,110,2|2,0:0|0:0,0:0:0:0:
241,333,42695,2,0,P|199:353|167:379,1,73.3333333333333,2|0,3:2|0:0,0:0:0:0:
331,333,42939,5,0,1:0:0:0:
247,245,43102,1,2,0:0:0:0:
247,245,43183,2,0,L|175:266,1,73.3333333333333,2|0,3:2|0:0,0:0:0:0:
347,342,43427,5,2,1:2:0:0:
326,182,43590,1,2,0:0:0:0:
326,182,43671,2,0,L|238:157,1,73.3333333333333,0|2,3:0|0:0,0:0:0:0:
200,95,43915,5,2,1:2:0:0:
124,151,44037,1,2,0:0:0:0:
61,97,44159,1,2,3:2:0:0:
61,97,44281,1,2,0:0:0:0:
61,97,44403,2,0,P|80:45|117:6,1,110,0|2,1:0|3:2,0:0:0:0:
0,196,44890,6,0,P|65:205|88:260,1,110,0|0,1:2|3:0,0:0:0:0:
88,327,45297,1,0,0:0:0:0:
88,327,45378,1,0,1:0:0:0:
175,201,45622,5,0,3:0:0:0:
254,260,45785,1,0,0:0:0:0:
254,260,45866,2,0,L|385:275,1,110,0|0,1:0|3:0,0:0:0:0:
363,272,46354,2,0,L|475:213,1,110,0|2,1:0|3:2,0:0:0:0:
478,140,46842,5,2,1:2:0:0:
460,316,47085,1,2,3:2:0:0:
498,345,47329,5,2,1:2:0:0:
450,100,47573,1,2,3:2:0:0:
491,61,47817,5,2,1:2:0:0:
276,160,48061,1,2,3:2:0:0:
245,208,48305,5,2,1:2:0:0:
27,162,48468,1,8,1:3:0:0:
33,169,48549,1,0,1:0:0:0:
136,63,48711,1,0,1:0:0:0:
145,81,48793,6,0,P|130:120|115:182,1,73.3333333333333,2|2,1:0|0:0,0:0:0:0:
134,202,49037,2,0,P|119:241|104:303,1,73.3333333333333,2|0,3:2|0:0,0:0:0:0:
123,323,49281,1,10,1:2:0:0:
0,366,49524,6,0,P|18:327|52:320,1,73.3333333333333,2|2,3:2|0:0,0:0:0:0:
203,278,49768,2,0,P|237:292|278:297,1,73.3333333333333,2|0,1:2|0:0,0:0:0:0:
318,326,50012,2,0,P|351:316|396:308,1,73.3333333333333,2|0,3:2|0:0,0:0:0:0:
442,303,50256,1,10,1:2:0:0:
443,66,50419,1,2,0:0:0:0:
443,66,50500,1,0,3:0:0:0:
499,139,50622,5,2,0:0:0:0:
499,139,50744,2,0,P|445:150|391:139,1,110,2|2,1:2|3:2,0:0:0:0:
320,6,51150,2,0,L|198:20,1,110,2|2,0:0|0:0,0:0:0:0:
150,68,51476,2,0,L|58:55,1,73.3333333333333,2|0,3:2|0:0,0:0:0:0:
1,43,51720,5,2,1:2:0:0:
256,152,51963,1,2,3:2:0:0:
188,235,52207,5,8,1:2:0:0:
24,282,52451,1,0,3:0:0:0:
128,332,52695,6,0,L|226:348,1,73.3333333333333,2|2,1:2|0:0,0:0:0:0:
228,369,52939,1,2,3:2:0:0:
356,326,53102,1,2,0:0:0:0:
383,351,53183,2,0,L|455:339,1,73.3333333333333,10|2,1:2|0:0,0:0:0:0:
510,279,53427,2,0,P|510:242|496:193,1,73.3333333333333,2|2,3:2|0:0,0:0:0:0:
484,173,53671,5,2,1:2:0:0:
321,227,53915,1,2,3:2:0:0:
201,185,54077,1,2,0:0:0:0:
201,185,54159,2,0,L|129:196,1,73.3333333333333,8|0,1:2|0:0,0:0:0:0:
91,226,54403,2,0,P|80:190|65:157,1,73.3333333333333,2|2,3:2|0:0,0:0:0:0:
0,60,54646,6,0,L|175:79,1,165.000006294251,2|2,1:2|3:2,0:0:0:0:
225,234,55053,1,2,0:0:0:0:
217,243,55134,2,0,L|187:375,1,102.666663533529,10|0,1:2|0:0,0:0:0:0:
230,383,55378,2,0,L|340:349,1,102.666663533529,0|0,3:0|0:0,0:0:0:0:
374,276,55622,6,0,P|437:295|478:259,1,95.3333289693199,2|0,1:2|0:0,0:0:0:0:
495,250,55866,1,2,3:2:0:0:
351,161,56029,1,0,0:0:0:0:
351,161,56110,2,0,P|308:168|275:141,1,87.9999973144532,10|0,1:2|0:0,0:0:0:0:
226,78,56354,2,0,P|192:104|150:97,1,87.9999973144532,0|2,3:0|0:0,0:0:0:0:
32,32,56598,6,0,P|45:102|54:173,1,142.99999345398,2|2,1:0|3:2,0:0:0:0:
16,288,57004,1,0,0:0:0:0:
2,281,57085,2,0,P|64:258|110:300,1,95.3333289693199,10|0,1:2|0:0,0:0:0:0:
105,261,57329,2,0,P|133:284|136:347,1,95.3333289693199,2|2,3:2|0:0,0:0:0:0:
236,380,57573,6,0,P|234:321|248:217,1,142.99999345398,2|0,1:2|3:0,0:0:0:0:
276,4,58061,2,0,P|277:75|268:146,1,142.99999345398,10|2,1:2|3:2,0:0:0:0:
268,146,58549,6,0,P|316:143|366:148,1,95.3333289693199,2|0,1:2|0:0,0:0:0:0:
418,204,58793,2,0,P|466:201|516:206,1,95.3333289693199,2|0,3:2|0:0,0:0:0:0:
512,205,59037,1,10,1:2:0:0:
361,303,59281,1,2,3:2:0:0:
188,245,59524,2,0,L|25:269,1,142.99999345398,2|0,1:2|3:0,0:0:0:0:
134,97,59931,1,0,0:0:0:0:
134,97,60012,2,0,P|186:111|253:51,1,142.99999345398,10|2,1:2|3:2,0:0:0:0:
344,163,60378,1,2,0:0:0:0:
314,241,60500,5,2,0:0:0:0:
314,241,62451,6,0,B|304:196|261:181|261:181|287:208|389:205|414:127,2,264,8|8|10,1:2|1:2|1:2,0:0:0:0:
314,241,64403,6,0,B|408:260|387:227|477:248,1,165.000006294251,6|2,1:0|3:2,0:0:0:0:
230,287,64809,1,2,0:0:0:0:
215,302,64890,2,0,B|159:290|153:306|91:291,1,110.000004196167,10|0,1:2|0:0,0:0:0:0:
33,346,65134,2,0,P|14:280|27:229,1,110.000004196167,2|2,3:2|0:0,0:0:0:0:
66,164,65378,6,0,P|53:111|-8:110,1,110.000004196167,2|0,1:2|0:0,0:0:0:0:
21,240,65622,2,0,P|78:253|143:214,1,110.000004196167,10|2,3:2|0:0,0:0:0:0:
102,20,65866,2,0,P|68:2|96:28,1,110.000004196167,10|0,1:2|0:0,0:0:0:0:
123,234,66110,2,0,P|166:204|223:203,1,110.000004196167,2|0,3:2|0:0,0:0:0:0:
364,281,66354,6,0,P|278:296|183:322,2,165.000006294251,2|0|8,1:2|3:0|1:2,0:0:0:0:
302,384,67004,1,0,0:0:0:0:
302,384,67085,1,2,3:2:0:0:
485,275,67248,1,0,0:0:0:0:
469,292,67329,2,0,P|446:240|468:180,1,110.000004196167,0|0,1:0|0:0,0:0:0:0:
360,40,67573,6,0,P|383:92|361:152,1,110.000004196167,8|0,3:2|0:0,0:0:0:0:
235,216,67817,2,0,P|203:199|237:213,1,110.000004196167,10|0,1:2|0:0,0:0:0:0:
291,129,68061,2,0,L|265:271,1,110.000004196167,2|0,3:2|0:0,0:0:0:0:
409,377,68305,6,0,P|374:340|295:329,1,110.000004196167,2|0,1:2|0:0,0:0:0:0:
186,370,68549,2,0,L|54:353,1,110.000004196167,2|0,3:2|0:0,0:0:0:0:
10,308,68793,2,0,P|4:252|43:171,1,110.000004196167,8|0,1:2|0:0,0:0:0:0:
89,153,69037,1,2,3:2:0:0:
17,27,69159,2,0,L|226:74,1,165.000006294251,2|0,0:0|0:0,0:0:0:0:
230,148,69524,6,0,P|270:111|280:58,1,110.000004196167,10|0,3:2|0:0,0:0:0:0:
165,201,69768,6,0,P|229:203|282:166,1,131.99999597168,10|0,1:2|0:0,0:0:0:0:
80,191,70012,6,0,P|131:246|205:259,1,153.999995300293,2|0,3:2|0:0,0:0:0:0:
365,188,70256,6,0,P|361:291|318:313,1,146.666666666667,2|0,1:2|0:0,0:0:0:0:
266,360,70500,2,0,P|224:349|183:342,1,73.3333333333333,0|0,3:0|0:0,0:0:0:0:
116,373,70744,6,0,P|37:311|58:259,1,131.99999597168,8|0,1:2|0:0,0:0:0:0:
0,217,70988,2,0,P|13:165|22:126,1,73.3333333333333,2|0,3:2|0:0,0:0:0:0:
8,64,71232,6,0,P|27:98|110:119,1,124.666669044495,2|0,1:2|0:0,0:0:0:0:
263,81,71476,2,0,P|249:115|221:137,1,73.3333333333333,8|0,3:2|0:0,0:0:0:0:
160,0,71720,6,0,P|188:106|227:324,1,329.9999899292,10|0,1:2|0:0,0:0:0:0:
157,384,72207,6,0,P|134:306|196:261,1,165.000006294251,2|2,1:0|3:2,0:0:0:0:
352,344,72614,1,2,0:0:0:0:
336,373,72695,1,10,1:2:0:0:
298,242,72858,1,0,0:0:0:0:
328,253,72939,2,0,P|380:243|422:177,1,110.000004196167,2|2,3:2|0:0,0:0:0:0:
301,58,73183,6,0,P|311:111|331:163,1,110.000004196167,2|0,1:2|0:0,0:0:0:0:
477,273,73427,2,0,P|450:337|438:388,1,110.000004196167,10|2,3:2|0:0,0:0:0:0:
445,384,73671,2,0,P|459:331|481:280,1,110.000004196167,10|0,1:2|0:0,0:0:0:0:
278,355,73915,1,2,3:2:0:0:
65,294,74077,1,2,0:0:0:0:
76,297,74159,6,0,B|142:225|90:203|151:129,1,187.000003566742,2|0,1:2|3:0,0:0:0:0:
105,4,74524,2,0,P|31:27|43:132,1,187.000003566742,2|0,0:0|0:0,0:0:0:0:
0,222,74890,2,0,P|107:202|299:177,1,280.500005350113,2|0,3:2|0:0,0:0:0:0:
380,224,75378,6,0,P|439:228|478:179,1,124.666669044495,8|0,3:2|0:0,0:0:0:0:
385,118,75622,2,0,P|356:157|375:203,1,102.666663533529,10|0,1:2|0:0,0:0:0:0:
468,161,75866,2,0,P|451:126|413:121,1,80.6666691284181,2|0,3:2|0:0,0:0:0:0:
380,224,76110,6,0,P|402:288|327:361,1,165.000006294251,2|0,1:2|3:0,0:0:0:0:
268,384,76516,1,0,0:0:0:0:
268,384,76598,2,0,L|183:368,1,73.3333333333333,8|0,1:2|0:0,0:0:0:0:
84,345,76842,5,2,1:2:0:0:
84,345,77817,5,2,3:2:0:0:
156,314,77898,1,0,3:0:0:0:
169,235,77980,1,0,3:0:0:0:
108,184,78061,2,0,P|24:193|37:92,1,197.99999395752,6|0,1:0|0:0,0:0:0:0:
25,243,78549,2,0,P|6:333|-2:383,1,131.99999597168,10|2,1:2|3:2,0:0:0:0:
156,314,78915,1,2,0:0:0:0:
156,314,79037,6,0,B|268:302,1,87.9999973144532,0|0,1:0|0:0,0:0:0:0:
280,330,79281,2,0,B|392:318,1,87.9999973144532,2|0,3:2|0:0,0:0:0:0:
404,346,79524,1,8,1:2:0:0:
500,255,79768,1,2,3:2:0:0:
447,174,79930,1,2,0:0:0:0:
447,174,80011,6,0,P|421:137|465:57,1,131.99999597168,2|0,1:2|3:0,0:0:0:0:
483,32,80419,1,0,0:0:0:0:
483,32,80499,2,0,P|468:67|462:111,1,65.9999979858399,8|0,1:2|0:0,0:0:0:0:
405,204,80743,1,2,3:2:0:0:
501,291,80865,2,0,P|428:288|396:346,1,131.99999597168,2|0,0:0|0:0,0:0:0:0:
322,362,81231,2,0,L|229:348,1,65.9999979858399,2|0,3:2|0:0,0:0:0:0:
155,331,81475,6,0,P|160:288|156:241,1,87.9999973144532,10|0,1:2|0:0,0:0:0:0:
197,175,81719,1,0,3:2:0:0:
263,217,81800,1,0,3:0:0:0:
339,197,81881,1,0,3:0:0:0:
362,120,81963,6,0,P|350:40|248:56,1,197.99999395752,2|0,1:2|0:0,0:0:0:0:
112,11,82450,2,0,P|47:33|50:89,1,131.99999597168,10|2,1:2|3:2,0:0:0:0:
115,142,82816,2,0,P|95:214|79:303,1,131.99999597168,2|0,0:0|0:0,0:0:0:0:
26,341,83182,2,0,L|96:362,1,65.9999979858399,2|0,3:2|0:0,0:0:0:0:
89,359,83426,1,8,1:2:0:0:
198,318,83670,1,2,3:2:0:0:
303,367,83833,5,2,0:0:0:0:
331,375,83915,1,2,1:2:0:0:
289,256,84077,1,2,0:0:0:0:
261,264,84158,1,2,3:2:0:0:
336,163,84321,1,2,0:0:0:0:
364,171,84402,1,10,1:2:0:0:
322,52,84565,1,2,0:0:0:0:
294,60,84646,1,2,3:2:0:0:
417,89,84808,6,0,P|453:64|476:27,1,87.9999973144532,2|0,0:0|0:0,0:0:0:0:
491,155,85052,5,2,0:0:0:0:
465,169,85134,1,2,3:2:0:0:
370,252,85297,5,2,0:0:0:0:
399,261,85379,1,10,1:2:0:0:
258,270,85540,5,2,1:2:0:0:
244,244,85622,1,2,1:2:0:0:
160,149,85785,5,2,1:2:0:0:
152,177,85866,2,0,P|91:189|71:234,1,87.9999973144532,2|0,0:3|0:0,0:0:0:0:
61,227,86110,2,0,L|8:210,2,43.9999986572266,2|0|2,3:2|0:0|3:2,0:0:0:0:
97,315,86353,2,0,P|156:311|191:372,1,131.99999597168,6|2,1:0|3:2,0:0:0:0:
301,357,86719,1,2,0:0:0:0:
301,357,86841,6,0,L|389:344,1,87.9999973144532,0|0,1:0|0:0,0:0:0:0:
428,244,87085,2,0,L|327:260,1,87.9999973144532,2|0,3:2|0:0,0:0:0:0:
193,151,87329,2,0,L|280:168,1,87.9999973144532,8|0,1:2|0:0,0:0:0:0:
358,113,87572,1,2,3:2:0:0:
131,224,87735,1,2,0:0:0:0:
131,224,87816,6,0,P|97:177|110:98,1,131.99999597168,2|0,1:2|3:0,0:0:0:0:
104,106,88304,2,0,P|156:48|136:4,1,131.99999597168,8|2,1:2|3:2,0:0:0:0:
248,59,88670,2,0,L|392:85,1,131.99999597168,2|0,0:0|0:0,0:0:0:0:
377,82,89036,6,0,P|344:119|323:166,1,65.9999979858399,2|0,3:2|0:0,0:0:0:0:
443,278,89281,2,0,P|476:241|497:194,1,87.9999973144532,10|0,1:2|0:0,0:0:0:0:
476,129,89524,5,0,3:2:0:0:
411,174,89605,1,0,3:0:0:0:
363,236,89686,1,0,3:0:0:0:
342,313,89768,2,0,B|233:316|259:266|151:268,1,197.99999395752,2|0,1:2|0:0,0:0:0:0:
85,317,90256,2,0,P|23:324|0:265,1,131.99999597168,10|2,1:2|3:2,0:0:0:0:
36,197,90621,1,2,0:0:0:0:
36,197,90743,6,0,B|11:104,1,87.9999973144532,0|0,1:0|0:0,0:0:0:0:
132,54,90987,2,0,P|121:100|114:148,1,87.9999973144532,2|0,3:2|0:0,0:0:0:0:
216,118,91231,2,0,P|251:142|295:148,1,87.9999973144532,8|0,1:2|0:0,0:0:0:0:
378,118,91475,5,2,3:2:0:0:
239,259,91637,1,2,0:0:0:0:
225,234,91719,1,2,1:2:0:0:
396,270,91881,1,2,0:0:0:0:
391,299,91963,1,2,3:2:0:0:
276,170,92126,1,2,0:0:0:0:
295,148,92208,1,10,1:2:0:0:
313,322,92370,1,2,0:0:0:0:
284,327,92452,1,2,3:2:0:0:
373,177,92614,6,0,P|414:192|457:192,1,87.9999973144532,2|0,0:0|0:0,0:0:0:0:
288,65,92858,5,2,0:0:0:0:
288,65,92939,1,2,3:2:0:0:
184,160,93102,1,2,0:0:0:0:
184,160,93183,1,10,1:2:0:0:
57,111,93346,1,2,0:0:0:0:
57,111,93427,2,0,P|42:160|32:210,1,87.9999973144532,2|2,3:2|3:2,0:0:0:0:
19,295,93671,5,2,1:0:0:0:
19,295,94524,2,0,P|100:282|140:357,1,165.000006294251,2|0,1:2|0:0,0:0:0:0:
221,384,94890,2,0,P|236:296|252:245,1,82.5000031471254,2|0,1:2|0:0,0:0:0:0:
311,253,95134,1,8,0:0:0:0:
232,16,95622,5,2,1:2:0:0:
232,16,96476,2,0,P|244:67|348:73,1,165.000006294251,0|0,1:0|0:0,0:0:0:0:
443,26,96842,2,0,P|432:60|425:120,1,82.5000031471254,2|0,3:2|0:0,0:0:0:0:
490,163,97085,1,8,1:2:0:0:
243,356,97573,5,0,1:2:0:0:
243,356,98427,6,0,P|286:279|246:219,1,165.000006294251,2|0,1:2|0:0,0:0:0:0:
182,159,98793,2,0,P|118:174|57:175,1,82.5000031471254,2|0,1:2|0:0,0:0:0:0:
14,149,99037,1,8,0:0:0:0:
184,40,99281,1,2,3:2:0:0:
389,158,99524,5,2,1:2:0:0:
304,258,99687,1,0,3:0:0:0:
293,269,99769,2,0,L|276:151,1,110.000004196167,2|0,3:2|0:0,0:0:0:0:
196,126,100012,5,2,1:2:0:0:
283,17,100175,1,0,3:0:0:0:
272,28,100257,2,0,L|390:45,1,110.000004196167,2|2,3:2|0:0,0:0:0:0:
455,107,100500,5,0,1:2:0:0:
390,242,100663,1,0,3:0:0:0:
401,253,100745,2,0,L|283:270,1,110.000004196167,0|0,3:0|0:0,0:0:0:0:
227,330,100988,6,0,L|94:312,1,110.000004196167,4|8,1:3|1:3,0:0:0:0:
40,359,101232,2,0,P|31:303|16:248,1,110.000004196167,0|0,1:0|1:0,0:0:0:0:
55,176,101476,5,2,1:0:0:0:
213,222,101720,2,0,L|236:132,1,87.9999973144532,2|0,3:2|0:0,0:0:0:0:
271,113,101963,1,10,1:2:0:0:
169,23,102207,2,0,P|127:56|76:41,1,87.9999973144532,2|2,3:2|0:0,0:0:0:0:
55,32,102451,6,0,P|65:115|23:162,1,131.99999597168,2|2,1:2|3:2,0:0:0:0:
101,221,102858,1,2,0:0:0:0:
101,221,102939,1,8,1:2:0:0:
0,307,103102,2,0,P|61:294|109:357,1,131.99999597168,2|2,0:0|0:0,0:0:0:0:
184,380,103427,6,0,L|281:362,1,87.9999973144532,0|0,1:0|0:0,0:0:0:0:
314,356,103671,1,2,3:2:0:0:
216,264,103833,1,2,0:0:0:0:
216,264,103915,2,0,L|314:242,1,87.9999973144532,10|0,1:2|0:0,0:0:0:0:
340,266,104159,2,0,L|438:244,1,87.9999973144532,2|0,3:2|0:0,0:0:0:0:
510,278,104403,6,0,P|508:212|484:151,1,131.99999597168,2|2,1:2|3:2,0:0:0:0:
497,65,104809,1,2,0:0:0:0:
497,65,104890,2,0,P|495:116|476:164,1,87.9999973144532,10|0,1:2|0:0,0:0:0:0:
402,161,105134,1,2,3:2:0:0:
285,78,105297,1,2,0:0:0:0:
270,68,105378,2,0,L|115:87,1,131.99999597168,2|0,1:2|3:0,0:0:0:0:
208,249,105866,2,0,L|363:268,1,131.99999597168,8|0,1:2|3:0,0:0:0:0:
146,131,106272,5,2,0:0:0:0:
131,121,106354,2,0,L|-24:140,2,131.99999597168,0|2|8,1:0|3:2|1:2,0:0:0:0:
80,244,107004,1,0,0:0:0:0:
80,244,107085,2,0,P|67:292|69:338,1,87.9999973144532,0|0,3:0|0:0,0:0:0:0:
147,377,107329,6,0,P|214:352|227:303,1,102.666663533529,0|2,1:0|0:0,0:0:0:0:
225,275,107573,2,0,P|267:303|322:296,1,102.666663533529,2|0,3:2|0:0,0:0:0:0:
401,359,107817,6,0,L|413:257,1,95.3333289693199,8|2,1:2|0:0,0:0:0:0:
456,244,108061,2,0,L|468:142,1,95.3333289693199,2|0,3:2|0:0,0:0:0:0:
397,76,108305,6,0,B|358:99|358:99|312:84,1,87.9999973144532,2|0,1:2|0:0,0:0:0:0:
283,113,108549,2,0,B|244:136|244:136|198:121,1,87.9999973144532,2|2,3:2|0:0,0:0:0:0:
148,56,108793,6,0,B|124:23|124:23|115:71,1,80.6666691284181,10|0,1:2|0:0,0:0:0:0:
10,189,109037,2,0,B|33:221|33:221|42:173,1,80.6666691284181,2|0,3:2|3:0,0:0:0:0:
20,78,109281,6,0,P|65:131|147:276,1,219.999993286133,2|0,1:0|0:0,0:0:0:0:
140,260,109768,2,0,P|109:317|98:358,1,87.9999973144532,8|0,1:2|0:0,0:0:0:0:
176,384,110012,1,2,3:2:0:0:
308,316,110134,2,0,P|361:354|427:326,1,131.99999597168,2|0,0:0|0:0,0:0:0:0:
503,338,110500,2,0,P|488:289|472:248,1,87.9999973144532,2|0,3:2|0:0,0:0:0:0:
438,182,110744,2,0,P|453:133|469:92,1,87.9999973144532,8|0,1:2|0:0,0:0:0:0:
484,90,110988,1,2,3:2:0:0:
376,20,111150,5,2,0:0:0:0:
359,13,111232,2,0,L|209:37,1,131.99999597168,2|0,1:2|3:0,0:0:0:0:
142,25,111598,1,2,0:0:0:0:
176,104,111720,1,8,1:2:0:0:
359,13,111963,2,0,P|334:46|324:102,1,87.9999973144532,2|0,3:2|0:0,0:0:0:0:
256,152,112207,6,0,P|296:189|302:272,1,131.99999597168,0|2,1:0|3:2,0:0:0:0:
216,241,112614,1,0,0:0:0:0:
216,241,112695,2,0,L|194:348,1,87.9999973144532,8|0,1:2|0:0,0:0:0:0:
193,349,112939,1,2,3:2:0:0:
74,379,113102,5,0,0:0:0:0:
74,379,113183,2,0,P|4:343|5:292,1,131.99999597168,0|2,1:0|3:2,0:0:0:0:
69,238,113590,1,0,0:0:0:0:
69,238,113671,2,0,P|76:188|89:122,1,87.9999973144532,8|0,1:2|0:0,0:0:0:0:
72,133,113915,1,2,3:2:0:0:
229,169,114077,1,2,0:0:0:0:
299,113,114159,2,0,L|449:93,2,131.99999597168,2|2|8,1:2|3:2|1:2,0:0:0:0:
191,10,114890,6,0,L|90:-2,1,87.9999973144532,2|0,3:2|0:0,0:0:0:0:
83,9,115134,1,0,1:0:0:0:
0,161,115378,6,0,L|101:147,1,87.9999973144532,2|0,3:2|0:0,0:0:0:0:
107,157,115622,1,8,1:2:0:0:
221,289,115866,6,0,L|118:275,1,87.9999973144532,2|2,3:2|0:0,0:0:0:0:
114,288,116110,1,0,1:0:0:0:
324,359,116354,6,0,L|310:258,1,87.9999973144532,2|0,3:2|0:0,0:0:0:0:
386,219,116598,2,0,L|397:306,1,87.9999973144532,8|0,1:2|0:0,0:0:0:0:
485,328,116842,2,0,L|471:227,1,87.9999973144532,2|0,3:2|0:0,0:0:0:0:
312,25,117085,6,0,B|233:30|186:142|293:196|293:196|401:246|441:159|360:113|293:196|293:196|249:266|278:356|278:356|259:308|211:302,1,718.666644734701,2|0,1:0|0:0,0:0:0:0:
218,306,118305,2,0,P|159:321|137:355,1,102.666663533529,2|0,3:2|0:0,0:0:0:0:
133,368,118549,2,0,P|49:361|78:223,1,256.666658833822,10|0,1:2|0:0,0:0:0:0:
85,223,119037,6,0,B|144:223|164:174|164:174|191:68|73:40|46:162|164:174|164:174|191:142|231:147,1,410.666654134115,2|0,1:2|0:0,0:0:0:0:
228,145,119768,2,0,B|287:145|307:194|334:300|216:328|189:206|307:194|307:194,1,256.666658833822,2|0,3:2|0:0,0:0:0:0:
314,199,120256,2,0,P|345:207|370:142,1,102.666663533529,2|0,3:2|0:0,0:0:0:0:
370,140,120500,2,0,P|356:89|397:55,1,102.666663533529,10|0,1:2|0:0,0:0:0:0:
403,57,120744,2,0,P|430:36|400:52,1,102.666663533529,2|0,3:2|0:0,0:0:0:0:
276,65,120988,6,0,B|244:66|241:34|241:34|269:20|286:45,1,102.666663533529,2|0,1:2|0:0,0:0:0:0:
466,168,121232,2,0,B|498:169|501:137|501:137|473:123|456:148,1,102.666663533529,2|0,3:2|0:0,0:0:0:0:
277,274,121476,1,8,1:2:0:0:
276,273,121720,2,0,B|252:288|266:316|266:316|298:313|297:281,1,102.666663533529,2|0,3:2|0:0,0:0:0:0:
337,192,121963,6,0,B|351:175|333:166|341:145|341:145|327:158|315:173|329:192,1,102.666663533529,0|0,1:0|0:0,0:0:0:0:
192,79,122207,2,0,B|180:59|167:74|149:60|149:60|157:77|167:93|189:85,1,102.666663533529,2|0,3:2|0:0,0:0:0:0:
57,131,122451,2,0,B|35:135|44:153|26:165|26:165|45:163|62:158|62:135,1,102.666663533529,10|0,1:2|0:0,0:0:0:0:
67,239,122695,2,0,B|54:257|73:263|69:285|69:285|81:270|90:254|74:237,1,102.666663533529,2|0,3:2|0:0,0:0:0:0:
137,184,122939,5,2,1:2:0:0:
16,360,123102,1,0,0:0:0:0:
16,360,123183,2,0,L|120:378,1,102.666663533529,2|0,3:2|0:0,0:0:0:0:
186,343,123427,2,0,L|254:335,1,51.3333317667644,10|0,1:2|0:0,0:0:0:0:
304,299,123590,1,0,0:0:0:0:
373,330,123671,2,0,P|395:261|368:208,1,102.666663533529,2|0,3:2|0:0,0:0:0:0:
434,172,123915,6,0,P|449:140|427:168,1,102.666663533529,0|0,1:0|0:0,0:0:0:0:
282,176,124159,6,0,P|299:212|275:180,1,117.333333333333,2|0,3:2|0:0,0:0:0:0:
159,80,124403,6,0,P|139:39|166:75,1,131.99999597168,10|0,1:2|0:0,0:0:0:0:
27,212,124646,6,0,P|27:261|17:213,1,146.666666666667,2|0,3:2|0:0,0:0:0:0:
125,195,124890,6,0,B|133:194|135:185|135:185|133:173|133:173|136:166|143:166|143:166|169:171|169:171|163:174|161:181,1,80.6666691284181,2|0,0:0|0:0,0:0:0:0:
162,182,126842,6,0,P|217:179|261:210,1,110.000004196167,6|0,1:0|0:0,0:0:0:0:
294,286,127085,2,0,P|346:268|412:273,1,110.000004196167,0|0,3:0|0:0,0:0:0:0:
476,235,127329,1,8,1:2:0:0:
360,366,127492,1,0,0:0:0:0:
340,377,127573,2,0,L|213:361,1,110.000004196167,2|0,3:2|0:0,0:0:0:0:
149,351,127817,5,0,1:0:0:0:
260,209,128061,2,0,P|279:130|258:92,1,110.000004196167,0|0,3:2|0:0,0:0:0:0:
192,49,128305,2,0,L|79:70,1,110.000004196167,10|0,1:2|0:0,0:0:0:0:
4,152,128549,2,0,L|117:173,1,110.000004196167,2|0,3:2|0:0,0:0:0:0:
112,172,128793,6,0,P|65:194|55:288,1,110.000004196167,2|0,1:2|0:0,0:0:0:0:
149,351,129037,2,0,B|195:348|214:306|214:306|250:340|300:329,1,165.000006294251,2|8,3:2|1:2,0:0:0:0:
450,187,129443,1,0,0:0:0:0:
450,187,129524,1,2,3:2:0:0:
415,275,129646,6,0,B|336:254|336:254|310:202|358:161,1,165.000006294251,2|0,0:0|0:0,0:0:0:0:
398,110,130012,2,0,B|419:58|419:58|364:75,1,110.000004196167,2|0,3:2|0:0,0:0:0:0:
209,3,130256,2,0,P|227:57|239:144,1,110.000004196167,10|0,1:2|0:0,0:0:0:0:
236,109,130500,1,2,3:2:0:0:
125,257,130663,5,0,0:0:0:0:
125,257,130744,2,0,P|38:227|55:149,1,146.666666666667,2|0,1:2|0:0,0:0:0:0:
100,135,130988,2,0,P|134:145|179:161,1,73.3333333333333,0|0,3:0|0:0,0:0:0:0:
201,327,131232,6,0,P|237:288|308:304,1,131.99999597168,8|0,1:2|0:0,0:0:0:0:
389,280,131476,2,0,P|414:333|407:349,1,73.3333333333333,2|0,3:2|0:0,0:0:0:0:
266,371,131720,6,0,P|275:310|287:246,1,117.333333333333,2|0,1:2|0:0,0:0:0:0:
336,189,131963,2,0,P|325:108|321:84,1,73.3333333333333,0|0,3:2|0:0,0:0:0:0:
150,121,132207,6,0,B|241:153|255:44|255:44|352:-17|403:77,1,329.9999899292,10|0,1:2|0:0,0:0:0:0:
487,50,132695,6,0,P|484:112|440:155,1,110.000004196167,2|0,1:0|0:0,0:0:0:0:
416,221,132939,2,0,P|429:271|440:331,1,110.000004196167,2|2,3:2|0:0,0:0:0:0:
347,301,133183,1,10,1:2:0:0:
256,372,133346,1,0,0:0:0:0:
256,372,133427,1,2,3:2:0:0:
165,301,133590,1,2,0:0:0:0:
165,301,133671,6,0,L|23:282,1,110.000004196167,2|0,1:2|0:0,0:0:0:0:
0,212,133915,2,0,L|142:193,1,110.000004196167,2|2,3:2|0:0,0:0:0:0:
165,123,134159,1,10,1:2:0:0:
237,35,134321,1,0,0:0:0:0:
237,35,134403,2,0,L|377:19,1,110.000004196167,2|2,3:2|0:0,0:0:0:0:
504,153,134646,6,0,B|463:153|429:134|429:134|391:160|391:160|356:139|314:141,1,197.99999395752,2|0,1:2|3:0,0:0:0:0:
218,248,135012,2,0,B|145:225|145:225|96:164|174:117,1,197.99999395752,2|0,0:0|0:0,0:0:0:0:
302,228,135378,2,0,P|245:277|385:303,1,296.99999093628,2|0,3:2|0:0,0:0:0:0:
390,241,135866,5,0,3:2:0:0:
152,359,136110,2,0,B|139:347|139:347|17:333,1,131.99999597168,10|0,1:2|0:0,0:0:0:0:
10,345,136354,2,0,P|70:336|72:267,1,131.99999597168,2|0,3:2|0:0,0:0:0:0:
142,162,136598,5,2,1:2:0:0:
19,75,136760,1,0,0:0:0:0:
29,71,136842,2,0,B|40:86|40:86|14:183|14:183|25:199,1,131.99999597168,0|0,3:0|0:0,0:0:0:0:
77,274,137085,5,8,1:2:0:0:
302,228,137329,1,2,1:2:0:0:
