osu file format v14

[General]
AudioFilename: audio.mp3
AudioLeadIn: 0
PreviewTime: 63183
Countdown: 0
SampleSet: Soft
StackLeniency: 0.5
Mode: 0
LetterboxInBreaks: 0
WidescreenStoryboard: 1

[Editor]
Bookmarks: 33233,48843,93721,101526
DistanceSpacing: 1.4
BeatDivisor: 8
GridSize: 16
TimelineZoom: 1.4

[Metadata]
Title:Kinmokusei (feat. Ado)
TitleUnicode:金木犀 (feat. Ado)
Artist:Kujira
ArtistUnicode:くじら
Creator:alevi
Version:Suzuaki_Rin's Hard
Source:
Tags:jpop j-pop japanese pop female vocalist whaledontsleep osmanthus アド froskya revialink ponbot yuuma3 suzuaki_rin godkei
BeatmapID:3527808
BeatmapSetID:1679541

[Difficulty]
HPDrainRate:3.5
CircleSize:3.5
OverallDifficulty:6
ApproachRate:7
SliderMultiplier:1.5
SliderTickRate:1

[Events]
//Background and Video events
0,0,"woahabg.jpg",0,0
//Break Periods
//Storyboard Layer 0 (Background)
//Storyboard Layer 1 (Fail)
//Storyboard Layer 2 (Pass)
//Storyboard Layer 3 (Foreground)
//Storyboard Layer 4 (Overlay)
//Storyboard Sound Samples

[TimingPoints]
1964,487.80487804878,4,2,1,25,1,0
1964,-111.111111111111,4,2,1,25,0,0
9767,-111.111111111111,4,2,1,40,0,0
16596,-111.111111111111,4,2,1,40,0,0
17573,-100,4,2,1,75,0,0
33183,-100,4,2,1,65,0,0
48793,-100,4,2,1,75,0,0
60500,-100,4,2,1,70,0,0
62451,-100,4,2,1,75,0,0
64403,-90.9090909090909,4,2,1,85,0,1
76842,-90.9090909090909,4,2,1,85,0,0
78061,-100,4,2,1,75,0,0
93671,-100,4,2,1,65,0,0
101476,-100,4,2,1,70,0,0
109281,-100,4,2,1,75,0,0
117085,-100,4,2,1,80,0,0
126842,-90.9090909090909,4,2,1,90,0,1
137329,-90.9090909090909,4,2,1,90,0,0
137817,-90.9090909090909,4,2,1,45,0,0

[Colours]
Combo1 : 241,107,174
Combo2 : 237,150,179
Combo3 : 158,158,207

[HitObjects]
225,66,1964,6,0,L|104:51,2,101.249996910095,2|2|2,0:0|0:0|0:0,0:0:0:0:
260,119,3914,2,0,L|154:106,2,101.249996910095,2|2|2,0:0|0:0|0:0,0:0:0:0:
386,57,5865,6,0,L|507:42,2,101.249996910095,2|2|2,0:0|0:0|0:0,0:0:0:0:
351,110,7816,2,0,L|471:95,2,101.249996910095,2|2|2,0:0|0:0|0:0,0:0:0:0:
178,351,9767,6,0,L|76:360,1,101.249996910095,2|2,1:2|0:0,0:0:0:0:
55,344,10255,2,0,P|43:314|53:271,1,67.4999979400635,0|2,1:0|0:0,0:0:0:0:
94,205,10743,1,0,1:0:0:0:
97,211,11231,1,0,1:0:0:0:
157,46,11719,6,0,L|259:37,1,101.249996910095,2|2,1:2|0:0,0:0:0:0:
281,54,12207,2,0,P|293:83|282:126,1,67.4999979400635,0|2,1:0|0:0,0:0:0:0:
238,186,12695,1,0,1:0:0:0:
241,192,13183,1,0,1:0:0:0:
311,344,13670,6,0,P|364:354|423:320,1,101.249996910095,2|2,1:2|0:0,0:0:0:0:
429,322,14158,2,0,L|421:237,1,67.4999979400635,0|2,1:0|0:0,0:0:0:0:
358,194,14645,1,0,1:0:0:0:
360,202,15133,1,2,1:2:0:0:
275,176,15377,1,2,0:0:0:0:
206,322,16353,2,0,L|124:330,1,67.4999979400635,2|0,0:0|0:0,0:0:0:0:
63,67,17573,6,0,L|148:58,1,75,6|2,1:0|3:2,0:0:0:0:
228,94,18060,2,0,P|250:135|237:182,1,75,10|2,1:2|3:2,0:0:0:0:
230,187,18426,1,2,0:0:0:0:
95,245,18792,2,0,L|104:328,1,75,2|8,3:2|1:2,0:0:0:0:
198,342,19280,2,0,B|219:330|219:330|262:342,1,50,2|2,3:2|0:0,0:0:0:0:
268,357,19523,6,0,P|306:363|357:342,1,75,2|0,1:2|3:0,0:0:0:0:
433,321,20011,2,0,L|424:222,1,75,8|2,1:2|3:2,0:0:0:0:
440,219,20377,1,2,0:0:0:0:
481,78,20743,1,2,3:2:0:0:
393,34,20987,1,10,1:2:0:0:
302,71,21231,2,0,B|314:94|314:94|303:132,1,50,0|0,3:2|3:0,0:0:0:0:
283,139,21475,6,0,P|247:149|210:143,1,75,2|2,1:2|3:2,0:0:0:0:
142,74,21962,2,0,L|41:82,1,75,10|2,1:2|3:2,0:0:0:0:
45,100,22328,1,2,0:0:0:0:
6,241,22694,1,2,3:2:0:0:
37,333,22938,1,8,1:2:0:0:
127,369,23182,2,0,B|141:348|141:348|131:319,1,50,2|2,3:2|0:0,0:0:0:0:
151,297,23426,6,0,L|262:293,1,75,2|2,1:2|3:2,0:0:0:0:
301,231,23914,1,10,1:2:0:0:
221,174,24158,2,0,B|207:153|207:153|217:124,1,50,2|2,3:2|0:0,0:0:0:0:
315,47,24645,1,2,3:2:0:0:
406,12,24889,1,2,1:2:0:0:
483,70,25133,1,2,1:2:0:0:
425,148,25377,6,0,P|422:187|434:223,1,75,2|2,1:0|3:2,0:0:0:0:
483,304,25865,2,0,L|380:313,1,75,10|2,1:2|3:2,0:0:0:0:
384,291,26231,1,2,0:0:0:0:
320,159,26597,2,0,L|309:54,1,75,2|8,3:2|1:2,0:0:0:0:
228,34,27084,2,0,B|203:27|203:27|182:39,1,50,2|2,3:2|0:0,0:0:0:0:
159,62,27328,6,0,P|134:71|71:57,1,75,2|0,1:2|3:0,0:0:0:0:
5,120,27816,2,0,L|10:205,1,75,8|2,1:2|3:2,0:0:0:0:
30,216,28182,1,2,0:0:0:0:
170,145,28548,1,2,3:2:0:0:
250,200,28792,1,10,1:2:0:0:
318,130,29036,2,0,B|343:137|343:137|364:125,1,50,0|0,3:2|3:0,0:0:0:0:
396,129,29280,6,0,P|416:164|415:208,1,75,2|2,1:2|3:2,0:0:0:0:
372,284,29767,2,0,L|292:293,1,75,10|2,1:2|3:2,0:0:0:0:
274,312,30133,1,2,0:0:0:0:
132,349,30499,1,2,3:2:0:0:
55,288,30743,1,8,1:2:0:0:
103,203,30987,2,0,B|115:182|115:182|108:157,1,50,2|2,3:2|0:0,0:0:0:0:
81,138,31231,6,0,L|87:43,1,75,2|2,1:2|3:2,0:0:0:0:
170,13,31719,1,10,1:2:0:0:
243,76,31962,2,0,B|231:97|231:97|238:122,1,50,2|2,3:2|0:0,0:0:0:0:
347,192,32450,1,2,3:2:0:0:
438,152,32694,1,10,1:2:0:0:
493,234,32938,2,0,P|499:259|486:275,1,37.5,2|2,3:2|3:2,0:0:0:0:
483,297,33182,6,0,P|451:307|399:300,1,75,0|2,1:2|3:2,0:0:0:0:
332,268,33670,1,2,1:2:0:0:
332,268,33914,1,2,3:2:0:0:
279,194,34158,2,0,L|284:117,1,75,2|2,1:2|3:2,0:0:0:0:
272,91,34524,2,0,P|233:83|197:86,1,75,2|0,0:0|0:0,0:0:0:0:
174,104,34889,1,2,3:2:0:0:
90,70,35133,6,0,P|82:109|96:157,1,75,0|0,1:0|3:0,0:0:0:0:
161,205,35621,1,2,1:2:0:0:
161,205,35865,1,2,3:2:0:0:
248,225,36109,2,0,L|337:222,1,75,2|2,1:2|3:2,0:0:0:0:
351,212,36475,2,0,P|354:177|337:128,1,75,2|0,0:0|0:0,0:0:0:0:
318,121,36841,1,2,3:2:0:0:
336,33,37084,6,0,L|439:27,1,75,0|2,1:2|3:2,0:0:0:0:
477,89,37572,1,2,1:2:0:0:
477,89,37816,1,2,3:2:0:0:
422,160,38060,2,0,P|420:197|432:237,1,75,2|2,1:2|3:2,0:0:0:0:
499,290,38548,2,0,P|509:325|507:363,1,75,2|2,1:2|3:2,0:0:0:0:
422,332,39036,6,0,B|387:335|387:335|378:340|378:340|339:345,1,75,2|2,1:2|3:2,0:0:0:0:
266,305,39523,1,2,1:2:0:0:
266,305,39767,1,2,3:2:0:0:
323,235,40011,1,2,1:2:0:0:
304,211,40133,2,0,P|291:170|309:112,1,75,2|2,0:0|0:0,0:0:0:0:
316,117,40499,2,0,L|305:30,1,75,0|0,1:0|3:0,0:0:0:0:
212,14,40987,6,0,L|116:22,1,75,0|2,1:2|3:2,0:0:0:0:
112,34,41353,1,0,0:0:0:0:
112,34,41475,2,0,P|106:74|116:106,1,75,2|2,1:2|3:2,0:0:0:0:
190,157,41964,2,0,L|198:253,1,75,2|2,1:2|3:2,0:0:0:0:
189,261,42328,2,0,P|153:271|116:265,1,75,2|0,0:0|0:0,0:0:0:0:
89,252,42694,1,2,3:2:0:0:
25,188,42938,6,0,L|18:113,1,75,0|2,1:0|3:2,0:0:0:0:
38,24,43426,1,2,1:2:0:0:
38,24,43670,1,0,3:0:0:0:
119,62,43914,2,0,L|183:58,3,37.5,2|0|2|0,1:2|0:0|3:2|0:0,0:0:0:0:
180,78,44402,1,0,1:0:0:0:
249,20,44645,2,0,L|306:16,1,37.5,2|0,3:2|0:0,0:0:0:0:
313,30,44889,6,0,P|340:80|322:139,1,112.5,0|0,1:2|0:0,0:0:0:0:
305,152,45377,2,0,L|226:158,1,75,0|0,1:0|3:0,0:0:0:0:
162,217,45865,1,0,1:0:0:0:
265,364,46353,1,0,1:0:0:0:
323,295,46597,1,2,3:2:0:0:
410,317,46841,6,0,L|496:310,1,75,2|2,1:2|3:2,0:0:0:0:
511,224,47328,2,0,P|511:191|493:147,1,75,2|2,1:2|3:2,0:0:0:0:
442,86,47816,1,2,1:2:0:0:
442,86,48060,1,2,3:2:0:0:
354,128,48304,2,0,P|336:134|319:127,1,37.5,2|0,1:2|3:0,0:0:0:0:
299,104,48548,2,0,P|282:96|264:102,1,37.5,0|2,1:0|3:2,0:0:0:0:
241,121,48792,6,0,L|234:185,2,37.5,2|0|2,1:0|0:0|3:2,0:0:0:0:
167,56,49280,2,0,L|69:49,1,75,10|2,1:2|3:2,0:0:0:0:
9,102,49767,1,2,1:2:0:0:
89,156,50011,1,2,3:2:0:0:
26,231,50255,1,10,1:2:0:0:
27,260,50377,2,0,L|33:346,1,75,2|2,0:0|0:0,0:0:0:0:
56,353,50743,6,0,P|91:361|141:343,1,75,2|2,1:2|3:2,0:0:0:0:
150,330,51109,2,0,L|210:326,1,37.5,0|8,0:0|1:2,0:0:0:0:
242,246,51475,1,2,3:2:0:0:
178,172,51719,1,2,1:2:0:0:
240,98,51964,2,0,L|327:92,1,75,2|8,3:2|1:2,0:0:0:0:
393,34,52450,1,0,3:0:0:0:
481,81,52694,6,0,L|488:144,1,37.5,2|0,1:2|0:0,0:0:0:0:
459,135,52938,2,0,L|466:198,1,37.5,2|0,3:2|0:0,0:0:0:0:
443,195,53182,1,10,1:2:0:0:
464,294,53426,1,2,3:2:0:0:
464,294,53548,1,0,0:0:0:0:
464,294,53670,2,0,L|389:299,1,75,2|2,1:2|3:2,0:0:0:0:
363,283,54036,2,0,L|301:288,1,37.5,2|8,0:0|1:2,0:0:0:0:
258,214,54402,1,2,3:2:0:0:
258,214,54523,1,0,0:0:0:0:
258,214,54645,6,0,L|253:139,1,75,2|2,1:2|3:2,0:0:0:0:
205,50,55133,2,0,P|168:47|126:63,1,75,10|0,1:2|3:0,0:0:0:0:
106,76,55499,1,2,0:0:0:0:
106,76,55621,2,0,L|111:151,1,75,2|2,1:2|3:2,0:0:0:0:
55,231,56109,2,0,L|60:306,1,75,10|0,1:2|3:0,0:0:0:0:
76,330,56475,1,0,0:0:0:0:
76,330,56597,6,0,P|112:338|149:324,1,75,2|2,1:0|3:2,0:0:0:0:
231,276,57084,2,0,L|334:267,1,75,10|2,1:2|3:2,0:0:0:0:
329,288,57450,1,0,0:0:0:0:
329,288,57572,2,0,L|432:279,1,75,2|0,1:2|3:0,0:0:0:0:
492,239,58060,1,10,1:2:0:0:
405,193,58304,1,2,3:2:0:0:
485,138,58548,6,0,P|490:101|469:50,1,75,2|2,1:2|3:2,0:0:0:0:
388,28,59036,2,0,L|313:34,1,75,10|2,1:2|3:2,0:0:0:0:
237,95,59523,1,2,1:2:0:0:
290,282,60011,1,10,1:2:0:0:
232,360,60255,1,2,3:2:0:0:
145,315,60499,6,0,B|112:368|39:356|39:356|62:288|0:236,1,225,2|2,0:0|0:0,0:0:0:0:
117,235,61475,2,0,P|156:229|194:249,2,75,2|2|2,0:0|0:0|0:0,0:0:0:0:
44,170,62206,1,2,0:0:0:0:
120,109,62450,6,0,L|100:-9,2,112.5,8|8|10,1:2|1:2|1:2,0:0:0:0:
287,349,63914,2,0,P|284:330|294:314,1,37.5,2|0,3:2|3:0,0:0:0:0:
320,299,64158,2,0,P|330:283|328:264,1,37.5,2|0,3:2|3:0,0:0:0:0:
309,238,64403,6,0,L|189:248,1,82.5000025177003,6|2,1:0|3:2,0:0:0:0:
201,232,64768,1,2,0:0:0:0:
201,232,64889,2,0,L|81:242,1,82.5000025177003,10|2,1:2|3:2,0:0:0:0:
31,175,65377,2,0,P|21:135|26:94,1,82.5000025177003,2|10,1:2|3:2,0:0:0:0:
54,74,65743,1,2,0:0:0:0:
54,74,65865,1,10,1:2:0:0:
142,13,66109,1,2,3:2:0:0:
239,58,66354,6,0,B|294:61|294:61|305:67|305:67|381:71,1,123.75000377655,2|2,1:2|0:0,0:0:0:0:
387,90,66841,2,0,P|395:129|379:167,1,82.5000025177003,8|2,1:2|3:2,0:0:0:0:
316,255,67328,1,0,1:0:0:0:
271,157,67572,1,8,3:2:0:0:
183,218,67816,2,0,L|76:224,1,82.5000025177003,10|2,1:2|3:2,0:0:0:0:
10,281,68304,6,0,L|15:332,1,41.2500012588501,2|0,1:2|0:0,0:0:0:0:
29,351,68548,2,0,P|72:354|116:306,1,82.5000025177003,2|8,3:2|1:2,0:0:0:0:
212,313,69036,1,2,3:2:0:0:
238,332,69158,2,0,L|358:327,1,82.5000025177003,2|0,0:0|0:0,0:0:0:0:
335,298,69523,2,0,P|363:293|394:300,1,41.2500012588501,10|0,3:2|0:0,0:0:0:0:
401,314,69767,1,10,1:2:0:0:
454,223,70011,1,2,3:2:0:0:
483,119,70255,6,0,P|438:114|381:152,1,82.5000025177003,2|0,1:2|3:0,0:0:0:0:
385,154,70621,2,0,L|294:161,1,82.5000025177003,2|0,0:0|0:0,0:0:0:0:
277,138,70987,1,2,3:2:0:0:
339,50,71231,1,2,1:2:0:0:
242,2,71475,1,8,3:2:0:0:
178,88,71719,2,0,B|125:98|125:98|116:94|116:94|51:106,1,123.75000377655,10|0,1:2|0:0,0:0:0:0:
39,132,72206,6,0,P|32:172|55:213,1,82.5000025177003,2|2,1:0|3:2,0:0:0:0:
78,226,72572,1,0,0:0:0:0:
78,226,72694,1,10,1:2:0:0:
190,208,72938,1,2,3:2:0:0:
190,208,73060,1,2,0:0:0:0:
190,208,73182,2,0,P|204:249|200:311,1,82.5000025177003,2|10,1:2|3:2,0:0:0:0:
111,342,73670,1,10,1:2:0:0:
17,288,73914,1,2,3:2:0:0:
39,183,74158,6,0,B|47:157|47:157|30:132|36:97,1,82.5000025177003,2|0,1:2|3:0,0:0:0:0:
49,74,74523,2,0,B|85:50|85:50|128:67,1,82.5000025177003,2|0,0:0|0:0,0:0:0:0:
145,87,74889,1,2,3:2:0:0:
209,172,75133,1,0,1:0:0:0:
269,18,75377,1,8,3:2:0:0:
354,82,75621,2,0,L|436:88,1,82.5000025177003,10|2,1:2|3:2,0:0:0:0:
509,166,76109,6,0,P|516:211|501:247,1,82.5000025177003,2|0,1:2|3:0,0:0:0:0:
432,326,76597,1,8,1:2:0:0:
347,259,76841,2,0,B|274:253|274:253|259:243|259:243|173:236,1,165.000005035401,2|2,1:2|0:0,0:0:0:0:
101,303,77572,1,2,0:0:0:0:
26,225,77816,2,0,L|-15:232,2,27.5000008392334,2|0|0,3:2|3:0|3:0,0:0:0:0:
41,212,78061,6,0,L|32:127,1,75,6|2,1:0|3:2,0:0:0:0:
87,55,78548,2,0,P|128:33|166:48,1,75,10|2,1:2|3:2,0:0:0:0:
175,53,78914,1,2,0:0:0:0:
140,195,79280,2,0,L|149:278,1,75,2|8,3:2|1:2,0:0:0:0:
201,353,79768,2,0,B|222:341|222:341|265:353,1,50,2|2,3:2|0:0,0:0:0:0:
274,365,80011,6,0,P|312:371|363:350,1,75,2|0,1:2|3:0,0:0:0:0:
308,270,80499,2,0,L|299:171,1,75,8|2,1:2|3:2,0:0:0:0:
311,166,80865,1,2,0:0:0:0:
408,56,81231,1,2,3:2:0:0:
484,120,81475,1,10,1:2:0:0:
427,199,81719,2,0,B|420:222|420:222|432:245,1,50,0|0,3:2|3:0,0:0:0:0:
444,275,81963,6,0,P|408:285|371:279,1,75,2|2,1:2|3:2,0:0:0:0:
273,275,82450,2,0,L|281:376,1,75,10|2,1:2|3:2,0:0:0:0:
256,370,82816,1,2,0:0:0:0:
110,357,83182,1,2,3:2:0:0:
44,285,83426,1,8,1:2:0:0:
90,199,83670,2,0,B|104:178|104:178|94:149,1,50,2|2,3:2|0:0,0:0:0:0:
75,129,83914,6,0,L|71:18,1,75,2|2,1:2|3:2,0:0:0:0:
161,13,84402,1,10,1:2:0:0:
240,69,84646,2,0,B|261:55|261:55|290:65,1,50,2|2,3:2|0:0,0:0:0:0:
283,192,85133,1,2,3:2:0:0:
236,277,85377,1,10,1:2:0:0:
308,341,85621,1,2,1:2:0:0:
380,276,85865,6,0,L|422:272,1,37.5,2|0,0:3|0:0,0:0:0:0:
438,251,86109,2,0,P|443:233|436:216,1,37.5,2|2,3:2|3:2,0:0:0:0:
418,192,86353,2,0,L|406:88,1,75,6|2,1:0|3:2,0:0:0:0:
386,97,86719,1,2,0:0:0:0:
260,21,87085,2,0,L|155:32,1,75,2|8,3:2|1:2,0:0:0:0:
129,108,87572,2,0,B|122:133|122:133|134:154,1,50,2|2,3:2|0:0,0:0:0:0:
158,175,87816,6,0,P|194:181|230:171,1,75,2|0,1:2|3:0,0:0:0:0:
323,202,88304,2,0,L|328:287,1,75,8|2,1:2|3:2,0:0:0:0:
315,304,88670,1,2,0:0:0:0:
182,365,89036,1,2,3:2:0:0:
85,379,89280,1,10,1:2:0:0:
19,306,89524,2,0,B|7:285|7:285|14:260,1,50,0|0,3:2|3:0,0:0:0:0:
29,231,89768,6,0,P|66:220|108:230,1,75,2|2,1:2|3:2,0:0:0:0:
180,282,90255,2,0,L|260:273,1,75,10|2,1:2|3:2,0:0:0:0:
272,249,90621,1,2,0:0:0:0:
186,129,90987,1,2,3:2:0:0:
223,39,91231,1,8,1:2:0:0:
311,79,91475,2,0,B|336:72|336:72|357:84,1,50,2|2,3:2|0:0,0:0:0:0:
382,104,91719,6,0,L|377:178,1,75,2|2,1:2|3:2,0:0:0:0:
441,252,92207,1,10,1:2:0:0:
395,337,92450,2,0,B|374:349|374:349|349:342,1,50,2|2,3:2|0:0,0:0:0:0:
231,285,92938,1,2,3:2:0:0:
265,193,93182,1,10,1:2:0:0:
218,107,93426,2,0,B|197:95|197:95|172:102,1,50,2|2,3:2|3:2,0:0:0:0:
145,121,93670,5,2,1:0:0:0:
91,309,94524,1,2,1:2:0:0:
117,327,94646,2,0,L|191:334,1,75,2|2,0:0|1:2,0:0:0:0:
219,323,95011,2,0,L|225:284,1,37.5,0|8,0:0|0:0,0:0:0:0:
371,289,95500,1,2,0:0:0:0:
400,294,95622,5,2,1:2:0:0:
492,102,96354,2,0,L|499:46,1,37.5,2|2,0:0|1:2,0:0:0:0:
478,40,96597,2,0,L|403:32,1,75,2|2,0:0|3:2,0:0:0:0:
326,92,97084,1,8,1:2:0:0:
331,238,97451,1,2,0:0:0:0:
302,232,97573,5,2,1:2:0:0:
68,137,98305,2,0,L|75:196,1,37.5,2|2,0:0|1:2,0:0:0:0:
12,306,98792,1,2,1:2:0:0:
93,344,99036,1,8,0:0:0:0:
158,282,99280,1,2,3:2:0:0:
239,320,99523,6,0,L|339:303,1,75,2|2,1:2|3:2,0:0:0:0:
338,323,99889,1,2,0:0:0:0:
338,323,100011,2,0,L|438:306,1,75,2|2,1:2|3:2,0:0:0:0:
438,325,100377,1,0,0:0:0:0:
438,325,100499,1,0,1:2:0:0:
492,253,100743,1,0,3:0:0:0:
411,212,100987,2,0,L|401:162,1,37.5,4|0,1:3|0:0,0:0:0:0:
427,156,101231,2,0,L|417:106,1,37.5,0|0,1:0|0:0,0:0:0:0:
437,94,101475,5,2,1:0:0:0:
362,30,101719,1,2,3:2:0:0:
309,111,101964,2,0,P|273:123|237:120,1,75,10|2,1:2|3:2,0:0:0:0:
207,111,102328,1,2,0:0:0:0:
207,111,102450,2,0,L|197:36,1,75,2|2,1:2|3:2,0:0:0:0:
169,23,102816,1,2,0:0:0:0:
169,23,102938,1,8,1:2:0:0:
72,8,103182,1,2,3:2:0:0:
3,77,103426,6,0,L|13:152,1,75,0|2,1:0|3:2,0:0:0:0:
35,171,103792,1,0,0:0:0:0:
35,171,103914,2,0,L|45:246,1,75,10|2,1:2|3:2,0:0:0:0:
22,340,104402,1,2,1:2:0:0:
116,384,104645,1,2,3:2:0:0:
145,377,104767,2,0,L|233:366,1,75,2|0,0:0|0:0,0:0:0:0:
238,344,105133,1,2,3:2:0:0:
173,270,105377,5,2,1:2:0:0:
216,182,105621,1,0,3:0:0:0:
134,128,105865,2,0,L|128:27,1,75,8|0,1:2|3:0,0:0:0:0:
152,32,106231,2,0,P|187:21|224:26,1,75,2|0,0:0|0:0,0:0:0:0:
242,50,106597,1,2,3:2:0:0:
329,7,106841,1,8,1:2:0:0:
406,66,107084,1,0,3:0:0:0:
320,112,107328,6,0,L|331:202,1,75,0|2,1:0|3:2,0:0:0:0:
352,205,107694,1,0,0:0:0:0:
352,205,107816,2,0,L|363:295,1,75,8|2,1:2|3:2,0:0:0:0:
346,305,108182,1,0,0:0:0:0:
346,305,108304,1,2,1:2:0:0:
278,374,108548,1,2,3:2:0:0:
278,374,108670,1,2,0:0:0:0:
278,374,108792,1,10,1:2:0:0:
193,324,109036,2,0,L|151:328,2,25,2|0|0,3:2|3:0|3:0,0:0:0:0:
206,308,109280,6,0,P|209:270|191:232,1,75,2|0,1:0|3:0,0:0:0:0:
111,185,109767,2,0,L|35:192,1,75,8|2,1:2|3:2,0:0:0:0:
12,173,110133,1,2,0:0:0:0:
45,30,110499,1,2,3:2:0:0:
45,30,110621,1,0,0:0:0:0:
45,30,110743,2,0,L|131:21,1,75,8|2,1:2|3:2,0:0:0:0:
143,41,111109,1,0,0:0:0:0:
143,41,111231,5,2,1:2:0:0:
231,81,111475,1,0,3:0:0:0:
256,96,111597,2,0,P|279:152|258:221,1,112.5,2|2,0:0|3:2,0:0:0:0:
188,255,112206,1,0,1:0:0:0:
213,349,112450,1,2,3:2:0:0:
285,283,112694,1,8,1:2:0:0:
312,376,112938,1,2,3:2:0:0:
382,309,113182,6,0,L|484:315,1,75,0|2,1:0|3:2,0:0:0:0:
491,223,113670,1,8,1:2:0:0:
448,135,113914,1,2,3:2:0:0:
448,135,114036,1,2,0:0:0:0:
448,135,114158,2,0,L|454:33,1,75,2|2,1:2|3:2,0:0:0:0:
373,2,114645,1,8,1:2:0:0:
283,40,114889,1,2,3:2:0:0:
359,100,115133,6,0,L|354:174,1,75,0|2,1:0|3:2,0:0:0:0:
253,268,115621,2,0,L|258:194,1,75,8|2,1:2|3:2,0:0:0:0:
241,168,115987,1,0,0:0:0:0:
241,168,116109,2,0,P|206:154|165:162,1,75,2|2,1:2|3:2,0:0:0:0:
75,183,116597,1,8,1:2:0:0:
33,271,116841,1,2,3:2:0:0:
71,359,117084,6,0,L|145:363,1,75,2|0,1:0|3:0,0:0:0:0:
237,329,117572,1,8,1:2:0:0:
196,251,117816,1,0,3:0:0:0:
196,251,117938,1,0,0:0:0:0:
196,251,118060,2,0,L|202:165,1,75,0|2,1:0|3:2,0:0:0:0:
134,104,118548,1,10,1:2:0:0:
214,48,118792,1,0,3:0:0:0:
282,117,119036,6,0,P|319:127|367:117,1,75,2|0,1:2|3:0,0:0:0:0:
381,108,119402,1,0,0:0:0:0:
381,108,119523,1,8,1:2:0:0:
478,106,119767,2,0,L|471:186,1,75,2|0,3:2|1:0,0:0:0:0:
461,278,120255,1,2,3:2:0:0:
384,217,120499,1,10,1:2:0:0:
376,314,120743,1,2,3:2:0:0:
294,261,120987,6,0,L|214:254,1,75,2|2,1:2|3:2,0:0:0:0:
121,244,121475,1,8,1:2:0:0:
25,263,121719,2,0,P|22:225|45:184,1,75,2|0,3:2|1:0,0:0:0:0:
90,110,122206,1,2,3:2:0:0:
171,163,122450,2,0,L|245:169,1,75,10|2,1:2|3:2,0:0:0:0:
315,100,122938,5,2,1:2:0:0:
315,100,123060,1,0,0:0:0:0:
315,100,123182,2,0,L|320:33,1,37.5,2|0,3:2|0:0,0:0:0:0:
335,38,123426,2,0,P|371:32|415:52,1,75,10|2,1:2|3:2,0:0:0:0:
429,72,123792,1,0,0:0:0:0:
429,72,123914,1,0,1:0:0:0:
492,145,124158,1,2,3:2:0:0:
406,191,124402,1,10,1:2:0:0:
475,258,124645,1,2,3:2:0:0:
389,304,124889,5,2,0:0:0:0:
72,329,126109,1,10,0:0:0:0:
72,329,126231,1,0,0:0:0:0:
72,329,126353,1,10,0:0:0:0:
25,243,126597,2,0,P|22:224|32:208,1,37.5,2|0,3:2|3:0,0:0:0:0:
54,189,126842,6,0,B|109:192|109:192|120:198|120:198|196:202,1,123.75000377655,6|2,1:0|0:0,0:0:0:0:
203,182,127329,2,0,P|219:144|211:104,1,82.5000025177003,8|2,1:2|3:2,0:0:0:0:
108,72,127816,1,0,1:0:0:0:
194,8,128060,1,0,3:2:0:0:
294,45,128304,2,0,L|376:40,1,82.5000025177003,10|2,1:2|3:2,0:0:0:0:
466,98,128792,6,0,L|471:149,1,41.2500012588501,2|0,1:2|0:0,0:0:0:0:
468,172,129036,2,0,P|426:187|375:174,1,82.5000025177003,2|8,3:2|1:2,0:0:0:0:
296,137,129524,1,2,3:2:0:0:
283,167,129646,2,0,B|271:204|271:204|277:266,1,82.5000025177003,2|0,0:0|0:0,0:0:0:0:
301,266,130011,2,0,P|306:294|299:325,1,41.2500012588501,2|0,3:2|0:0,0:0:0:0:
283,332,130255,1,10,1:2:0:0:
186,379,130499,1,2,3:2:0:0:
92,326,130743,6,0,P|77:287|83:247,1,82.5000025177003,2|0,1:2|3:0,0:0:0:0:
102,220,131109,2,0,L|184:213,1,82.5000025177003,2|0,0:0|0:0,0:0:0:0:
207,189,131475,1,2,3:2:0:0:
306,230,131719,1,2,1:2:0:0:
363,139,131963,1,0,3:2:0:0:
466,166,132207,2,0,B|456:113|456:113|460:104|460:104|448:39,1,123.75000377655,10|0,1:2|0:0,0:0:0:0:
434,15,132694,6,0,P|394:8|353:31,1,82.5000025177003,2|2,1:0|3:2,0:0:0:0:
335,50,133060,1,0,0:0:0:0:
335,50,133182,1,10,1:2:0:0:
259,125,133426,1,2,3:2:0:0:
259,125,133548,1,2,0:0:0:0:
259,125,133670,2,0,P|218:139|156:135,1,82.5000025177003,2|2,1:2|3:2,0:0:0:0:
87,83,134158,1,10,1:2:0:0:
7,155,134402,1,2,3:2:0:0:
81,233,134645,6,0,B|90:276|90:276|88:284|88:284|98:329,1,82.5000025177003,2|0,1:2|3:0,0:0:0:0:
122,332,135011,2,0,B|168:320|168:320|189:335|206:333,1,82.5000025177003,2|0,0:0|0:0,0:0:0:0:
231,323,135377,1,2,3:2:0:0:
194,165,135621,1,0,1:0:0:0:
319,241,135865,1,0,3:2:0:0:
331,99,136109,2,0,L|413:105,1,82.5000025177003,10|2,1:2|3:2,0:0:0:0:
487,183,136597,6,0,P|494:228|479:264,1,82.5000025177003,2|0,1:2|3:0,0:0:0:0:
417,348,137085,1,8,1:2:0:0:
315,314,137329,2,0,B|321:241|321:241|331:226|331:226|338:140,1,165.000005035401,2|2,1:2|0:0,0:0:0:0:
270,59,138060,1,2,0:0:0:0:
177,113,138304,1,2,0:0:0:0:
