osu file format v14

[General]
AudioFilename: audio.mp3
AudioLeadIn: 0
PreviewTime: 63183
Countdown: 0
SampleSet: Soft
StackLeniency: 0.5
Mode: 0
LetterboxInBreaks: 0
WidescreenStoryboard: 0

[Editor]
DistanceSpacing: 1.8
BeatDivisor: 6
GridSize: 16
TimelineZoom: 2.599999

[Metadata]
Title:Kinmokusei (feat. Ado)
TitleUnicode:金木犀 (feat. Ado)
Artist:Kujira
ArtistUnicode:くじら
Creator:alevi
Version:One More Time
Source:
Tags:jpop j-pop japanese pop female vocalist whaledontsleep osmanthus アド froskya revialink ponbot yuuma3 suzuaki_rin godkei
BeatmapID:3431235
BeatmapSetID:1679541

[Difficulty]
HPDrainRate:6
CircleSize:4
OverallDifficulty:9
ApproachRate:9.3
SliderMultiplier:1.8
SliderTickRate:1

[Events]
//Background and Video events
0,0,"woahabg.jpg",0,0
//Break Periods
//Storyboard Layer 0 (Background)
//Storyboard Layer 1 (Fail)
//Storyboard Layer 2 (Pass)
//Storyboard Layer 3 (Foreground)
//Storyboard Layer 4 (Overlay)
//Storyboard Sound Samples

[TimingPoints]
1964,487.80487804878,4,2,1,25,1,0
1964,-100,4,2,1,25,0,0
9768,-62.5,4,2,1,40,0,0
10256,-125,4,2,1,40,0,0
11720,-62.5,4,2,1,40,0,0
12207,-125,4,2,1,40,0,0
13671,-62.5,4,2,1,40,0,0
14159,-125,4,2,1,40,0,0
17085,-41.6666666666667,4,2,1,40,0,0
17207,-41.6666666666667,4,2,1,5,0,0
17329,-125,4,2,1,40,0,0
17573,-62.5,4,2,1,75,0,0
18122,-62.5,4,2,1,5,0,0
18305,-62.5,4,2,1,75,0,0
18427,-62.5,4,2,1,75,0,0
19098,-62.5,4,2,1,5,0,0
19281,-62.5,4,2,1,75,0,0
20073,-62.5,4,2,1,5,0,0
20256,-62.5,4,2,1,75,0,0
22024,-62.5,4,2,1,5,0,0
22207,-62.5,4,2,1,75,0,0
23000,-62.5,4,2,1,5,0,0
23183,-62.5,4,2,1,75,0,0
23976,-62.5,4,2,1,5,0,0
24159,-62.5,4,2,1,75,0,0
24240,-62.5,4,2,1,5,0,0
24321,-62.5,4,2,1,75,0,0
25378,-71.4285714285714,4,2,1,75,0,0
25622,-83.3333333333333,4,2,1,75,0,0
25866,-100,4,2,1,75,0,0
25927,-100,4,2,1,5,0,0
26110,-100,4,2,1,75,0,0
26232,-62.5,4,2,1,75,0,0
26903,-62.5,4,2,1,5,0,0
27085,-62.5,4,2,1,75,0,0
27878,-62.5,4,2,1,5,0,0
28061,-62.5,4,2,1,75,0,0
29829,-62.5,4,2,1,5,0,0
30012,-62.5,4,2,1,75,0,0
30805,-62.5,4,2,1,5,0,0
30988,-62.5,4,2,1,75,0,0
31781,-62.5,4,2,1,5,0,0
31963,-62.5,4,2,1,75,0,0
32045,-62.5,4,2,1,5,0,0
32126,-62.5,4,2,1,75,0,0
32756,-62.5,4,2,1,5,0,0
32858,-62.5,4,2,1,75,0,0
32939,-50,4,2,1,75,0,0
33183,-111.111111111111,4,2,1,65,0,0
35785,-111.111111111111,4,2,1,5,0,0
35866,-111.111111111111,4,2,1,65,0,0
36029,-111.111111111111,4,2,1,5,0,0
36110,-111.111111111111,4,2,1,65,0,0
37004,-111.111111111111,4,2,1,5,0,0
37085,-111.111111111111,4,2,1,65,0,0
37492,-111.111111111111,4,2,1,5,0,0
37573,-111.111111111111,4,2,1,65,0,0
37736,-111.111111111111,4,2,1,5,0,0
37817,-111.111111111111,4,2,1,65,0,0
37980,-111.111111111111,4,2,1,5,0,0
38061,-111.111111111111,4,2,1,65,0,0
38224,-111.111111111111,4,2,1,5,0,0
38305,-111.111111111111,4,2,1,65,0,0
38468,-111.111111111111,4,2,1,5,0,0
38549,-111.111111111111,4,2,1,65,0,0
38711,-111.111111111111,4,2,1,5,0,0
38793,-111.111111111111,4,2,1,65,0,0
38955,-111.111111111111,4,2,1,5,0,0
39037,-111.111111111111,4,2,1,65,0,0
39199,-111.111111111111,4,2,1,5,0,0
39281,-111.111111111111,4,2,1,65,0,0
39443,-111.111111111111,4,2,1,5,0,0
39524,-111.111111111111,4,2,1,65,0,0
40094,-111.111111111111,4,2,1,5,0,0
40175,-111.111111111111,4,2,1,65,0,0
43427,-111.111111111111,4,2,1,65,0,0
46760,-111.111111111111,4,2,1,5,0,0
46842,-99.9999999999999,4,2,1,65,0,0
47004,-99.9999999999999,4,2,1,5,0,0
47085,-99.9999999999999,4,2,1,65,0,0
47248,-99.9999999999999,4,2,1,5,0,0
47329,-99.9999999999999,4,2,1,65,0,0
47492,-99.9999999999999,4,2,1,5,0,0
47573,-99.9999999999999,4,2,1,65,0,0
48305,-41.6666666666667,4,2,1,65,0,0
48793,-83.3333333333333,4,2,1,75,0,0
49199,-83.3333333333333,4,2,1,5,0,0
49281,-83.3333333333333,4,2,1,75,0,0
49931,-83.3333333333333,4,2,1,5,0,0
50012,-83.3333333333333,4,2,1,75,0,0
50175,-83.3333333333333,4,2,1,5,0,0
50256,-83.3333333333333,4,2,1,75,0,0
50317,-83.3333333333333,4,2,1,5,0,0
50419,-83.3333333333333,4,2,1,75,0,0
51394,-83.3333333333333,4,2,1,75,0,0
51476,-83.3333333333333,4,2,1,75,0,0
51638,-83.3333333333333,4,2,1,5,0,0
51720,-83.3333333333333,4,2,1,75,0,0
51882,-83.3333333333333,4,2,1,5,0,0
51963,-83.3333333333333,4,2,1,75,0,0
52126,-83.3333333333333,4,2,1,5,0,0
52207,-83.3333333333333,4,2,1,75,0,0
52268,-83.3333333333333,4,2,1,5,0,0
52451,-83.3333333333333,4,2,1,75,0,0
53244,-83.3333333333333,4,2,1,5,0,0
53346,-83.3333333333333,4,2,1,75,0,0
53833,-83.3333333333333,4,2,1,5,0,0
53915,-83.3333333333333,4,2,1,75,0,0
54809,-83.3333333333333,4,2,1,5,0,0
54890,-83.3333333333333,4,2,1,75,0,0
55785,-83.3333333333333,4,2,1,5,0,0
55866,-83.3333333333333,4,2,1,75,0,0
56029,-83.3333333333333,4,2,1,5,0,0
56110,-83.3333333333333,4,2,1,75,0,0
56760,-83.3333333333333,4,2,1,5,0,0
56842,-83.3333333333333,4,2,1,75,0,0
57004,-83.3333333333333,4,2,1,5,0,0
57085,-83.3333333333333,4,2,1,75,0,0
57248,-83.3333333333333,4,2,1,5,0,0
57329,-83.3333333333333,4,2,1,75,0,0
57573,-83.3333333333333,4,2,1,75,0,0
58711,-83.3333333333333,4,2,1,5,0,0
58793,-83.3333333333333,4,2,1,75,0,0
58955,-83.3333333333333,4,2,1,5,0,0
59037,-83.3333333333333,4,2,1,75,0,0
59199,-83.3333333333333,4,2,1,5,0,0
59281,-83.3333333333333,4,2,1,75,0,0
59443,-83.3333333333333,4,2,1,5,0,0
59524,-83.3333333333333,4,2,1,75,0,0
60073,-83.3333333333333,4,2,1,5,0,0
60256,-83.3333333333333,4,2,1,75,0,0
60500,-166.666666666667,4,2,1,70,0,0
62451,-166.666666666667,4,2,1,75,0,0
62512,-166.666666666667,4,2,1,5,0,0
62817,-166.666666666667,4,2,1,75,0,0
62878,-166.666666666667,4,2,1,5,0,0
63183,-166.666666666667,4,2,1,75,0,0
63915,-41.6666666666667,4,2,1,75,0,0
64077,-41.6666666666667,4,2,1,5,0,0
64159,-41.6666666666667,4,2,1,75,0,0
64321,-41.6666666666667,4,2,1,5,0,0
64403,-50,4,2,1,85,0,1
65053,-50,4,2,1,5,0,1
65134,-50,4,2,1,85,0,1
65216,-50,4,2,1,5,0,1
65297,-50,4,2,1,85,0,1
65541,-50,4,2,1,5,0,1
65622,-50,4,2,1,85,0,1
65683,-50,4,2,1,5,0,1
65785,-50,4,2,1,85,0,1
66029,-50,4,2,1,5,0,1
66110,-250,4,2,1,85,0,1
66272,-250,4,2,1,5,0,1
66354,-50,4,2,1,85,0,1
67004,-50,4,2,1,5,0,1
67085,-50,4,2,1,85,0,1
67248,-50,4,2,1,5,0,1
67329,-50,4,2,1,85,0,1
67634,-50,4,2,1,5,0,1
67817,-50,4,2,1,85,0,1
67878,-50,4,2,1,5,0,1
68061,-250,4,2,1,85,0,1
68224,-250,4,2,1,5,0,1
68305,-50,4,2,1,85,0,1
68468,-50,4,2,1,5,0,1
68549,-50,4,2,1,85,0,1
68711,-50,4,2,1,5,0,1
68793,-50,4,2,1,85,0,1
68854,-50,4,2,1,5,0,1
69037,-50,4,2,1,85,0,1
69159,-50,4,2,1,85,0,1
69443,-50,4,2,1,85,0,1
69463,-50,4,2,1,5,0,1
69524,-50,4,2,1,85,0,1
69585,-50,4,2,1,5,0,1
69768,-50,4,2,1,85,0,1
70256,-125,4,2,1,85,0,1
70419,-125,4,2,1,5,0,1
70500,-50,4,2,1,85,0,1
70663,-50,4,2,1,5,0,1
70744,-166.666666666667,4,2,1,85,0,1
70907,-166.666666666667,4,2,1,5,0,1
70988,-50,4,2,1,85,0,1
71150,-50,4,2,1,5,0,1
71232,-250,4,2,1,85,0,1
71394,-250,4,2,1,5,0,1
71476,-50,4,2,1,85,0,1
71537,-50,4,2,1,5,0,1
71720,-250,4,2,1,85,0,1
72126,-250,4,2,1,5,0,0
72207,-50,4,2,1,85,0,1
72858,-50,4,2,1,5,0,1
72939,-50,4,2,1,85,0,1
73020,-50,4,2,1,5,0,1
73102,-50,4,2,1,85,0,1
73346,-50,4,2,1,5,0,1
73427,-50,4,2,1,85,0,1
73488,-50,4,2,1,5,0,1
73590,-50,4,2,1,85,0,1
73915,-50,4,2,1,85,0,1
73996,-50,4,2,1,5,0,1
74077,-50,4,2,1,85,0,1
74159,-41.6666666666667,4,2,1,85,0,1
74646,-166.666666666667,4,2,1,85,0,1
74890,-35.7142857142857,4,2,1,85,0,1
75053,-35.7142857142857,4,2,1,5,0,1
75134,-250,4,2,1,85,0,1
75378,-50,4,2,1,85,0,1
75439,-50,4,2,1,5,0,1
75622,-50,4,2,1,85,0,1
75785,-50,4,2,1,5,0,1
75866,-50,4,2,1,85,0,1
76029,-50,4,2,1,5,0,1
76110,-250,4,2,1,85,0,1
76598,-50,4,2,1,85,0,1
76659,-50,4,2,1,5,0,1
76842,-50,4,2,1,85,0,0
78061,-62.5,4,2,1,75,0,0
78610,-62.5,4,2,1,5,0,0
78793,-62.5,4,2,1,75,0,0
79585,-62.5,4,2,1,5,0,0
79768,-62.5,4,2,1,75,0,0
80561,-62.5,4,2,1,5,0,0
80744,-62.5,4,2,1,75,0,0
82512,-62.5,4,2,1,5,0,0
82695,-62.5,4,2,1,75,0,0
83488,-62.5,4,2,1,5,0,0
83671,-62.5,4,2,1,75,0,0
84463,-62.5,4,2,1,5,0,0
84646,-62.5,4,2,1,75,0,0
84728,-62.5,4,2,1,5,0,0
84809,-62.5,4,2,1,75,0,0
85439,-62.5,4,2,1,5,0,0
85541,-62.5,4,2,1,75,0,0
85866,-250,4,2,1,75,0,0
86110,-41.6666666666667,4,2,1,75,0,0
86354,-62.5,4,2,1,75,0,0
86415,-62.5,4,2,1,5,0,0
86598,-62.5,4,2,1,75,0,0
87390,-62.5,4,2,1,5,0,0
87573,-62.5,4,2,1,75,0,0
88366,-62.5,4,2,1,5,0,0
88549,-62.5,4,2,1,75,0,0
90317,-62.5,4,2,1,5,0,0
90500,-62.5,4,2,1,75,0,0
91293,-62.5,4,2,1,5,0,0
91476,-62.5,4,2,1,75,0,0
92268,-62.5,4,2,1,5,0,0
92451,-62.5,4,2,1,75,0,0
92533,-62.5,4,2,1,5,0,0
92614,-62.5,4,2,1,75,0,0
93244,-62.5,4,2,1,5,0,0
93346,-62.5,4,2,1,75,0,0
93671,-35.7142857142857,4,2,1,65,0,0
93732,-35.7142857142857,4,2,1,5,0,0
94159,-35.7142857142857,4,2,1,65,0,0
94768,-35.7142857142857,4,2,1,5,0,0
94890,-35.7142857142857,4,2,1,65,0,0
95053,-35.7142857142857,4,2,1,65,0,0
95134,-35.7142857142857,4,2,1,65,0,0
95195,-35.7142857142857,4,2,1,5,0,0
95541,-35.7142857142857,4,2,1,65,0,0
95683,-35.7142857142857,4,2,1,5,0,0
96110,-35.7142857142857,4,2,1,65,0,0
96720,-35.7142857142857,4,2,1,5,0,0
96842,-35.7142857142857,4,2,1,65,0,0
97004,-35.7142857142857,4,2,1,5,0,0
97085,-35.7142857142857,4,2,1,65,0,0
97146,-35.7142857142857,4,2,1,5,0,0
97573,-35.7142857142857,4,2,1,65,0,0
97634,-35.7142857142857,4,2,1,5,0,0
98427,-35.7142857142857,4,2,1,65,0,0
98671,-35.7142857142857,4,2,1,5,0,0
98793,-35.7142857142857,4,2,1,65,0,0
98955,-35.7142857142857,4,2,1,5,0,0
99037,-35.7142857142857,4,2,1,65,0,0
99098,-35.7142857142857,4,2,1,5,0,0
99281,-166.666666666667,4,2,1,65,0,0
99443,-166.666666666667,4,2,1,5,0,0
99524,-41.6666666666667,4,2,1,65,0,0
99768,-166.666666666667,4,2,1,65,0,0
100012,-50,4,2,1,65,0,0
100175,-50,4,2,1,65,0,0
100256,-250.000000000001,4,2,1,65,0,0
100419,-250.000000000001,4,2,1,65,0,0
100500,-62.5,4,2,1,65,0,0
100744,-500,4,2,1,65,0,0
100907,-500,4,2,1,5,0,0
100988,-500,4,2,1,65,0,0
101476,-62.5,4,2,1,70,0,0
102614,-62.5,4,2,1,5,0,0
102695,-62.5,4,2,1,70,0,0
103000,-62.5,4,2,1,5,0,0
103102,-62.5,4,2,1,70,0,0
103346,-62.5,4,2,1,70,0,0
103427,-62.5,4,2,1,70,0,0
103590,-62.5,4,2,1,5,0,0
103671,-62.5,4,2,1,70,0,0
104321,-62.5,4,2,1,5,0,0
104403,-62.5,4,2,1,70,0,0
105378,-250,4,2,1,70,0,0
105785,-250,4,2,1,5,0,0
105866,-62.5,4,2,1,70,0,0
106516,-62.5,4,2,1,5,0,0
106598,-62.5,4,2,1,70,0,0
106760,-62.5,4,2,1,5,0,0
106842,-62.5,4,2,1,70,0,0
106903,-62.5,4,2,1,5,0,0
107329,-166.666666666667,4,2,1,70,0,0
107573,-62.5,4,2,1,70,0,0
107736,-62.5,4,2,1,5,0,0
107817,-250,4,2,1,70,0,0
108061,-71.4285714285714,4,2,1,70,0,0
108224,-71.4285714285714,4,2,1,5,0,0
108305,-500,4,2,1,70,0,0
108549,-83.3333333333333,4,2,1,70,0,0
108854,-83.3333333333333,4,2,1,5,0,0
109037,-83.3333333333333,4,2,1,70,0,0
109281,-62.5,4,2,1,75,0,0
109443,-62.5,4,2,1,5,0,0
109524,-62.5,4,2,1,75,0,0
109687,-62.5,4,2,1,5,0,0
109768,-62.5,4,2,1,75,0,0
110419,-62.5,4,2,1,5,0,0
110500,-62.5,4,2,1,75,0,0
110663,-62.5,4,2,1,5,0,0
110744,-62.5,4,2,1,75,0,0
110805,-62.5,4,2,1,5,0,0
110988,-62.5,4,2,1,75,0,0
111882,-62.5,4,2,1,5,0,0
111963,-62.5,4,2,1,75,0,0
112126,-62.5,4,2,1,5,0,0
112451,-62.5,4,2,1,75,0,0
112614,-62.5,4,2,1,5,0,0
112695,-62.5,4,2,1,75,0,0
112858,-62.5,4,2,1,5,0,0
112939,-62.5,4,2,1,75,0,0
113102,-62.5,4,2,1,5,0,0
113183,-62.5,4,2,1,75,0,0
114321,-62.5,4,2,1,5,0,0
114403,-62.5,4,2,1,75,0,0
114565,-62.5,4,2,1,5,0,0
114646,-62.5,4,2,1,75,0,0
114809,-62.5,4,2,1,5,0,0
114890,-62.5,4,2,1,75,0,0
115053,-62.5,4,2,1,5,0,0
115134,-50,4,2,1,75,0,0
115622,-62.5,4,2,1,75,0,0
116110,-83.3333333333333,4,2,1,75,0,0
116598,-333.333333333334,4,2,1,75,0,0
117004,-333.333333333334,4,2,1,5,0,0
117085,-62.5,4,2,1,80,0,0
117248,-62.5,4,2,1,5,0,0
117329,-62.5,4,2,1,80,0,0
117492,-62.5,4,2,1,5,0,0
117573,-62.5,4,2,1,80,0,0
118224,-62.5,4,2,1,5,0,0
118305,-62.5,4,2,1,80,0,0
118468,-62.5,4,2,1,5,0,0
118549,-62.5,4,2,1,80,0,0
118955,-62.5,4,2,1,5,0,0
119037,-62.5,4,2,1,80,0,0
119687,-62.5,4,2,1,5,0,0
119768,-62.5,4,2,1,80,0,0
120175,-62.5,4,2,1,5,0,0
120256,-62.5,4,2,1,80,0,0
120419,-62.5,4,2,1,5,0,0
120500,-62.5,4,2,1,80,0,0
120663,-62.5,4,2,1,5,0,0
120744,-62.5,4,2,1,80,0,0
120907,-62.5,4,2,1,5,0,0
120988,-62.5,4,2,1,80,0,0
121150,-62.5,4,2,1,5,0,0
121232,-62.5,4,2,1,80,0,0
122126,-62.5,4,2,1,5,0,0
122207,-62.5,4,2,1,80,0,0
122370,-62.5,4,2,1,5,0,0
122451,-62.5,4,2,1,80,0,0
122614,-62.5,4,2,1,5,0,0
122695,-62.5,4,2,1,80,0,0
122858,-62.5,4,2,1,5,0,0
122939,-125,4,2,1,80,0,0
123102,-125,4,2,1,5,0,0
123183,-83.3333333333333,4,2,1,80,0,0
123346,-83.3333333333333,4,2,1,5,0,0
123427,-62.5,4,2,1,80,0,0
123590,-62.5,4,2,1,5,0,0
123671,-166.666666666667,4,2,1,80,0,0
124403,-62.5,4,2,1,80,0,0
124463,-62.5,4,2,1,5,0,0
124646,-62.5,4,2,1,80,0,0
124809,-62.5,4,2,1,5,0,0
124890,-62.5,4,2,1,80,0,0
125744,-55.5555555555556,4,2,1,80,0,0
126354,-166.666666666667,4,2,1,80,0,0
126679,-41.6666666666667,4,2,1,80,0,0
126842,-45.4545454545455,4,2,1,90,0,1
127492,-45.4545454545455,4,2,1,5,0,1
127573,-45.4545454545455,4,2,1,90,0,1
127736,-45.4545454545455,4,2,1,5,0,1
127817,-166.666666666667,4,2,1,90,0,1
127980,-166.666666666667,4,2,1,5,0,1
128061,-45.4545454545455,4,2,1,90,0,1
128224,-45.4545454545455,4,2,1,5,0,1
128305,-45.4545454545455,4,2,1,90,0,1
128386,-45.4545454545455,4,2,1,5,0,1
128468,-45.4545454545455,4,2,1,90,0,1
128711,-45.4545454545455,4,2,1,5,0,1
128793,-45.4545454545455,4,2,1,90,0,1
128955,-45.4545454545455,4,2,1,5,0,1
129037,-45.4545454545455,4,2,1,90,0,1
129199,-45.4545454545455,4,2,1,5,0,1
129281,-45.4545454545455,4,2,1,90,0,1
129342,-45.4545454545455,4,2,1,5,0,1
129524,-45.4545454545455,4,2,1,90,0,1
129951,-45.4545454545455,4,2,1,5,0,1
130012,-45.4545454545455,4,2,1,90,0,1
130175,-45.4545454545455,4,2,1,5,0,1
130256,-45.4545454545455,4,2,1,90,0,1
130419,-45.4545454545455,4,2,1,5,0,1
130500,-45.4545454545455,4,2,1,90,0,1
130663,-45.4545454545455,4,2,1,5,0,1
130744,-100,4,2,1,90,0,1
130907,-100,4,2,1,5,0,1
130988,-45.4545454545455,4,2,1,90,0,1
131150,-45.4545454545455,4,2,1,5,0,1
131232,-125,4,2,1,90,0,1
131394,-125,4,2,1,5,0,1
131476,-45.4545454545455,4,2,1,90,0,1
131638,-45.4545454545455,4,2,1,5,0,1
131720,-250.000000000001,4,2,1,90,0,1
131882,-250.000000000001,4,2,1,5,0,1
131963,-45.4545454545455,4,2,1,90,0,1
132126,-45.4545454545455,4,2,1,5,0,1
132207,-500,4,2,1,90,0,1
132614,-500,4,2,1,5,0,0
132695,-45.4545454545455,4,2,1,90,0,1
133346,-45.4545454545455,4,2,1,5,0,1
133427,-45.4545454545455,4,2,1,90,0,1
133508,-45.4545454545455,4,2,1,5,0,1
133590,-45.4545454545455,4,2,1,90,0,1
133833,-45.4545454545455,4,2,1,5,0,1
133915,-45.4545454545455,4,2,1,90,0,1
134077,-45.4545454545455,4,2,1,90,0,1
134159,-45.4545454545455,4,2,1,90,0,1
134220,-45.4545454545455,4,2,1,5,0,1
134403,-45.4545454545455,4,2,1,90,0,1
134484,-45.4545454545455,4,2,1,5,0,1
134565,-45.4545454545455,4,2,1,90,0,1
134646,-38.4615384615385,4,2,1,90,0,1
135134,-125,4,2,1,90,0,1
135297,-125,4,2,1,5,0,1
135378,-33.3333333333333,4,2,1,90,0,1
135541,-33.3333333333333,4,2,1,5,0,1
135622,-166.666666666667,4,2,1,90,0,1
135785,-166.666666666667,4,2,1,5,0,1
135866,-45.4545454545455,4,2,1,90,0,1
136029,-45.4545454545455,4,2,1,5,0,1
136110,-45.4545454545455,4,2,1,90,0,1
136171,-45.4545454545455,4,2,1,5,0,1
136354,-45.4545454545455,4,2,1,90,0,1
136516,-45.4545454545455,4,2,1,5,0,1
136598,-166.666666666667,4,2,1,90,0,1
137004,-166.666666666667,4,2,1,5,0,1
137085,-45.4545454545455,4,2,1,90,0,1
137146,-45.4545454545455,4,2,1,5,0,1
137329,-100,4,2,1,90,0,0
137736,-100,4,2,1,5,0,0
137817,-100,4,2,1,45,0,0

[Colours]
Combo1 : 241,107,174
Combo2 : 237,150,179
Combo3 : 158,158,207

[HitObjects]
381,139,1963,5,2,0:0:0:0:
309,114,2329,1,2,0:0:0:0:
295,187,2695,1,2,0:0:0:0:
295,187,3915,5,2,0:0:0:0:
367,162,4281,1,2,0:0:0:0:
381,235,4647,1,2,0:0:0:0:
381,139,5866,5,2,0:0:0:0:
309,114,6232,1,2,0:0:0:0:
295,187,6598,1,2,0:0:0:0:
295,187,7817,5,2,0:0:0:0:
367,162,8183,1,2,0:0:0:0:
381,235,8549,1,2,0:0:0:0:
381,235,9768,6,0,B|384:219|417:213|417:213|388:204|360:208|304:235|338:259|258:267,1,216,2|2,1:2|0:0,0:0:0:0:
211,200,10256,2,0,P|207:170|223:192,1,72,0|2,1:0|0:0,0:0:0:0:
159,328,10744,1,0,1:0:0:0:
155,338,11232,1,0,1:0:0:0:
66,167,11720,6,0,B|82:131|64:60|64:60|91:127|129:141,1,216,2|2,1:2|0:0,0:0:0:0:
202,107,12207,2,0,P|221:87|192:98,1,72,0|2,1:0|0:0,0:0:0:0:
238,232,12695,1,0,1:0:0:0:
242,242,13183,1,0,1:0:0:0:
486,95,13671,6,0,B|501:73|486:47|459:43|459:43|310:88,1,216,2|2,1:2|0:0,0:0:0:0:
257,43,14159,2,0,P|240:28|268:35,1,72,0|2,1:0|0:0,0:0:0:0:
321,201,14646,1,0,1:0:0:0:
317,211,15134,1,2,1:2:0:0:
226,125,15378,1,2,0:0:0:0:
384,8,16354,5,2,0:0:0:0:
384,8,17085,2,0,B|393:58|393:58|390:65|390:65|399:116,1,107.999996704102,2|0,0:3|0:0,0:0:0:0:
344,169,17329,2,0,P|328:164|306:158,1,36,0|0,3:0|3:0,0:0:0:0:
195,105,17573,6,0,B|174:118|124:107|124:107|173:125|184:149,1,144,6|2,1:0|3:2,0:0:0:0:
214,216,17939,1,0,0:0:0:0:
50,293,18061,6,0,P|49:278|54:291,1,36,10|0,1:2|0:0,0:0:0:0:
123,193,18305,1,2,3:2:0:0:
235,313,18427,6,0,B|320:288|272:264|359:245,1,144,2|0,0:0|0:0,0:0:0:0:
429,282,18793,2,0,P|441:316|450:360,1,72,2|0,3:2|0:0,0:0:0:0:
505,202,19037,6,0,P|507:187|501:200,1,36,8|0,1:2|0:0,0:0:0:0:
358,245,19281,1,2,3:2:0:0:
412,98,19443,1,2,0:0:0:0:
348,143,19524,6,0,P|288:125|309:44,1,144,2|0,1:2|3:0,0:0:0:0:
202,114,19931,1,0,0:0:0:0:
194,103,20012,6,0,P|181:109|187:96,1,36,8|0,1:2|0:0,0:0:0:0:
126,27,20256,1,2,3:2:0:0:
115,194,20378,6,0,B|137:209|163:194|167:168|167:168|125:21,1,216,2|2,0:0|3:2,0:0:0:0:
262,213,20988,2,0,P|334:187|403:167,1,144,10|0,1:2|3:2,0:0:0:0:
425,97,21354,1,2,0:0:0:0:
419,90,21415,1,2,0:0:0:0:
411,82,21476,6,0,B|387:70|371:24|371:24|380:71|368:94,1,144,2|2,1:2|3:2,0:0:0:0:
299,120,21842,1,0,0:0:0:0:
424,258,21963,2,0,P|434:268|429:252,1,36,10|0,1:2|0:0,0:0:0:0:
398,168,22207,1,2,3:2:0:0:
276,281,22329,6,0,B|146:244|233:185|105:150,1,216,2|2,0:0|3:2,0:0:0:0:
17,331,22939,2,0,P|7:341|12:325,1,36,8|0,1:2|0:0,0:0:0:0:
114,234,23183,1,2,3:2:0:0:
209,314,23346,5,2,0:0:0:0:
276,281,23427,1,2,1:2:0:0:
334,203,23590,5,2,0:0:0:0:
248,173,23671,1,2,3:2:0:0:
202,97,23833,5,2,0:0:0:0:
320,47,23915,2,0,P|323:32|312:40,1,36,10|0,1:2|0:0,0:0:0:0:
412,156,24159,6,0,P|418:127|422:104,1,48,2|0,3:2|0:0,0:0:0:0:
334,203,24321,2,0,P|351:273|366:351,1,144,2|2,0:0|0:0,0:0:0:0:
276,281,24646,2,0,P|263:331|253:387,1,96,2|2,3:2|0:0,0:0:0:0:
195,248,24890,5,2,1:2:0:0:
71,368,25053,5,2,1:2:0:0:
47,294,25134,1,2,1:2:0:0:
168,321,25297,5,2,1:2:0:0:
115,218,25378,2,0,P|86:189|32:168,1,83.9999974365235,2|0,1:0|0:0,0:0:0:0:
195,248,25622,2,0,P|195:206|171:153,1,71.9999978027344,2|0,3:2|0:0,0:0:0:0:
250,319,25866,2,0,P|259:324|255:315,1,22.5,10|0,1:2|0:0,0:0:0:0:
433,211,26110,1,2,3:2:0:0:
316,258,26232,6,0,B|313:242|280:236|280:236|309:227|327:227|387:250|359:282|439:290,1,216,2|2,0:0|3:2,0:0:0:0:
325,78,26842,2,0,P|312:70|317:83,1,36,8|0,1:2|0:0,0:0:0:0:
166,199,27085,1,2,3:2:0:0:
223,93,27248,1,2,0:0:0:0:
161,44,27329,6,0,P|188:146|215:263,1,216,2|0,1:2|0:0,0:0:0:0:
162,347,27817,2,0,P|148:354|154:341,1,36,8|0,1:2|0:0,0:0:0:0:
326,370,28061,1,2,3:2:0:0:
282,281,28183,6,0,B|152:264|193:333|61:311,1,216,2|2,0:0|3:2,0:0:0:0:
221,139,28793,2,0,P|295:144|306:212,1,144,10|0,1:2|3:2,0:0:0:0:
373,248,29159,1,2,0:0:0:0:
383,254,29220,1,2,0:0:0:0:
397,256,29281,6,0,B|407:235|426:204|426:204|408:170|398:114,1,144,2|2,1:2|3:2,0:0:0:0:
379,50,29646,1,0,0:0:0:0:
221,139,29768,2,0,P|206:141|215:130,1,36,10|0,1:2|0:0,0:0:0:0:
256,13,30012,1,2,3:2:0:0:
343,174,30134,6,0,B|465:206|381:272|501:314,1,216,2|2,0:0|3:2,0:0:0:0:
440,117,30744,2,0,P|425:112|434:123,1,36,8|0,1:2|0:0,0:0:0:0:
270,223,30988,1,2,3:2:0:0:
398,266,31150,5,2,0:0:0:0:
364,193,31232,1,2,1:2:0:0:
289,120,31394,5,2,0:0:0:0:
270,223,31476,1,2,3:2:0:0:
203,320,31638,5,2,0:0:0:0:
159,187,31720,2,0,P|163:171|168:185,1,36,10|0,1:2|0:0,0:0:0:0:
256,379,31963,6,0,P|285:369|312:361,1,48,2|0,3:2|0:0,0:0:0:0:
203,320,32126,2,0,B|152:333|152:333|123:365|123:365|73:378,1,144,2|2,0:0|0:0,0:0:0:0:
27,316,32451,2,0,B|19:300|-8:283|-8:283|21:297|36:290,1,96,2|2,3:2|0:0,0:0:0:0:
119,244,32695,2,0,P|131:234|124:247,1,36,10|0,1:2|0:0,0:0:0:0:
20,176,32858,1,2,0:0:0:0:
58,108,32939,2,0,B|49:98|59:64|59:64|46:97|30:100,1,90,2|2,3:2|3:2,0:0:0:0:
151,42,33183,6,0,P|168:61|197:72,1,53.9999983520508,0|2,1:2|0:0,0:0:0:0:
208,99,33427,2,0,P|233:100|261:87,1,53.9999983520508,2|2,3:2|0:0,0:0:0:0:
287,108,33671,2,0,P|315:82|332:37,1,80.9999975280763,2|2,1:2|3:2,0:0:0:0:
446,98,34077,1,2,0:0:0:0:
455,24,34159,6,0,P|448:59|439:105,1,80.9999975280763,2|2,1:2|3:2,0:0:0:0:
314,198,34646,2,0,P|321:233|330:279,1,80.9999975280763,2|2,1:2|3:2,0:0:0:0:
417,327,35053,1,0,0:0:0:0:
487,296,35134,6,0,P|442:310|402:323,1,80.9999975280763,0|0,1:0|3:0,0:0:0:0:
317,375,35541,1,2,0:0:0:0:
252,335,35622,2,0,P|221:325|199:318,1,53.9999983520508,2|0,1:2|0:0,0:0:0:0:
178,340,35866,2,0,P|163:311|152:290,1,53.9999983520508,2|0,3:2|0:0,0:0:0:0:
122,298,36110,2,0,P|136:252|147:219,1,80.9999975280763,2|2,1:2|3:2,0:0:0:0:
259,148,36598,6,0,P|246:109|237:81,1,53.9999983520508,0|2,1:0|0:0,0:0:0:0:
266,75,36842,2,0,P|229:56|204:43,1,53.9999983520508,2|0,3:2|0:0,0:0:0:0:
131,76,37085,5,0,1:2:0:0:
131,76,37329,2,0,P|121:105|121:138,1,53.9999983520508,2|0,3:2|0:0,0:0:0:0:
52,170,37573,2,0,P|31:146|3:130,1,53.9999983520508,2|0,1:2|0:0,0:0:0:0:
10,54,37817,2,0,P|40:48|68:31,1,53.9999983520508,2|0,3:2|0:0,0:0:0:0:
159,2,38061,6,0,P|184:16|199:44,1,53.9999983520508,2|0,1:2|0:0,0:0:0:0:
267,8,38305,2,0,P|274:35|265:65,1,53.9999983520508,2|0,3:2|0:0,0:0:0:0:
186,154,38549,6,0,P|205:174|236:181,1,53.9999983520508,2|0,1:2|0:0,0:0:0:0:
219,255,38793,2,0,P|247:255|274:238,1,53.9999983520508,2|0,3:2|0:0,0:0:0:0:
401,181,39037,6,0,P|426:172|460:162,1,53.9999983520508,2|0,1:2|0:0,0:0:0:0:
318,170,39281,2,0,P|297:152|272:127,1,53.9999983520508,2|0,3:2|0:0,0:0:0:0:
349,246,39524,2,0,P|341:282|330:329,1,80.9999975280763,2|2,1:2|3:2,0:0:0:0:
213,228,40012,2,0,P|217:245|222:269,1,26.9999991760254,2|0,1:2|0:0,0:0:0:0:
170,316,40175,2,0,B|144:311|125:302|141:293|121:283|90:278,1,80.9999975280763,2|2,0:0|0:0,0:0:0:0:
99,280,40500,1,0,1:0:0:0:
172,125,40988,6,0,P|196:109|225:102,1,53.9999983520508,0|2,1:2|0:0,0:0:0:0:
224,72,41232,2,0,P|252:77|277:93,1,53.9999983520508,2|2,3:2|0:0,0:0:0:0:
301,73,41476,2,0,P|324:107|334:149,1,80.9999975280763,2|2,1:2|3:2,0:0:0:0:
377,295,41963,6,0,P|370:336|364:385,1,80.9999975280763,2|2,1:2|3:2,0:0:0:0:
227,201,42451,2,0,P|234:242|240:291,1,80.9999975280763,0|2,1:0|3:2,0:0:0:0:
335,190,42858,1,0,0:0:0:0:
405,223,42939,6,0,P|431:211|462:190,1,53.9999983520508,0|2,1:0|0:0,0:0:0:0:
479,214,43183,2,0,P|488:187|495:150,1,53.9999983520508,2|0,3:2|0:0,0:0:0:0:
483,89,43427,1,2,1:2:0:0:
389,40,43590,2,0,P|349:56|295:70,1,80.9999975280763,2|2,0:0|0:0,0:0:0:0:
239,42,43915,6,0,P|242:22|248:1,2,40.4999987640381,2|0|2,1:2|0:0|3:2,0:0:0:0:
208,117,44281,2,0,P|213:136|216:156,1,40.4999987640381,0|0,0:0|1:0,0:0:0:0:
81,25,44646,2,0,P|47:15|9:-1,1,53.9999983520508,2|2,3:2|0:0,0:0:0:0:
17,85,44890,6,0,P|8:127|2:171,1,80.9999975280763,0|0,1:2|3:0,0:0:0:0:
110,219,45297,1,0,0:0:0:0:
106,141,45378,2,0,P|115:183|121:227,1,80.9999975280763,0|0,1:0|3:0,0:0:0:0:
8,346,45866,5,0,1:0:0:0:
8,346,46354,1,0,1:0:0:0:
147,292,46598,2,0,P|173:301|208:307,1,53.9999983520508,2|0,3:2|0:0,0:0:0:0:
271,263,46842,6,0,P|266:230|257:201,1,60,2|0,1:2|0:0,0:0:0:0:
353,305,47085,2,0,P|326:325|306:348,1,60,2|0,3:2|0:0,0:0:0:0:
348,212,47329,2,0,B|372:217|372:217|379:225|379:225|403:232,1,60,2|0,1:2|0:0,0:0:0:0:
402,232,47573,1,2,3:2:0:0:
501,93,47817,2,0,P|457:106|405:126,1,90,2|2,1:2|3:2,0:0:0:0:
266,47,48305,6,0,B|270:22|321:1|321:1|269:17|245:1,1,143.999995605469,2|8,1:2|1:3,0:0:0:0:
174,112,48549,6,0,B|190:126|183:181|183:181|195:128|221:115,1,143.999995605469,0|0,1:0|1:0,0:0:0:0:
179,28,48793,6,0,P|143:18|110:11,1,71.9999978027344,2|2,1:0|0:0,0:0:0:0:
41,48,49037,2,0,B|28:82|28:82|42:115,1,71.9999978027344,2|0,3:2|0:0,0:0:0:0:
183,181,49281,2,0,P|172:227|159:301,1,107.999996704102,10|2,1:2|3:2,0:0:0:0:
27,358,49687,1,2,0:0:0:0:
36,371,49768,6,0,P|73:359|108:343,1,71.9999978027344,2|0,1:2|0:0,0:0:0:0:
161,286,50012,2,0,P|198:298|233:314,1,71.9999978027344,2|0,3:2|0:0,0:0:0:0:
387,373,50256,2,0,P|396:381|393:368,1,26.9999991760254,10|0,1:2|0:0,0:0:0:0:
359,297,50419,2,0,P|311:314|303:369,1,107.999996704102,2|0,0:0|0:0,0:0:0:0:
387,373,50744,6,0,B|426:360|426:360|439:339|439:339|482:324,1,107.999996704102,2|2,1:2|3:2,0:0:0:0:
512,253,51150,1,2,0:0:0:0:
354,166,51232,6,0,P|315:150|271:135,1,71.9999978027344,8|2,1:2|0:0,0:0:0:0:
401,37,51476,2,0,P|406:78|415:124,1,71.9999978027344,2|0,3:2|0:0,0:0:0:0:
265,60,51720,2,0,P|298:34|333:3,1,71.9999978027344,2|0,1:2|0:0,0:0:0:0:
204,165,51963,2,0,P|190:128|181:94,1,71.9999978027344,2|0,3:2|0:0,0:0:0:0:
200,19,52207,2,0,P|203:8|193:18,1,26.9999991760254,8|0,1:2|0:0,0:0:0:0:
23,36,52451,2,0,P|14:72|2:112,1,71.9999978027344,0|0,3:0|0:0,0:0:0:0:
67,212,52695,6,0,P|103:220|141:230,1,71.9999978027344,2|2,1:2|0:0,0:0:0:0:
198,276,52939,2,0,P|232:266|267:259,1,71.9999978027344,2|2,3:2|0:0,0:0:0:0:
366,168,53183,2,0,P|369:156|373:166,1,26.9999991760254,10|0,1:2|0:0,0:0:0:0:
290,110,53346,1,2,0:0:0:0:
311,33,53427,2,0,P|304:69|297:112,1,71.9999978027344,2|2,3:2|0:0,0:0:0:0:
206,191,53671,6,0,P|200:155|193:120,1,71.9999978027344,2|0,1:2|0:0,0:0:0:0:
155,59,53915,1,2,3:2:0:0:
124,186,54077,2,0,B|214:201|168:243|244:260,1,143.999995605469,2|2,0:0|3:2,0:0:0:0:
344,218,54565,1,2,0:0:0:0:
289,148,54646,6,0,P|251:132|216:113,1,71.9999978027344,2|0,1:2|0:0,0:0:0:0:
376,135,54890,2,0,P|408:110|441:89,1,71.9999978027344,2|2,3:2|0:0,0:0:0:0:
344,218,55134,2,0,P|351:277|354:336,1,107.999996704102,10|0,1:2|3:0,0:0:0:0:
236,370,55541,1,0,0:0:0:0:
172,323,55622,6,0,P|140:341|98:357,1,71.9999978027344,2|0,1:2|0:0,0:0:0:0:
204,239,55866,2,0,P|235:257|270:286,1,71.9999978027344,2|0,3:2|0:0,0:0:0:0:
108,242,56110,2,0,B|98:178|130:202|111:127,1,107.999996704102,10|0,1:2|3:0,0:0:0:0:
8,45,56516,1,2,0:0:0:0:
81,68,56598,6,0,P|122:51|150:33,1,71.9999978027344,2|0,1:0|0:0,0:0:0:0:
210,84,56842,2,0,P|226:42|234:10,1,71.9999978027344,2|0,3:2|0:0,0:0:0:0:
336,125,57085,6,0,P|352:166|360:198,1,71.9999978027344,10|0,1:2|0:0,0:0:0:0:
438,204,57329,2,0,P|421:245|403:273,1,71.9999978027344,2|2,3:2|0:0,0:0:0:0:
265,278,57573,6,0,P|215:265|156:251,2,107.999996704102,2|0|10,1:2|3:0|1:2,0:0:0:0:
186,108,58305,2,0,P|196:143|204:183,1,71.9999978027344,2|0,3:2|0:0,0:0:0:0:
265,278,58549,6,0,P|306:261|338:242,1,71.9999978027344,2|0,1:2|0:0,0:0:0:0:
177,261,58793,2,0,P|141:233|109:215,1,71.9999978027344,2|0,3:2|0:0,0:0:0:0:
115,63,59037,6,0,P|98:104|88:140,1,71.9999978027344,10|0,1:2|0:0,0:0:0:0:
190,12,59281,2,0,P|234:6|269:-3,1,71.9999978027344,2|0,3:2|0:0,0:0:0:0:
350,72,59524,2,0,B|425:53|373:48|461:32,1,107.999996704102,2|0,1:2|3:0,0:0:0:0:
316,224,60012,2,0,P|319:238|325:225,1,26.9999991760254,10|0,1:2|0:0,0:0:0:0:
433,143,60256,2,0,P|470:154|517:173,1,71.9999978027344,2|0,3:2|0:0,0:0:0:0:
501,76,60500,6,0,P|351:126|141:215,1,377.999988464356,2|2,0:0|0:0,0:0:0:0:
454,350,62451,6,0,L|457:337,1,13.4999995880127,8|0,1:2|0:0,0:0:0:0:
47,21,62817,6,0,L|43:41,1,13.4999995880127,8|0,1:2|0:0,0:0:0:0:
256,192,63183,6,0,P|307:171|364:153,1,107.999996704102,10|2,1:2|0:0,0:0:0:0:
168,196,63915,6,0,B|147:186|135:133|135:133|142:188|126:202,1,143.999995605469,2|0,3:2|0:0,0:0:0:0:
206,310,64159,6,0,B|222:298|274:314|274:314|223:293|219:268,1,143.999995605469,2|0,3:2|0:0,0:0:0:0:
47,325,64403,6,0,B|26:339|2:328|-1:304|-1:304|26:186,1,180,6|2,1:0|3:2,0:0:0:0:
129,32,64809,1,2,0:0:0:0:
247,77,64890,6,0,P|183:63|132:45,1,120,10|0,1:2|0:0,0:0:0:0:
312,140,65134,2,0,P|284:157|260:169,1,60,2|0,3:2|0:0,0:0:0:0:
188,182,65297,1,2,0:0:0:0:
295,286,65378,6,0,B|366:265|317:236|393:215,1,120,2|0,1:2|0:0,0:0:0:0:
485,334,65622,2,0,P|489:344|488:329,1,45,10|0,3:2|0:0,0:0:0:0:
462,241,65785,1,2,0:0:0:0:
338,347,65866,6,0,P|278:328|220:310,1,120,10|0,1:2|0:0,0:0:0:0:
123,259,66110,2,0,P|137:255|150:251,1,24,2|0,3:2|0:0,0:0:0:0:
86,342,66354,6,0,B|60:234|127:273|92:154,1,180,2|0,1:2|3:0,0:0:0:0:
182,39,66760,1,0,0:0:0:0:
76,0,66842,6,0,P|111:39|191:41,1,120,8|0,1:2|0:0,0:0:0:0:
9,154,67085,2,0,P|25:104|-12:33,1,120,2|0,3:2|0:0,0:0:0:0:
140,159,67329,5,0,1:0:0:0:
140,159,67573,6,0,P|135:148|136:163,1,45,8|0,3:2|0:0,0:0:0:0:
353,238,67817,2,0,P|357:248|356:233,1,45,10|0,1:2|0:0,0:0:0:0:
197,308,68061,2,0,P|194:322|191:339,1,24,2|0,3:2|0:0,0:0:0:0:
151,252,68305,6,0,P|208:269|265:288,1,120,2|0,1:2|0:0,0:0:0:0:
33,215,68549,2,0,P|85:186|139:159,1,120,2|0,3:2|0:0,0:0:0:0:
253,91,68793,2,0,P|257:80|256:95,1,45,8|0,1:2|0:0,0:0:0:0:
74,19,69037,1,2,3:2:0:0:
139,158,69159,6,0,B|263:177|194:257|316:280,1,225,2|0,0:0|0:0,0:0:0:0:
363,220,69524,2,0,P|367:209|366:224,1,45,10|0,3:2|0:0,0:0:0:0:
237,384,69768,2,0,B|219:359|157:341|157:341|219:353|245:337,1,180,10|2,1:2|3:2,0:0:0:0:
431,256,70175,1,0,0:0:0:0:
333,333,70256,6,0,P|328:311|321:282,1,48,2|0,1:2|0:0,0:0:0:0:
410,380,70500,2,0,P|421:321|440:243,1,120,0|0,3:0|0:0,0:0:0:0:
274,204,70744,6,0,P|278:182|285:153,1,35.9999989013672,8|0,1:2|0:0,0:0:0:0:
206,260,70988,2,0,P|194:201|175:123,1,120,2|0,3:2|0:0,0:0:0:0:
352,115,71232,6,0,P|349:104|346:89,1,24,2|0,1:2|0:0,0:0:0:0:
412,168,71476,2,0,P|416:179|415:164,1,45,8|0,3:2|0:0,0:0:0:0:
259,10,71720,6,0,P|233:20|201:30,1,60,10|0,1:2|0:0,0:0:0:0:
92,76,72207,6,0,B|89:64|65:59|65:59|94:53|115:60|156:70|117:104|198:111,1,180,2|2,1:0|3:2,0:0:0:0:
95,225,72614,1,2,0:0:0:0:
202,281,72695,6,0,B|214:260|249:249|249:249|213:255|188:238,1,120,10|0,1:2|0:0,0:0:0:0:
101,307,72939,2,0,P|94:334|84:373,1,60,2|0,3:2|0:0,0:0:0:0:
159,384,73102,1,2,0:0:0:0:
274,183,73183,6,0,P|287:235|307:311,1,120,2|0,1:2|0:0,0:0:0:0:
418,375,73427,2,0,P|414:386|415:371,1,45,10|0,3:2|0:0,0:0:0:0:
303,299,73590,1,2,0:0:0:0:
437,246,73671,6,0,B|460:262|496:256|496:256|461:267|449:288,1,120,10|0,1:2|0:0,0:0:0:0:
359,213,73915,2,0,P|365:181|371:154,1,60,2|0,3:2|0:0,0:0:0:0:
406,87,74077,1,2,0:0:0:0:
274,183,74159,6,0,B|145:168|222:107|85:92,1,215.999993408203,2|0,1:2|3:0,0:0:0:0:
189,12,74524,1,2,0:0:0:0:
254,96,74646,2,0,P|248:73|243:57,1,35.9999989013672,8|0,1:2|0:0,0:0:0:0:
92,188,74890,6,0,B|79:222|54:241|54:241|78:290|93:350,1,167.999994873047,2|0,3:2|0:0,0:0:0:0:
186,365,75134,2,0,P|175:369|163:372,1,24,0|0,1:0|0:0,0:0:0:0:
204,263,75378,6,0,P|208:252|207:267,1,45,8|0,3:2|0:0,0:0:0:0:
375,379,75622,6,0,B|416:366|416:366|434:343|434:343|479:330,1,120,10|0,1:2|0:0,0:0:0:0:
368,222,75866,2,0,P|349:167|311:94,1,120,2|0,3:2|0:0,0:0:0:0:
450,256,76110,6,0,P|459:228|478:192,1,60,2|0,1:2|0:0,0:0:0:0:
433,108,76598,2,0,P|429:97|430:112,1,45,8|0,1:2|0:0,0:0:0:0:
256,192,76842,5,2,1:2:0:0:
256,192,77817,5,2,3:2:0:0:
230,178,77898,1,0,3:0:0:0:
220,128,77980,1,0,3:0:0:0:
274,79,78061,6,0,B|324:94|324:94|348:126|348:126|397:140,1,144,6|2,1:0|3:2,0:0:0:0:
339,256,78427,1,0,0:0:0:0:
461,228,78549,6,0,P|462:213|457:226,1,36,10|0,1:2|0:0,0:0:0:0:
396,65,78793,1,2,3:2:0:0:
497,0,78915,6,0,P|483:72|469:152,1,144,2|0,0:0|0:0,0:0:0:0:
396,169,79281,2,0,P|360:158|324:148,1,72,2|0,3:2|0:0,0:0:0:0:
218,38,79525,6,0,P|216:23|222:36,1,36,8|0,1:2|0:0,0:0:0:0:
122,190,79769,1,2,3:2:0:0:
237,147,79931,1,2,0:0:0:0:
176,101,80012,6,0,P|116:119|137:200,1,144,2|0,1:2|3:0,0:0:0:0:
209,277,80419,1,0,0:0:0:0:
196,269,80500,6,0,P|194:254|200:267,1,36,8|0,1:2|0:0,0:0:0:0:
279,376,80744,1,2,3:2:0:0:
399,298,80866,2,0,P|300:330|193:367,1,216,2|2,0:0|3:2,0:0:0:0:
304,180,81476,2,0,B|327:167|344:121|344:121|332:169|345:194,1,144,10|0,1:2|3:2,0:0:0:0:
416,215,81842,1,2,0:0:0:0:
425,208,81903,1,2,0:0:0:0:
428,197,81963,6,0,B|436:176|458:158|458:158|437:114|428:63,1,144,2|2,1:2|3:2,0:0:0:0:
287,0,82330,1,0,0:0:0:0:
344,104,82451,2,0,P|354:114|349:98,1,36,10|0,1:2|0:0,0:0:0:0:
240,68,82695,1,2,3:2:0:0:
287,0,82817,6,0,B|167:38|244:96|109:124,1,216,2|2,0:0|3:2,0:0:0:0:
6,5,83427,2,0,P|6:-10|17:0,1,36,8|0,1:2|0:0,0:0:0:0:
124,39,83671,1,2,3:2:0:0:
27,175,83834,5,2,0:0:0:0:
49,103,83915,1,2,1:2:0:0:
124,39,84078,5,2,0:0:0:0:
157,134,84159,1,2,3:2:0:0:
259,186,84321,5,2,0:0:0:0:
304,53,84403,2,0,P|307:38|296:46,1,36,10|0,1:2|0:0,0:0:0:0:
157,134,84647,6,0,P|128:144|93:155,1,48,2|0,3:2|0:0,0:0:0:0:
209,70,84809,2,0,P|192:140|177:218,1,144,2|2,0:0|0:0,0:0:0:0:
197,288,85134,2,0,B|219:294|232:319|232:319|221:293|229:270,1,96,2|2,3:2|0:0,0:0:0:0:
79,218,85378,2,0,P|76:203|87:211,1,36,10|0,1:2|0:0,0:0:0:0:
23,346,85541,5,2,1:2:0:0:
87,311,85622,1,2,1:2:0:0:
3,177,85785,5,2,1:2:0:0:
68,104,85866,2,0,P|64:122|62:134,1,24,2|0,0:3|0:0,0:0:0:0:
163,199,86110,2,0,B|179:187|231:203|231:203|180:182|176:157,1,143.999995605469,2|2,3:2|3:2,0:0:0:0:
130,28,86354,2,0,P|143:20|137:34,1,36,6|0,1:0|0:0,0:0:0:0:
314,89,86598,1,2,3:2:0:0:
249,126,86720,6,0,P|344:155|322:264,1,216,2|2,0:0|3:2,0:0:0:0:
176,373,87330,2,0,P|163:380|168:367,1,36,8|0,1:2|0:0,0:0:0:0:
289,318,87573,1,2,3:2:0:0:
178,216,87736,1,2,0:0:0:0:
125,280,87817,6,0,B|248:253|171:200|310:180,1,216,2|0,1:2|0:0,0:0:0:0:
402,260,88305,2,0,P|414:267|409:254,1,36,8|0,1:2|0:0,0:0:0:0:
337,84,88549,1,2,3:2:0:0:
235,121,88671,6,0,B|198:105|128:123|128:123|195:98|213:57,1,216,2|2,0:0|3:2,0:0:0:0:
380,186,89281,2,0,P|368:254|359:329,1,144,10|0,1:2|3:2,0:0:0:0:
300,375,89646,1,2,0:0:0:0:
290,378,89707,1,2,0:0:0:0:
280,372,89768,6,0,B|200:352|252:309|158:289,1,144,2|2,1:2|3:2,0:0:0:0:
95,325,90134,1,0,0:0:0:0:
195,167,90256,2,0,P|204:157|202:172,1,36,10|0,1:2|0:0,0:0:0:0:
58,235,90500,1,2,3:2:0:0:
91,166,90622,6,0,P|185:199|301:245,1,216,2|2,0:0|3:2,0:0:0:0:
426,123,91232,2,0,P|417:113|419:128,1,36,8|0,1:2|0:0,0:0:0:0:
471,290,91476,1,2,3:2:0:0:
365,205,91638,5,2,0:0:0:0:
293,241,91720,1,2,1:2:0:0:
234,297,91882,5,2,0:0:0:0:
344,339,91963,1,2,3:2:0:0:
401,282,92126,5,2,0:0:0:0:
277,370,92207,2,0,P|268:380|270:365,1,36,10|0,1:2|0:0,0:0:0:0:
137,200,92451,6,0,P|144:225|150:262,1,48,2|0,3:2|0:0,0:0:0:0:
198,152,92614,2,0,B|105:137|150:194|55:177,1,144,2|2,0:0|0:0,0:0:0:0:
6,61,92939,2,0,P|52:73|106:91,1,96,2|2,3:2|0:0,0:0:0:0:
271,218,93183,6,0,P|274:203|263:211,1,36,10|0,1:2|0:0,0:0:0:0:
326,69,93346,1,2,0:0:0:0:
354,138,93427,1,2,3:2:0:0:
230,21,93590,1,2,3:2:0:0:
172,70,93671,6,0,P|137:58|98:46,1,62.9999980773926,2|0,1:0|0:0,0:0:0:0:
424,301,94524,6,0,B|448:238|421:182|368:194|334:137|367:71,1,251.999992309571,2|0,1:2|0:0,0:0:0:0:
348,254,94890,2,0,B|352:208|392:184|426:206|460:183|457:139,1,167.999994873047,2|2,1:2|0:0,0:0:0:0:
460,48,95134,6,0,P|445:31|448:56,1,62.9999980773926,8|0,0:0|0:0,0:0:0:0:
366,355,95541,1,2,0:0:0:0:
424,301,95622,6,0,P|459:289|498:277,1,62.9999980773926,2|0,1:2|0:0,0:0:0:0:
211,177,96476,6,0,B|140:153|94:224|109:234|70:297|-3:268,1,251.999992309571,0|0,1:0|0:0,0:0:0:0:
31,194,96842,2,0,B|79:177|110:226|100:233|127:276|177:256,1,167.999994873047,2|0,3:2|0:0,0:0:0:0:
266,257,97085,6,0,P|285:243|274:263,1,62.9999980773926,8|0,1:2|0:0,0:0:0:0:
465,67,97573,6,0,P|459:30|454:-1,1,62.9999980773926,0|0,1:2|0:0,0:0:0:0:
189,171,98427,6,0,B|164:122|91:95|91:95|165:116|215:85,1,251.999992309571,2|0,1:2|0:0,0:0:0:0:
322,242,98793,2,0,B|301:273|309:327|309:327|296:274|260:255,1,167.999994873047,2|0,1:2|0:0,0:0:0:0:
265,170,99037,6,0,P|280:152|277:178,1,62.9999980773926,8|0,0:0|0:0,0:0:0:0:
318,82,99281,2,0,P|339:87|360:94,1,35.9999989013672,2|0,3:2|0:0,0:0:0:0:
468,156,99524,6,0,P|482:79|497:5,1,143.999995605469,2|0,1:2|3:0,0:0:0:0:
393,202,99768,2,0,P|389:182|385:164,1,35.9999989013672,2|0,3:2|0:0,0:0:0:0:
235,235,100012,6,0,P|222:167|209:102,1,120,2|0,1:2|3:0,0:0:0:0:
310,281,100256,2,0,P|312:267|315:254,1,24,2|2,3:2|0:0,0:0:0:0:
449,336,100500,6,0,P|457:286|467:239,1,96,0|0,1:2|3:0,0:0:0:0:
367,374,100744,2,0,P|365:367|364:360,1,12,0|0,3:0|0:0,0:0:0:0:
191,302,100988,5,4,1:3:0:0:
332,209,101150,5,8,1:3:0:0:
310,281,101232,1,0,1:0:0:0:
176,149,101394,5,0,1:0:0:0:
198,223,101476,2,0,P|209:154|225:79,1,144,2|2,1:0|3:2,0:0:0:0:
383,0,101963,2,0,B|477:18|434:52|515:69,1,144,10|2,1:2|3:2,0:0:0:0:
411,165,102370,1,2,0:0:0:0:
346,119,102451,6,0,P|303:138|247:155,1,96,2|0,1:2|0:0,0:0:0:0:
196,205,102695,2,0,P|153:186|97:169,1,96,2|2,3:2|0:0,0:0:0:0:
0,60,102939,2,0,P|8:48|6:63,1,36,8|0,1:2|0:0,0:0:0:0:
0,137,103102,2,0,B|23:152|35:198|35:198|26:152|44:127,1,144,2|2,0:0|0:0,0:0:0:0:
153,73,103427,6,0,P|199:90|214:133,1,96,0|0,1:0|0:0,0:0:0:0:
196,205,103671,1,2,3:2:0:0:
320,168,103833,1,2,0:0:0:0:
343,258,103915,6,0,P|333:204|323:154,1,96,10|0,1:2|0:0,0:0:0:0:
289,96,104159,2,0,P|299:42|309:-8,1,96,2|0,3:2|0:0,0:0:0:0:
434,42,104403,6,0,B|444:70|466:97|466:97|448:135|441:177,1,144,2|2,1:2|3:2,0:0:0:0:
333,344,104890,2,0,B|245:330|296:299|200:286,1,144,10|2,1:2|3:2,0:0:0:0:
59,361,105297,1,2,0:0:0:0:
18,270,105378,6,0,P|45:278|75:289,1,60,2|0,1:2|0:0,0:0:0:0:
141,256,105866,2,0,B|169:177|107:204|143:104,1,144,8|0,1:2|3:0,0:0:0:0:
19,9,106272,1,2,0:0:0:0:
67,68,106354,6,0,P|111:49|156:33,1,96,0|0,1:0|0:0,0:0:0:0:
225,0,106598,2,0,P|269:18|314:34,1,96,2|0,3:2|0:0,0:0:0:0:
413,0,106842,2,0,P|405:-12|407:3,1,36,8|0,1:2|0:0,0:0:0:0:
216,144,107329,6,0,P|210:120|205:105,1,35.9999989013672,0|2,1:0|0:0,0:0:0:0:
295,199,107573,2,0,P|310:135|324:96,1,96,2|0,3:2|0:0,0:0:0:0:
481,237,107817,6,0,P|485:217|489:206,1,24,8|2,1:2|0:0,0:0:0:0:
407,290,108061,2,0,P|391:226|377:187,1,83.9999974365235,2|0,3:2|0:0,0:0:0:0:
226,285,108305,6,0,P|223:275|221:269,1,12,2|0,1:2|0:0,0:0:0:0:
300,338,108549,2,0,P|313:284|324:250,1,71.9999978027344,2|2,3:2|0:0,0:0:0:0:
226,362,108793,6,0,P|218:374|220:359,1,26.9999991760254,10|0,1:2|0:0,0:0:0:0:
179,209,109037,5,2,3:2:0:0:
164,185,109118,1,0,3:0:0:0:
117,173,109199,1,0,3:0:0:0:
50,212,109281,6,0,P|42:166|29:112,1,96,2|0,1:0|0:0,0:0:0:0:
144,278,109524,2,0,P|152:232|165:178,1,96,0|0,3:0|0:0,0:0:0:0:
348,147,109768,6,0,P|335:76|315:-6,1,144,8|2,1:2|3:2,0:0:0:0:
391,232,110134,1,2,0:0:0:0:
257,286,110256,6,0,P|265:240|278:186,1,96,0|0,1:0|0:0,0:0:0:0:
163,371,110500,2,0,P|155:325|142:271,1,96,2|0,3:2|0:0,0:0:0:0:
316,372,110744,6,0,P|324:384|322:369,1,36,8|0,1:2|0:0,0:0:0:0:
180,196,110988,1,2,3:2:0:0:
294,113,111150,1,2,0:0:0:0:
249,50,111232,6,0,P|264:122|278:203,1,144,2|0,1:2|3:0,0:0:0:0:
394,97,111598,1,2,0:0:0:0:
463,159,111720,2,0,P|452:209|442:265,1,96,8|0,1:2|0:0,0:0:0:0:
337,257,111963,2,0,P|347:307|357:363,1,96,2|0,3:2|0:0,0:0:0:0:
9,142,112451,6,0,P|19:192|29:248,1,96,2|0,3:2|0:0,0:0:0:0:
146,29,112695,2,0,P|135:79|125:135,1,96,8|0,1:2|0:0,0:0:0:0:
9,142,112939,2,0,P|19:192|29:248,1,96,2|0,3:2|0:0,0:0:0:0:
139,365,113183,6,0,B|221:341|180:314|266:298,1,144,0|2,1:0|3:2,0:0:0:0:
494,122,113671,2,0,B|412:98|453:71|367:55,1,144,8|2,1:2|3:2,0:0:0:0:
264,164,114077,1,2,0:0:0:0:
350,236,114159,6,0,P|361:176|371:128,1,96,2|0,1:2|0:0,0:0:0:0:
264,164,114403,2,0,P|253:104|243:56,1,96,2|0,3:2|0:0,0:0:0:0:
57,312,114646,6,0,P|46:252|36:204,1,96,8|0,1:2|0:0,0:0:0:0:
143,240,114890,2,0,P|154:180|164:132,1,96,2|0,3:2|0:0,0:0:0:0:
274,377,115134,6,0,P|358:350|449:324,1,180,0|2,1:0|3:2,0:0:0:0:
143,240,115622,6,0,P|222:257|307:278,1,144,8|2,1:2|3:2,0:0:0:0:
289,163,116029,1,2,0:0:0:0:
210,90,116110,6,0,P|256:132|304:178,1,107.999996704102,2|2,1:2|3:2,0:0:0:0:
303,0,116598,6,0,P|310:22|317:47,1,44.999998626709,8|0,1:2|0:0,0:0:0:0:
210,90,117085,6,0,P|149:74|102:58,1,96,2|0,1:0|0:0,0:0:0:0:
137,241,117329,2,0,P|181:196|218:163,1,96,0|0,3:0|0:0,0:0:0:0:
46,110,117573,2,0,B|38:140|22:158|22:158|39:183|51:244,1,144,8|0,1:2|3:0,0:0:0:0:
183,381,117980,1,0,0:0:0:0:
112,333,118061,6,0,P|126:278|139:229,1,96,0|0,1:0|0:0,0:0:0:0:
280,350,118305,2,0,P|225:365|176:378,1,96,2|0,3:2|0:0,0:0:0:0:
270,217,118549,2,0,B|338:193|382:262|367:271|405:332|475:304,1,240,10|0,1:2|0:0,0:0:0:0:
512,225,119037,6,0,P|501:151|487:76,1,144,2|0,1:2|3:0,0:0:0:0:
299,52,119403,1,0,0:0:0:0:
400,129,119524,2,0,P|408:72|419:15,1,96,8|0,1:2|0:0,0:0:0:0:
306,145,119768,6,0,B|165:104|259:41|120:3,1,240,2|0,3:2|0:0,0:0:0:0:
36,39,120256,2,0,P|87:25|131:-1,1,96,2|0,3:2|0:0,0:0:0:0:
126,178,120500,2,0,P|88:140|43:115,1,96,10|0,1:2|0:0,0:0:0:0:
201,30,120744,2,0,P|187:81|188:132,1,96,2|0,3:2|0:0,0:0:0:0:
298,224,120988,6,0,P|257:191|208:195,1,96,2|0,1:2|0:0,0:0:0:0:
129,306,121232,2,0,B|106:284|61:292|61:292|106:280|121:255,1,144,2|8,3:2|1:2,0:0:0:0:
355,384,121720,2,0,B|329:241|407:309|366:151,1,240,2|0,3:2|0:0,0:0:0:0:
413,87,122207,2,0,P|462:102|516:116,1,96,2|0,3:2|0:0,0:0:0:0:
267,26,122451,6,0,P|313:13|359:0,1,96,10|0,1:2|0:0,0:0:0:0:
181,118,122695,2,0,P|226:132|273:144,1,96,2|0,3:2|0:0,0:0:0:0:
86,76,122939,6,0,P|76:40|68:11,1,48,2|0,1:2|0:0,0:0:0:0:
161,187,123183,2,0,P|174:137|185:97,1,71.9999978027344,2|0,3:2|0:0,0:0:0:0:
59,273,123427,2,0,P|41:209|27:159,1,96,10|0,1:2|0:0,0:0:0:0:
174,293,123671,6,0,P|224:277|290:259,1,107.999996704102,2|2,3:2|3:2,0:0:0:0:
334,59,124403,2,0,P|326:47|328:62,1,36,10|0,1:2|0:0,0:0:0:0:
451,178,124646,2,0,P|462:120|472:81,1,96,2|0,3:2|0:0,0:0:0:0:
349,189,124890,5,2,0:0:0:0:
349,189,125744,2,0,B|237:187|298:258|169:260,1,202.499993820191,2|0,0:0|0:0,0:0:0:0:
132,195,126110,1,10,0:0:0:0:
119,158,126191,1,0,0:0:0:0:
132,120,126272,1,2,0:0:0:0:
167,102,126354,2,0,P|192:109|226:117,1,53.9999983520508,10|2,0:0|3:2,0:0:0:0:
145,14,126679,6,0,B|136:19|111:7|111:7|135:21|135:34,1,71.9999978027344
268,27,126842,6,0,P|255:122|242:231,1,198.000006042481,6|0,1:0|3:0,0:0:0:0:
368,298,127248,1,0,0:0:0:0:
419,240,127329,6,0,P|357:258|294:283,1,132.00000402832,8|0,1:2|0:0,0:0:0:0:
189,348,127573,2,0,P|127:323|64:305,1,132.00000402832,2|0,3:2|0:0,0:0:0:0:
201,214,127817,6,0,P|206:233|210:255,1,35.9999989013672,0|0,1:0|0:0,0:0:0:0:
127,213,128061,2,0,B|208:196|155:165|241:153,1,132.00000402832,0|0,3:2|0:0,0:0:0:0:
128,57,128305,6,0,P|119:88|112:121,1,66.0000020141602,10|0,1:2|0:0,0:0:0:0:
39,172,128468,1,0,0:0:0:0:
10,35,128549,2,0,P|27:102|42:169,1,132.00000402832,2|0,3:2|0:0,0:0:0:0:
136,253,128793,6,0,B|147:230|190:217|190:217|146:226|125:212,1,132.00000402832,2|0,1:2|0:0,0:0:0:0:
45,297,129037,2,0,B|34:274|-9:261|-9:261|35:270|62:257,1,132.00000402832,2|0,3:2|0:0,0:0:0:0:
135,362,129281,6,0,P|142:380|130:365,1,49.5000015106202,8|0,1:2|0:0,0:0:0:0:
318,299,129524,1,2,3:2:0:0:
251,380,129646,6,0,B|224:324|265:269|325:303|337:235|301:157,1,247.500007553101,2|0,0:0|0:0,0:0:0:0:
214,106,130012,2,0,B|203:129|160:142|160:142|204:133|225:147,1,132.00000402832,2|0,3:2|0:0,0:0:0:0:
308,60,130256,2,0,B|293:38|303:-5|303:-5|289:37|266:49,1,132.00000402832,10|0,1:2|0:0,0:0:0:0:
304,163,130500,2,0,B|329:161|362:191|362:191|332:158|334:132,1,132.00000402832,2|0,3:2|0:0,0:0:0:0:
127,61,130744,6,0,P|135:29|146:-4,1,60,2|0,1:2|0:0,0:0:0:0:
63,141,130988,2,0,P|45:70|21:-1,1,132.00000402832,0|0,3:0|0:0,0:0:0:0:
195,178,131232,6,0,P|187:146|176:113,1,48,8|0,1:2|0:0,0:0:0:0:
259,258,131476,2,0,P|276:187|300:115,1,132.00000402832,2|0,3:2|0:0,0:0:0:0:
129,275,131720,6,0,P|133:259|138:242,1,24,2|0,1:2|0:0,0:0:0:0:
65,355,131964,2,0,P|47:284|23:212,1,132.00000402832,0|0,3:2|0:0,0:0:0:0:
223,351,132207,6,0,P|237:356|253:363,1,30,10|0,1:2|0:0,0:0:0:0:
288,274,132695,6,0,B|159:303|239:362|109:391,1,198.000006042481,2|2,1:0|3:2,0:0:0:0:
96,168,133102,1,2,0:0:0:0:
117,304,133183,6,0,P|106:239|92:174,1,132.00000402832,10|0,1:2|0:0,0:0:0:0:
214,114,133427,2,0,P|219:81|226:49,1,66.0000020141602,2|0,3:2|0:0,0:0:0:0:
167,0,133590,1,2,0:0:0:0:
292,163,133671,6,0,B|325:156|360:166|360:166|326:151|311:120,1,132.00000402832,2|0,1:2|0:0,0:0:0:0:
209,221,133915,2,0,B|164:210|164:210|138:176|138:176|89:166,1,132.00000402832,2|2,3:2|0:0,0:0:0:0:
39,37,134159,2,0,P|53:22|46:42,1,49.5000015106202,10|0,1:2|0:0,0:0:0:0:
23,237,134403,6,0,P|13:200|1:174,1,66.0000020141602,2|0,3:2|0:0,0:0:0:0:
45,115,134565,1,2,0:0:0:0:
209,221,134646,6,0,B|325:180|235:111|374:72,1,233.999989288331,2|0,1:2|3:0,0:0:0:0:
464,245,135053,1,0,0:0:0:0:
371,161,135134,2,0,P|377:184|382:211,1,48,8|0,1:2|0:0,0:0:0:0:
260,350,135378,6,0,P|170:325|71:299,1,180.000006866455,2|0,3:2|0:0,0:0:0:0:
4,220,135622,2,0,P|25:212|42:206,1,35.9999989013672,0|0,1:0|0:0,0:0:0:0:
146,126,135866,6,0,P|128:55|109:-1,1,132.00000402832,0|0,3:2|0:0,0:0:0:0:
19,80,136110,2,0,P|5:95|12:75,1,49.5000015106202,10|0,1:2|0:0,0:0:0:0:
216,226,136354,2,0,P|234:155|253:99,1,132.00000402832,2|0,3:2|0:0,0:0:0:0:
357,22,136598,6,0,P|398:38|446:50,1,89.9999972534181,2|0,1:2|0:0,0:0:0:0:
492,161,137085,2,0,P|506:176|499:156,1,49.5000015106202,8|0,1:2|0:0,0:0:0:0:
337,212,137329,6,0,B|326:245|304:262|304:262|319:290|334:355,1,150,2|0,1:2|0:0,0:0:0:0:
331,346,137817,1,2,0:0:0:0:
267,384,138061,1,2,0:0:0:0:
218,324,138305,1,2,0:0:0:0:
