osu file format v14

[General]
AudioFilename: audio.mp3
AudioLeadIn: 0
PreviewTime: 63183
Countdown: 0
SampleSet: Soft
StackLeniency: 0.5
Mode: 0
LetterboxInBreaks: 0
WidescreenStoryboard: 1

[Editor]
Bookmarks: 17573,33183,48793,64403,71720,72207,93671,109281,132207,132695
DistanceSpacing: 1.5
BeatDivisor: 6
GridSize: 16
TimelineZoom: 1.8

[Metadata]
Title:Kinmokusei (feat. Ado)
TitleUnicode:金木犀 (feat. Ado)
Artist:Kujira
ArtistUnicode:くじら
Creator:alevi
Version:GodKei's Insane
Source:
Tags:jpop j-pop japanese pop female vocalist whaledontsleep osmanthus アド froskya revialink ponbot yuuma3 suzuaki_rin godkei
BeatmapID:3545949
BeatmapSetID:1679541

[Difficulty]
HPDrainRate:5
CircleSize:4
OverallDifficulty:7.6
ApproachRate:8.3
SliderMultiplier:1.6
SliderTickRate:1

[Events]
//Background and Video events
0,0,"woahabg.jpg",0,0
//Break Periods
2,78261,92967
//Storyboard Layer 0 (Background)
//Storyboard Layer 1 (Fail)
//Storyboard Layer 2 (Pass)
//Storyboard Layer 3 (Foreground)
//Storyboard Layer 4 (Overlay)
//Storyboard Sound Samples

[TimingPoints]
1964,487.80487804878,4,2,1,25,1,0
9768,-100,4,2,1,40,0,0
17573,-83.3333333333333,4,2,1,75,0,0
33183,-100,4,2,1,65,0,0
48793,-83.3333333333333,4,2,1,75,0,0
60500,-83.3333333333333,4,2,1,70,0,0
62451,-83.3333333333333,4,2,1,75,0,0
64403,-71.4285714285714,4,2,1,85,0,0
71720,-142.857142857143,4,2,1,85,0,0
72207,-71.4285714285714,4,2,1,85,0,0
78061,-71.4285714285714,4,2,1,75,0,0
93671,-83.3333333333333,4,2,1,65,0,0
101476,-83.3333333333333,4,2,1,70,0,0
109281,-71.4285714285714,4,2,1,75,0,0
117085,-76.9230769230769,4,2,1,80,0,0
126842,-71.4285714285714,4,2,1,90,0,0
132207,-142.857142857143,4,2,1,90,0,0
132695,-71.4285714285715,4,2,1,90,0,0
137817,-71.4285714285715,4,2,1,45,0,0

[Colours]
Combo1 : 241,107,174
Combo2 : 237,150,179
Combo3 : 158,158,207

[HitObjects]
42,41,17573,6,0,B|91:83|91:83|94:92|94:92|163:145,1,143.999995605469,6|0,1:0|0:0,0:0:0:0:
224,89,18061,2,0,P|197:79|198:45,1,47.9999985351563,10|0,1:2|0:0,0:0:0:0:
259,21,18305,1,2,3:2:0:0:
259,21,18427,2,0,L|414:44,1,143.999995605469,2|2,0:0|3:2,0:0:0:0:
458,111,19037,1,8,1:2:0:0:
348,184,19281,2,0,L|411:180,1,63.9999980468751,2|2,3:2|0:0,0:0:0:0:
353,202,19524,6,0,B|382:262|382:262|341:261|298:285,1,143.999995605469,2|0,1:2|0:0,0:0:0:0:
337,365,20012,2,0,P|356:358|420:362,1,63.9999980468751,8|0,1:2|0:0,0:0:0:0:
469,306,20256,1,2,3:2:0:0:
469,306,20378,2,0,B|482:243|482:243|479:240|479:240|494:151,1,143.999995605469,2|2,0:0|3:2,0:0:0:0:
510,18,20988,2,0,P|466:48|400:24,1,95.9999970703126,10|0,1:2|3:2,0:0:0:0:
363,0,21354,1,0,0:0:0:0:
363,0,21476,6,0,P|290:20|203:47,1,143.999995605469,2|0,1:2|0:0,0:0:0:0:
211,58,21963,1,10,1:2:0:0:
59,124,22207,1,2,3:2:0:0:
59,124,22329,1,2,0:0:0:0:
59,124,22451,2,0,L|87:195,1,47.9999985351563,0|0,1:0|0:0,0:0:0:0:
106,237,22695,1,2,3:2:0:0:
163,130,22939,1,8,1:2:0:0:
145,317,23183,2,0,P|169:298|194:256,1,63.9999980468751,2|2,3:2|0:0,0:0:0:0:
231,203,23427,5,2,1:2:0:0:
294,314,23590,1,2,0:0:0:0:
294,314,23671,2,0,L|367:279,1,63.9999980468751,2|2,3:2|0:0,0:0:0:0:
417,247,23915,2,0,B|407:226|384:214|384:214|396:152,1,95.9999970703126,10|2,1:2|3:2,0:0:0:0:
480,80,24321,5,2,0:0:0:0:
480,80,24403,1,0,1:2:0:0:
401,26,24565,5,2,0:0:0:0:
401,26,24646,1,2,3:2:0:0:
314,55,24809,5,2,0:0:0:0:
314,55,24890,2,0,L|244:43,1,63.9999980468751,2|2,1:2|1:2,0:0:0:0:
226,56,25134,5,2,1:2:0:0:
254,135,25297,1,2,1:2:0:0:
254,135,25378,6,0,B|236:199|236:199|239:208|239:208|225:279,1,143.999995605469,2|0,1:0|0:0,0:0:0:0:
139,271,25866,2,0,L|150:211,1,47.9999985351563,10|0,1:2|0:0,0:0:0:0:
74,342,26110,1,2,3:2:0:0:
74,342,26232,2,0,L|229:365,1,143.999995605469,2|2,0:0|3:2,0:0:0:0:
307,313,26842,1,8,1:2:0:0:
441,337,27085,2,0,P|455:362|457:421,1,47.9999985351563,2|0,3:2|0:0,0:0:0:0:
404,335,27329,6,0,P|411:272|351:217,1,143.999995605469,2|0,1:2|0:0,0:0:0:0:
339,164,27816,2,0,P|358:173|398:169,1,47.9999985351563,8|0,1:2|0:0,0:0:0:0:
484,100,28060,1,2,3:2:0:0:
484,100,28182,2,0,B|421:87|421:87|418:90|418:90|329:75,1,143.999995605469,2|2,0:0|3:2,0:0:0:0:
220,7,28792,2,0,P|250:51|226:117,1,95.9999970703126,10|0,1:2|3:2,0:0:0:0:
259,169,29158,1,0,0:0:0:0:
259,169,29280,6,0,P|186:189|99:216,1,143.999995605469,2|0,1:2|0:0,0:0:0:0:
26,262,29767,1,10,1:2:0:0:
114,314,30133,1,2,0:0:0:0:
114,314,30255,2,0,L|142:385,1,47.9999985351563,0|0,1:0|0:0,0:0:0:0:
197,301,30499,1,2,3:2:0:0:
304,380,30743,1,8,1:2:0:0:
427,330,30987,2,0,P|451:311|476:269,1,63.9999980468751,2|2,3:2|0:0,0:0:0:0:
397,259,31231,5,2,1:2:0:0:
474,198,31394,1,2,0:0:0:0:
474,198,31475,2,0,L|439:125,1,63.9999980468751,2|2,3:2|0:0,0:0:0:0:
386,75,31719,2,0,B|376:96|353:108|353:108|362:155,1,95.9999970703126,10|2,1:2|3:2,0:0:0:0:
311,220,32125,5,2,0:0:0:0:
311,220,32207,1,0,1:2:0:0:
254,143,32369,5,2,0:0:0:0:
254,143,32450,1,2,3:2:0:0:
188,220,32613,5,2,0:0:0:0:
188,220,32694,2,0,L|118:232,1,63.9999980468751,10|2,1:2|0:0,0:0:0:0:
100,219,32939,2,0,L|83:143,1,47.9999985351563,2|2,3:2|3:2,0:0:0:0:
84,68,33183,5,0,1:2:0:0:
215,108,33427,1,2,3:2:0:0:
233,28,33671,2,0,L|348:26,1,80,2|2,1:2|3:2,0:0:0:0:
404,79,34159,2,0,P|355:114|362:211,1,160,2|2,1:2|1:2,0:0:0:0:
428,263,34890,1,2,3:2:0:0:
359,340,35134,6,0,P|313:342|277:310,1,80,0|0,1:0|3:0,0:0:0:0:
247,249,35541,1,2,0:0:0:0:
247,249,35622,2,0,L|233:151,1,80,2|2,1:2|3:2,0:0:0:0:
128,364,36110,2,0,P|171:339|176:303,1,80,2|2,1:2|3:2,0:0:0:0:
136,244,36516,1,2,0:0:0:0:
136,244,36598,2,0,L|148:143,1,80,0|2,1:0|3:2,0:0:0:0:
0,122,37085,6,0,B|69:101|69:101|77:106|77:106|166:82,1,160,0|2,1:2|1:2,0:0:0:0:
208,28,37817,1,2,3:2:0:0:
245,181,38061,2,0,P|234:140|256:78,1,80,2|2,1:2|3:2,0:0:0:0:
369,74,38549,2,0,P|338:48|299:39,1,80,2|2,1:2|3:2,0:0:0:0:
316,137,39037,5,2,1:2:0:0:
400,161,39281,1,2,3:2:0:0:
335,228,39524,1,2,1:2:0:0:
359,312,39768,1,2,3:2:0:0:
273,358,40012,2,0,L|210:337,1,53.3333333333333,2|2,1:2|0:0,0:0:0:0:
197,336,40256,1,0,3:0:0:0:
74,384,40500,2,0,P|59:324|45:260,1,120,0|0,1:0|0:0,0:0:0:0:
25,190,40988,5,0,1:2:0:0:
124,154,41232,1,2,3:2:0:0:
159,239,41476,2,0,P|192:216|213:151,1,80,2|2,1:2|3:2,0:0:0:0:
324,15,41964,2,0,P|275:50|282:147,1,160,2|0,1:2|1:0,0:0:0:0:
397,202,42695,1,2,3:2:0:0:
457,362,42939,6,0,P|411:364|375:332,1,80,0|2,1:0|3:2,0:0:0:0:
354,274,43346,1,0,0:0:0:0:
354,274,43427,2,0,L|256:288,1,80,2|0,1:2|3:0,0:0:0:0:
165,358,43915,2,0,L|175:307,1,40,2|0,1:2|0:0,0:0:0:0:
106,287,44159,2,0,L|96:238,1,40,2|0,3:2|0:0,0:0:0:0:
167,202,44403,1,0,1:0:0:0:
26,139,44646,1,2,3:2:0:0:
26,139,44768,1,0,0:0:0:0:
26,139,44890,6,0,B|95:118|95:118|103:123|103:123|192:99,1,160,0|0,1:2|1:0,0:0:0:0:
233,27,45622,1,0,3:0:0:0:
291,182,45866,2,0,P|280:141|302:79,1,80,0|0,1:0|3:0,0:0:0:0:
315,25,46354,1,0,1:0:0:0:
364,140,46598,2,0,P|375:158|373:178,1,40,2|0,3:2|0:0,0:0:0:0:
470,220,46842,6,0,P|457:167|475:130,1,80,2|2,1:2|3:2,0:0:0:0:
395,257,47329,5,2,1:2:0:0:
469,306,47573,1,2,3:2:0:0:
356,361,47817,5,2,1:2:0:0:
282,304,48061,1,2,3:2:0:0:
83,283,48305,5,2,1:2:0:0:
128,361,48468,5,8,1:3:0:0:
128,361,48549,1,0,1:0:0:0:
175,283,48711,5,0,1:0:0:0:
175,283,48793,2,0,L|163:177,1,95.9999970703126,2|2,1:0|3:2,0:0:0:0:
95,103,49281,2,0,P|142:115|174:100,1,63.9999980468751,10|0,1:2|0:0,0:0:0:0:
178,73,49524,2,0,L|261:102,1,63.9999980468751,2|2,3:2|0:0,0:0:0:0:
272,181,49768,1,2,1:2:0:0:
362,93,50012,2,0,L|417:28,1,63.9999980468751,2|0,3:2|0:0,0:0:0:0:
479,81,50256,2,0,L|402:174,1,95.9999970703126,10|0,1:2|3:0,0:0:0:0:
381,222,50622,1,2,0:0:0:0:
381,222,50744,6,0,P|440:248|456:333,1,143.999995605469,2|0,1:2|0:0,0:0:0:0:
406,375,51232,2,0,L|340:349,1,63.9999980468751,8|2,1:2|0:0,0:0:0:0:
271,317,51476,1,2,3:2:0:0:
139,372,51720,2,0,L|115:251,1,95.9999970703126,2|2,1:2|3:2,0:0:0:0:
14,216,52207,2,0,P|59:197|76:176,1,63.9999980468751,8|0,1:2|0:0,0:0:0:0:
132,142,52451,1,0,3:0:0:0:
39,61,52695,6,0,L|149:45,1,95.9999970703126,2|2,1:2|3:2,0:0:0:0:
285,8,53183,2,0,P|332:-4|364:11,1,63.9999980468751,10|2,1:2|0:0,0:0:0:0:
328,75,53426,2,0,L|411:104,1,63.9999980468751,2|2,3:2|0:0,0:0:0:0:
427,163,53671,1,2,1:2:0:0:
267,210,53914,2,0,L|322:145,1,63.9999980468751,2|2,3:2|0:0,0:0:0:0:
370,217,54159,2,0,L|328:265,1,63.9999980468751,8|0,1:2|0:0,0:0:0:0:
245,296,54403,1,2,3:2:0:0:
422,384,54646,6,0,L|406:277,1,95.9999970703126,2|2,1:2|3:2,0:0:0:0:
473,232,55053,1,2,0:0:0:0:
473,232,55134,2,0,L|452:113,1,95.9999970703126,10|0,1:2|3:0,0:0:0:0:
404,50,55541,1,0,0:0:0:0:
404,50,55622,2,0,P|349:64|311:48,1,95.9999970703126,2|2,1:2|3:2,0:0:0:0:
178,149,56110,2,0,P|228:113|222:49,1,127.99999609375,10|0,1:2|0:0,0:0:0:0:
204,25,56516,1,2,0:0:0:0:
204,25,56598,6,0,L|96:26,1,95.9999970703126,2|2,1:0|3:2,0:0:0:0:
21,106,57085,1,10,1:2:0:0:
94,181,57329,2,0,L|123:260,1,63.9999980468751,2|2,3:2|0:0,0:0:0:0:
137,279,57573,2,0,P|186:250|234:267,1,95.9999970703126,2|0,1:2|3:0,0:0:0:0:
285,361,58061,1,10,1:2:0:0:
394,286,58305,2,0,L|473:293,1,63.9999980468751,2|0,3:2|0:0,0:0:0:0:
486,267,58549,6,0,P|474:230|457:150,1,95.9999970703126,2|2,1:2|3:2,0:0:0:0:
393,101,59037,1,10,1:2:0:0:
495,68,59281,1,2,3:2:0:0:
363,19,59524,2,0,P|320:51|308:114,1,95.9999970703126,2|0,1:2|3:0,0:0:0:0:
312,232,60012,2,0,L|238:217,1,63.9999980468751,10|0,1:2|0:0,0:0:0:0:
229,176,60256,2,0,L|155:191,1,63.9999980468751,2|0,3:2|0:0,0:0:0:0:
183,267,60500,5,2,0:0:0:0:
259,186,62451,5,8,1:2:0:0:
259,186,62817,1,8,1:2:0:0:
259,186,63183,1,10,1:2:0:0:
259,186,63915,6,0,L|254:154,2,31.9999990234375,2|0|0,3:2|0:0|0:0,0:0:0:0:
275,209,64159,2,0,L|282:176,2,31.9999990234375,2|0|0,3:2|0:0|0:0,0:0:0:0:
288,237,64403,6,0,P|348:215|364:122,1,149.333328776042,6|0,1:0|0:0,0:0:0:0:
344,113,64809,1,2,0:0:0:0:
344,113,64890,2,0,L|440:79,1,74.6666643880209,10|0,1:2|0:0,0:0:0:0:
453,169,65134,1,2,3:2:0:0:
299,35,65378,6,0,P|274:57|260:127,1,74.6666643880209,2|0,1:2|0:0,0:0:0:0:
269,136,65622,1,10,3:2:0:0:
269,136,65703,1,0,0:0:0:0:
179,54,65866,2,0,L|95:38,1,74.6666643880209,10|0,1:2|0:0,0:0:0:0:
41,105,66110,2,0,L|114:118,1,74.6666643880209,2|0,3:2|0:0,0:0:0:0:
152,196,66354,6,0,P|113:257|131:328,1,149.333328776042,2|0,1:2|0:0,0:0:0:0:
221,301,66760,1,0,0:0:0:0:
221,301,66842,2,0,B|210:281|188:269|188:269|336:273,1,186.666660970052,8|0,1:2|0:0,0:0:0:0:
284,352,67329,1,0,1:0:0:0:
452,317,67573,6,0,P|418:291|452:263,1,74.6666643880209,8|0,3:2|0:0,0:0:0:0:
493,213,67817,2,0,L|413:169,1,74.6666643880209,10|0,1:2|0:0,0:0:0:0:
433,90,68061,2,0,L|498:125,1,74.6666643880209,2|0,3:2|0:0,0:0:0:0:
445,15,68305,6,0,P|393:26|366:67,1,74.6666643880209,2|0,1:2|0:0,0:0:0:0:
335,108,68549,2,0,L|256:74,1,74.6666643880209,2|0,3:2|0:0,0:0:0:0:
214,12,68793,1,8,1:2:0:0:
131,79,68955,5,0,0:0:0:0:
131,79,69037,2,0,L|166:163,1,74.6666643880209,2|0,3:2|0:0,0:0:0:0:
207,226,69281,2,0,P|235:207|319:226,1,111.999996582031,0|10,1:0|3:2,0:0:0:0:
168,384,69768,1,10,1:2:0:0:
234,133,70012,1,2,3:2:0:0:
331,370,70256,6,0,P|291:329|357:319,1,111.999996582031,2|0,1:2|3:0,0:0:0:0:
460,292,70622,1,2,0:0:0:0:
460,292,70744,2,0,P|444:347|405:291,1,111.999996582031,8|2,1:2|3:2,0:0:0:0:
290,221,71232,1,2,1:2:0:0:
418,63,71476,6,0,P|451:60|494:87,1,74.6666643880209,8|0,3:2|0:0,0:0:0:0:
469,160,71720,6,0,P|436:142|399:143,1,74.6666643880209,10|0,1:2|0:0,0:0:0:0:
399,143,72207,6,0,P|333:157|274:94,1,149.333328776042,2|0,1:0|0:0,0:0:0:0:
245,28,72614,1,2,0:0:0:0:
245,28,72695,2,0,P|206:49|193:85,1,74.6666643880209,10|0,1:2|0:0,0:0:0:0:
216,168,72939,1,2,3:2:0:0:
74,80,73183,6,0,L|108:183,1,74.6666643880209,2|0,1:2|0:0,0:0:0:0:
104,186,73427,1,10,3:2:0:0:
104,186,73508,1,0,0:0:0:0:
42,272,73671,2,0,P|85:272|117:303,1,74.6666643880209,10|0,1:2|0:0,0:0:0:0:
143,384,73915,2,0,P|100:384|68:353,1,74.6666643880209,2|0,3:2|0:0,0:0:0:0:
193,320,74159,6,0,B|212:336|226:362|226:362|323:335,1,111.999996582031,2|0,1:2|3:0,0:0:0:0:
293,225,74524,1,2,0:0:0:0:
293,225,74646,2,0,P|248:252|234:184,1,111.999996582031,8|2,1:2|3:2,0:0:0:0:
313,145,75134,6,0,P|367:184|371:194,1,74.6666643880209,0|0,1:0|0:0,0:0:0:0:
481,216,75378,2,0,P|427:255|423:265,1,74.6666643880209,8|0,3:2|0:0,0:0:0:0:
414,105,75622,2,0,P|454:135|496:78,1,111.999996582031,10|2,1:2|3:2,0:0:0:0:
422,15,75988,1,0,0:0:0:0:
422,15,76110,6,0,B|395:67|395:67|293:31,1,149.333328776042,2|0,1:2|0:0,0:0:0:0:
283,53,76516,1,0,0:0:0:0:
283,53,76598,1,8,1:2:0:0:
124,17,76842,5,2,1:2:0:0:
182,125,78061,5,6,1:0:0:0:
316,313,93671,6,0,P|352:262|264:175,1,191.999994140625,2|2,1:0|0:0,0:0:0:0:
282,174,94524,2,0,P|220:157|203:117,1,95.9999970703126,2|0,1:2|0:0,0:0:0:0:
215,24,94890,2,0,P|231:86|205:120,1,95.9999970703126,2|8,1:2|0:0,0:0:0:0:
68,176,95500,1,0,0:0:0:0:
68,176,95622,6,0,P|117:178|149:306,1,191.999994140625,2|0,1:2|0:0,0:0:0:0:
156,295,96476,2,0,P|207:308|270:323,1,95.9999970703126,0|0,1:0|0:0,0:0:0:0:
311,365,96842,1,2,3:2:0:0:
337,347,97085,2,0,L|326:188,1,143.999995605469,8|0,1:2|0:0,0:0:0:0:
386,152,97573,5,0,1:2:0:0:
386,152,98427,2,0,B|360:105|360:105|301:112,1,95.9999970703126,2|0,1:2|0:0,0:0:0:0:
250,151,98793,1,2,1:2:0:0:
220,49,99037,1,8,0:0:0:0:
121,56,99281,2,0,P|105:42|67:34,1,47.9999985351563,2|0,3:2|0:0,0:0:0:0:
23,99,99524,6,0,P|74:124|102:180,1,95.9999970703126,2|2,1:2|3:2,0:0:0:0:
100,238,99890,5,2,0:0:0:0:
100,238,100012,2,0,P|151:230|205:261,1,95.9999970703126,2|2,1:2|3:2,0:0:0:0:
247,325,100378,5,0,0:0:0:0:
247,325,100500,2,0,L|331:318,1,47.9999985351563,0|0,1:2|0:0,0:0:0:0:
371,316,100744,1,0,3:0:0:0:
475,250,100988,5,4,1:3:0:0:
400,194,101150,5,8,1:3:0:0:
400,194,101232,1,0,1:0:0:0:
487,159,101394,5,0,1:0:0:0:
487,159,101476,2,0,L|446:50,1,95.9999970703126,2|2,1:0|3:2,0:0:0:0:
284,35,101963,2,0,P|335:34|366:114,1,127.99999609375,10|0,1:2|0:0,0:0:0:0:
348,133,102370,1,2,0:0:0:0:
348,133,102451,2,0,L|241:137,1,95.9999970703126,2|2,1:2|3:2,0:0:0:0:
144,29,102939,2,0,L|175:142,1,95.9999970703126,8|0,1:2|3:0,0:0:0:0:
82,278,103427,6,0,P|151:270|172:203,1,127.99999609375,0|0,1:0|0:0,0:0:0:0:
207,214,103833,1,2,0:0:0:0:
207,214,103915,2,0,L|291:217,1,63.9999980468751,10|0,1:2|0:0,0:0:0:0:
305,293,104159,1,2,3:2:0:0:
474,253,104403,2,0,P|415:237|406:173,1,127.99999609375,2|0,1:2|0:0,0:0:0:0:
434,153,104809,1,0,0:0:0:0:
434,153,104890,2,0,L|430:45,1,95.9999970703126,10|2,1:2|3:2,0:0:0:0:
355,11,105297,1,2,0:0:0:0:
355,11,105378,6,0,L|254:33,1,95.9999970703126,2|0,1:2|3:0,0:0:0:0:
144,118,105866,2,0,P|101:95|16:137,1,143.999995605469,8|0,1:2|0:0,0:0:0:0:
26,206,106354,2,0,P|61:240|67:301,2,95.9999970703126,0|2|8,1:0|3:2|1:2,0:0:0:0:
182,335,107329,5,0,1:0:0:0:
281,231,107573,2,0,P|316:261|317:285,1,63.9999980468751,2|0,3:2|0:0,0:0:0:0:
310,356,107817,5,8,1:2:0:0:
436,245,108061,2,0,L|472:301,1,63.9999980468751,2|0,3:2|0:0,0:0:0:0:
511,361,108305,6,0,P|467:376|446:365,1,63.9999980468751,2|0,1:2|0:0,0:0:0:0:
389,324,108549,1,2,3:2:0:0:
512,224,108793,5,10,1:2:0:0:
403,134,109037,2,0,L|418:98,2,31.9999990234375,2|0|0,3:2|3:0|3:0,0:0:0:0:
375,163,109281,6,0,B|311:135|311:135|308:128|308:128|236:90,1,149.333328776042,2|0,1:0|0:0,0:0:0:0:
171,43,109687,1,0,0:0:0:0:
171,43,109768,2,0,B|219:83|219:83|206:165,1,111.999996582031,8|2,1:2|3:2,0:0:0:0:
143,159,110094,2,0,L|161:219,1,37.3333321940105
76,223,110256,6,0,L|37:87,1,111.999996582031,0|2,1:0|3:2,0:0:0:0:
237,208,110744,1,8,1:2:0:0:
136,347,110988,2,0,P|177:328|222:344,1,74.6666643880209,2|2,3:2|0:0,0:0:0:0:
240,360,111232,6,0,B|308:363|308:363|310:370|310:370|409:369,2,167.999994873047,2|2|2,1:2|0:0|3:2,0:0:0:0:
315,269,112207,1,0,1:0:0:0:
237,208,112451,6,0,P|257:181|308:163,1,55.9999982910157,2|0,3:2|0:0,0:0:0:0:
367,283,112695,2,0,P|333:279|292:244,1,55.9999982910157,8|0,1:2|0:0,0:0:0:0:
366,132,112939,2,0,P|379:162|369:215,1,55.9999982910157,2|0,3:2|0:0,0:0:0:0:
206,284,113183,5,0,1:0:0:0:
165,84,113427,1,2,3:2:0:0:
22,204,113671,1,8,1:2:0:0:
106,275,113915,6,0,L|124:235,2,37.3333321940105,2|0|2,3:2|0:0|0:0,0:0:0:0:
87,267,114159,2,0,L|123:168,1,74.6666643880209,2|0,1:2|0:0,0:0:0:0:
134,160,114403,2,0,P|186:166|210:147,1,74.6666643880209,2|0,3:2|0:0,0:0:0:0:
266,95,114646,1,8,1:2:0:0:
165,84,114890,1,2,3:2:0:0:
328,27,115134,6,0,L|363:108,1,55.9999982910157,0|0,1:0|0:0,0:0:0:0:
421,126,115378,2,0,L|396:224,1,55.9999982910157,2|0,3:2|0:0,0:0:0:0:
348,250,115622,2,0,L|390:301,1,55.9999982910157,8|0,1:2|0:0,0:0:0:0:
439,370,115866,1,2,3:2:0:0:
333,358,116029,5,2,0:0:0:0:
333,358,116110,2,0,P|285:331|252:331,1,74.6666643880209,2|0,1:2|0:0,0:0:0:0:
227,334,116354,2,0,P|198:286|170:270,1,74.6666643880209,2|0,3:2|0:0,0:0:0:0:
147,260,116598,6,0,P|146:204|129:176,1,74.6666643880209,8|0,1:2|0:0,0:0:0:0:
114,155,116842,2,0,P|140:107|141:73,1,74.6666643880209,2|0,3:2|0:0,0:0:0:0:
224,92,117085,6,0,P|292:109|372:10,2,207.999990478516,2|8|0,1:0|1:2|1:0,0:0:0:0:
282,24,118305,1,2,3:2:0:0:
431,77,118549,2,0,B|441:147|441:147|446:152|446:152|465:247,1,155.999992858887,10|0,1:2|0:0,0:0:0:0:
449,272,119037,6,0,P|382:229|390:323,1,207.999990478516,2|8,1:2|1:2,0:0:0:0:
300,380,119768,2,0,P|225:314|100:338,1,207.999990478516,2|2,3:2|3:2,0:0:0:0:
21,363,120500,1,10,1:2:0:0:
41,222,120744,2,0,P|64:228|111:200,1,51.999997619629,2|0,3:2|0:0,0:0:0:0:
167,146,120988,6,0,L|162:79,1,51.999997619629,2|0,1:2|0:0,0:0:0:0:
240,45,121232,2,0,L|246:174,1,103.999995239258,2|8,3:2|1:2,0:0:0:0:
366,259,121720,2,0,P|332:209|386:177,1,103.999995239258,2|0,3:2|1:0,0:0:0:0:
469,256,122207,6,0,P|463:283|442:303,1,51.999997619629,2|0,3:2|0:0,0:0:0:0:
383,340,122451,2,0,P|356:348|328:340,1,51.999997619629,10|0,1:2|0:0,0:0:0:0:
267,307,122695,2,0,P|246:288|239:260,1,51.999997619629,2|0,3:2|0:0,0:0:0:0:
325,246,122939,6,0,P|364:261|391:200,1,103.999995239258,2|2,1:2|3:2,0:0:0:0:
464,110,123427,2,0,L|447:172,1,51.999997619629,10|0,1:2|0:0,0:0:0:0:
250,217,123671,2,0,L|141:172,1,103.999995239258,2|0,3:2|1:0,0:0:0:0:
62,71,124159,6,0,L|101:117,1,51.999997619629,2|0,3:2|0:0,0:0:0:0:
188,27,124403,2,0,L|167:83,1,51.999997619629,10|0,1:2|0:0,0:0:0:0:
289,114,124646,2,0,L|229:124,1,51.999997619629,2|0,3:2|0:0,0:0:0:0:
153,177,124890,1,2,0:0:0:0:
71,200,126842,6,0,L|103:328,1,111.999996582031,6|0,1:0|3:0,0:0:0:0:
106,331,127167,1,0,0:0:0:0:
207,340,127329,2,0,L|304:359,1,74.6666643880209,8|0,1:2|0:0,0:0:0:0:
315,343,127573,2,0,P|288:294|305:259,1,74.6666643880209,2|0,3:2|0:0,0:0:0:0:
377,271,127817,5,0,1:0:0:0:
213,262,128061,2,0,L|209:162,1,74.6666643880209,0|0,3:2|0:0,0:0:0:0:
296,146,128305,2,0,P|306:181|337:202,1,74.6666643880209,10|0,1:2|0:0,0:0:0:0:
377,271,128549,1,2,3:2:0:0:
446,110,128793,6,0,P|394:121|367:162,1,74.6666643880209,2|0,1:2|0:0,0:0:0:0:
326,68,129037,2,0,L|247:34,1,74.6666643880209,2|0,3:2|0:0,0:0:0:0:
194,2,129281,1,8,1:2:0:0:
131,79,129443,1,0,0:0:0:0:
131,79,129525,2,0,L|166:163,1,74.6666643880209,2|0,3:2|0:0,0:0:0:0:
173,222,129769,6,0,P|137:225|97:254,1,74.6666643880209,0|0,1:0|0:0,0:0:0:0:
40,291,130012,1,2,3:2:0:0:
164,384,130256,1,10,1:2:0:0:
71,164,130500,1,2,3:2:0:0:
196,292,130744,6,0,P|260:275|329:312,1,111.999996582031,2|0,1:2|3:0,0:0:0:0:
379,365,131110,1,2,0:0:0:0:
379,365,131232,2,0,P|406:338|414:293,1,74.6666643880209,8|0,1:2|0:0,0:0:0:0:
377,220,131476,2,0,L|468:167,1,74.6666643880209,2|0,3:2|0:0,0:0:0:0:
505,229,131720,1,2,1:2:0:0:
441,27,131964,6,0,P|474:24|517:51,1,74.6666643880209,0|0,3:2|0:0,0:0:0:0:
492,124,132208,6,0,P|459:106|422:107,1,74.6666643880209,10|0,1:2|0:0,0:0:0:0:
422,106,132695,6,0,B|362:121|362:121|319:81,1,111.999996582031,2|2,1:0|3:2,0:0:0:0:
238,5,133102,1,2,0:0:0:0:
238,5,133183,2,0,B|230:49|230:49|186:62,1,74.6666643880209,10|0,1:2|0:0,0:0:0:0:
246,135,133427,1,2,3:2:0:0:
30,69,133671,6,0,L|64:172,1,74.6666643880209,2|0,1:2|0:0,0:0:0:0:
14,203,133915,1,2,3:2:0:0:
14,203,133996,1,0,0:0:0:0:
37,338,134159,2,0,B|75:336|75:336|112:369,1,74.6666643880209,10|0,1:2|0:0,0:0:0:0:
191,240,134403,2,0,B|153:242|153:242|116:209,1,74.6666643880209,2|2,3:2|0:0,0:0:0:0:
210,329,134646,6,0,P|274:270|277:216,1,111.999996582031,2|0,1:2|3:0,0:0:0:0:
223,160,135012,1,2,0:0:0:0:
223,160,135134,2,0,L|211:85,1,74.6666643880209,8|0,1:2|0:0,0:0:0:0:
297,38,135378,2,0,L|308:111,1,74.6666643880209,2|0,3:2|0:0,0:0:0:0:
428,205,135622,6,0,P|382:186|331:197,1,74.6666643880209,0|0,1:0|0:0,0:0:0:0:
354,269,135866,2,0,L|386:355,1,74.6666643880209,0|0,3:2|0:0,0:0:0:0:
500,290,136110,2,0,B|509:221|509:221|505:215|505:215|514:131,1,149.333328776042,10|0,1:2|0:0,0:0:0:0:
460,74,136517,1,0,0:0:0:0:
460,74,136598,6,0,B|434:102|433:126|433:126|331:90,1,149.333328776042,2|0,1:2|0:0,0:0:0:0:
297,38,137004,1,0,0:0:0:0:
297,38,137086,1,8,1:2:0:0:
136,279,137330,5,2,1:2:0:0:
