osu file format v14

[General]
AudioFilename: audio.mp3
AudioLeadIn: 0
PreviewTime: 63233
Countdown: 0
SampleSet: Soft
StackLeniency: 0.4
Mode: 0
LetterboxInBreaks: 0
WidescreenStoryboard: 1

[Editor]
Bookmarks: 9818,17623,19331,32989,48843,56648,62501,77867,93721,109087,123721,138599
DistanceSpacing: 1.7
BeatDivisor: 4
GridSize: 4
TimelineZoom: 1.5

[Metadata]
Title:Kinmokusei (feat. Ado)
TitleUnicode:金木犀 (feat. Ado)
Artist:Kujira
ArtistUnicode:くじら
Creator:Ryuusei Aika
Version:z1's Extra
Source:
Tags:アド WhaleDontSleep Osmanthus female vocal japanese pop jpop j-pop z1 z1085684963 karen agatsu dog food door weapon muz muziyami wanpachi cycopton
BeatmapID:2953703
BeatmapSetID:1435450

[Difficulty]
HPDrainRate:5.5
CircleSize:4.1
OverallDifficulty:8.2
ApproachRate:9.3
SliderMultiplier:1.92
SliderTickRate:1

[Events]
//Background and Video events
0,0,"bg.jpg",0,0
//Break Periods
//Storyboard Layer 0 (Background)
//Storyboard Layer 1 (Fail)
//Storyboard Layer 2 (Pass)
//Storyboard Layer 3 (Foreground)
//Storyboard Layer 4 (Overlay)
//Storyboard Sound Samples

[TimingPoints]
2014,487.80487804878,4,2,5,25,1,0
9818,-100,4,2,5,30,0,0
17623,-66.6666666666667,4,2,5,60,0,0
33233,-100,4,2,5,30,0,0
48355,-100,4,2,5,40,0,0
48843,-100,4,2,5,50,0,0
60550,-100,4,2,5,40,0,0
62501,-100,4,2,5,50,0,0
64453,-100,4,2,5,70,0,0
66404,-66.6666666666667,4,2,5,70,0,0
68599,-100,4,2,5,70,0,0
69209,-66.6666666666667,4,2,5,70,0,0
69818,-80,4,2,5,70,0,0
70062,-100,4,2,5,70,0,0
71770,-66.6666666666667,4,2,5,70,0,0
74209,-50,4,2,5,70,0,0
74574,-40,4,2,5,70,0,0
74940,-33.3333333333333,4,2,5,70,0,0
75916,-100,4,2,5,70,0,0
78111,-66.6666666666667,4,2,5,60,0,0
93477,-100,4,2,5,50,0,0
94574,-66.6666666666667,4,2,5,50,0,0
95184,-33.3333333333333,4,2,5,50,0,0
96526,-66.6666666666667,4,2,5,50,0,0
97135,-33.3333333333333,4,2,5,50,0,0
98477,-66.6666666666667,4,2,5,50,0,0
99087,-33.3333333333333,4,2,5,50,0,0
99574,-100,4,2,5,50,0,0
100062,-83.3333333333333,4,2,5,50,0,0
100550,-71.4285714285714,4,2,5,50,0,0
101038,-66.6666666666667,4,2,5,60,0,0
102501,-100,4,2,5,60,0,0
112501,-66.6666666666667,4,2,5,60,0,0
124453,-57.1428571428571,4,2,5,60,0,0
124696,-50,4,2,5,60,0,0
126892,-50,4,2,5,70,0,0
128599,-66.6666666666667,4,2,5,70,0,0
129696,-50,4,2,5,70,0,0
130306,-57.1428571428571,4,2,5,70,0,0
130550,-66.6666666666667,4,2,5,70,0,0
134696,-50,4,2,5,70,0,0
135062,-33.3333333333333,4,2,5,70,0,0
135428,-25,4,2,5,70,0,0
136404,-50,4,2,5,70,0,0
137379,-100,4,2,5,60,0,0
137501,-100,4,2,5,25,0,0

[Colours]
Combo1 : 210,210,210
Combo2 : 255,223,0
Combo3 : 255,255,128
Combo4 : 158,227,55
Combo5 : 215,145,40

[HitObjects]
420,280,17135,6,0,P|408:325|424:284,1,144
432,204,17623,6,0,P|364:208|340:224,1,95.9999999999999,6|0,1:2|0:0,0:0:0:0:
312,144,17867,2,0,P|266:194|261:223,1,95.9999999999999,2|0,0:0|0:0,0:0:0:0:
184,186,18111,2,0,P|187:254|203:278,1,95.9999999999999,10|0,1:2|0:0,0:0:0:0:
184,356,18355,1,2,0:0:0:0:
342,222,18477,6,0,P|364:136|356:72,1,144,2|0,0:0|0:0,0:0:0:0:
120,140,18843,2,0,P|105:69|67:8,2,144,2|8|2,0:0|1:2|0:0,0:0:0:0:
88,220,19493,5,2,0:0:0:0:
88,220,19574,2,0,P|135:222|178:201,1,95.9999999999999,2|0,1:2|0:0,0:0:0:0:
278,152,19818,2,0,P|252:191|249:238,1,95.9999999999999,2|0,0:0|0:0,0:0:0:0:
240,350,20062,2,0,P|219:308|179:282,1,95.9999999999999,10|0,1:2|0:0,0:0:0:0:
177,201,20306,1,2,0:0:0:0:
12,380,20428,6,0,P|92:380|180:348,1,144,2|0,0:0|0:0,0:0:0:0:
448,312,20794,2,0,P|368:312|280:280,2,144,2|10|0,0:0|1:2|0:0,0:0:0:0:
104,204,21526,6,0,P|172:200|196:184,1,95.9999999999999,2|0,1:2|0:0,0:0:0:0:
224,264,21770,2,0,P|270:214|275:185,1,95.9999999999999,2|0,0:0|0:0,0:0:0:0:
352,222,22014,2,0,P|349:154|333:130,1,95.9999999999999,10|0,1:2|0:0,0:0:0:0:
352,52,22257,1,2,0:0:0:0:
193,185,22379,6,0,P|105:181|16:128,1,144,2|0,0:0|0:0,0:0:0:0:
28,320,22745,2,0,P|99:320|166:345,2,144,2|8|2,0:0|1:2|0:0,0:0:0:0:
32,240,23396,5,2,0:0:0:0:
8,232,23477,1,2,1:2:0:0:
124,192,23640,5,2,0:0:0:0:
120,144,23721,1,2,0:0:0:0:
308,224,23883,5,2,0:0:0:0:
328,148,23965,1,10,1:2:0:0:
452,376,24127,5,2,0:0:0:0:
512,248,24209,1,2,0:0:0:0:
396,320,24371,2,0,P|400:272|444:236,1,95.9999999999999,2|0,0:0|0:0,0:0:0:0:
512,248,24615,5,2,0:0:0:0:
452,376,24696,1,2,0:0:0:0:
301,236,24859,5,2,0:0:0:0:
256,300,24940,1,8,0:3:0:0:
159,115,25103,5,8,0:3:0:0:
120,144,25184,1,4,0:0:0:0:
137,15,25347,5,4,0:0:0:0:
115,3,25428,2,0,P|176:-8|227:27,1,95.9999999999999,6|0,1:2|0:0,0:0:0:0:
236,76,25672,2,0,P|297:65|348:100,1,95.9999999999999,2|0,0:0|0:0,0:0:0:0:
357,149,25916,2,0,P|418:138|469:173,1,95.9999999999999,10|0,1:2|0:0,0:0:0:0:
512,196,26160,1,2,0:0:0:0:
326,77,26282,6,0,P|396:28|516:28,1,144,2|0,0:0|0:0,0:0:0:0:
372,228,26648,2,0,P|441:244|498:287,2,144,2|8|2,0:0|1:2|0:0,0:0:0:0:
304,276,27298,5,2,0:0:0:0:
304,276,27379,2,0,P|257:285|221:316,1,95.9999999999999,2|0,1:2|0:0,0:0:0:0:
128,384,27623,2,0,P|142:338|134:292,1,95.9999999999999,2|0,0:0|0:0,0:0:0:0:
121,181,27867,2,0,P|152:216|197:232,1,95.9999999999999,10|0,1:2|0:0,0:0:0:0:
221,316,28111,1,2,0:0:0:0:
273,128,28233,6,0,P|213:164|217:276,1,144,2|0,0:0|0:0,0:0:0:0:
5,278,28599,2,0,P|66:311|161:252,2,144,2|10|0,0:0|1:2|0:0,0:0:0:0:
193,82,29331,6,0,P|256:106|274:129,1,95.9999999999999,2|0,1:2|0:0,0:0:0:0:
325,62,29574,2,0,P|353:123|349:152,1,95.9999999999999,2|0,0:0|0:0,0:0:0:0:
434,141,29818,2,0,P|410:204|387:222,1,95.9999999999999,10|0,1:2|0:0,0:0:0:0:
357,294,30062,1,2,0:0:0:0:
473,274,30184,2,0,P|418:317|348:312,1,144,2|0,0:0|0:0,0:0:0:0:
152,304,30550,2,0,P|207:260|277:266,2,144,2|8|2,0:0|1:2|0:0,0:0:0:0:
52,336,31200,5,2,0:0:0:0:
76,340,31282,1,2,1:2:0:0:
208,184,31444,5,2,0:0:0:0:
168,192,31526,1,2,0:0:0:0:
0,60,31688,5,2,0:0:0:0:
76,76,31770,1,10,1:2:0:0:
344,8,31932,5,2,0:0:0:0:
168,8,32014,1,2,0:0:0:0:
300,76,32176,2,0,B|256:56|256:56|212:76,1,95.9999999999999,2|0,0:0|0:0,0:0:0:0:
168,8,32420,5,2,0:0:0:0:
344,8,32501,1,2,0:0:0:0:
328,156,32664,5,2,0:0:0:0:
184,156,32745,1,10,1:2:0:0:
256,212,32908,5,2,0:0:0:0:
256,288,32989,2,0,L|296:288,1,48,2|0,0:3|0:0,0:0:0:0:
256,312,33111,2,0,L|216:312,1,48,2|0,0:3|0:0,0:0:0:0:
256,336,33233,6,0,L|360:336,1,96,0|2,1:2|3:2,0:0:0:0:
424,364,33599,1,0,0:0:0:0:
484,312,33721,2,0,B|508:284|508:284|496:192,1,96,2|2,1:2|3:2,0:0:0:0:
488,148,34087,1,0,0:0:0:0:
436,92,34209,6,0,L|332:92,1,96,2|2,1:2|3:2,0:0:0:0:
280,40,34574,2,0,B|256:68|256:68|268:160,1,96,0|2,0:0|0:0,0:0:0:0:
324,216,34940,2,0,L|332:156,1,48,2|0,3:2|0:0,0:0:0:0:
263,126,35184,6,0,L|159:126,1,96,0|0,1:2|3:2,0:0:0:0:
92,160,35550,1,0,0:0:0:0:
28,108,35672,2,0,B|4:80|4:80|16:-12,1,96,2|2,1:2|3:2,0:0:0:0:
152,220,36160,6,0,B|176:248|176:248|164:340,1,96,2|2,1:2|3:2,0:0:0:0:
108,356,36526,2,0,L|12:356,1,96
252,272,36892,2,0,L|245:319,1,48,2|0,3:2|0:0,0:0:0:0:
288,384,37135,5,0,1:2:0:0:
380,224,37379,2,0,L|476:224,2,96,2|2|2,3:2|1:2|3:2,0:0:0:0:
356,148,37989,1,0,0:0:0:0:
332,72,38111,6,0,B|304:48|304:48|212:60,1,96,2|2,1:2|3:2,0:0:0:0:
156,156,38599,2,0,B|128:132|128:132|36:144,1,96,2|2,1:2|3:2,0:0:0:0:
0,108,38965,1,0,0:0:0:0:
4,184,39087,2,0,L|4:280,1,96,2|2,1:2|3:2,0:0:0:0:
76,360,39453,2,0,L|76:296,1,48,0|2,0:0|1:2,0:0:0:0:
208,216,39818,6,0,L|208:312,1,96,2|2,3:2|1:2,0:0:0:0:
256,372,40184,2,0,B|284:348|284:348|376:360,1,96
420,368,40550,1,0,1:2:0:0:
420,368,40794,1,0,3:2:0:0:
496,232,41038,6,0,P|504:184|496:148,1,64,0|2,1:2|0:0,0:0:0:0:
512,148,41282,2,0,P|494:102|470:75,1,64,2|2,3:2|0:0,0:0:0:0:
424,44,41526,6,0,P|376:36|340:44,1,64,2|0,1:2|0:0,0:0:0:0:
340,28,41770,2,0,P|294:45|267:70,1,64,2|0,3:2|0:0,0:0:0:0:
240,120,42014,6,0,P|240:184|276:240,1,96,2|2,1:2|3:2,0:0:0:0:
312,264,42379,2,0,P|315:311|299:356,1,96
228,384,42745,2,0,P|180:376|152:344,1,48,2|0,3:2|0:0,0:0:0:0:
144,308,42989,6,0,P|121:315|97:315,1,48,0|0,1:2|0:0,0:0:0:0:
26,288,43233,2,0,P|10:243|13:195,1,96,2|2,3:2|1:2,0:0:0:0:
48,124,43599,6,0,P|31:90|36:124,1,96
62,13,43965,6,0,P|30:12|0:19,1,64,2|0,1:2|0:0,0:0:0:0:
25,202,44209,2,0,P|57:203|87:196,1,64,2|0,3:2|0:0,0:0:0:0:
132,368,44453,2,0,P|80:372|0:392,2,96,0|2|0,1:2|3:2|1:2,0:0:0:0:
256,268,45306,5,0,0:0:0:0:
256,268,45428,1,0,1:2:0:0:
380,368,45672,1,0,3:2:0:0:
320,216,45916,5,0,1:2:0:0:
360,360,46160,1,0,3:2:0:0:
396,196,46404,5,0,1:2:0:0:
344,352,46648,1,2,3:2:0:0:
472,212,46892,6,0,P|488:156|472:96,1,96,2|2,1:2|3:2,0:0:0:0:
320,216,47379,2,0,P|291:165|237:133,1,96,2|2,1:2|3:2,0:0:0:0:
215,326,47867,2,0,P|159:310|99:326,1,96,2|2,1:2|3:2,0:0:0:0:
52,344,48355,6,0,P|32:336|52:328,1,48,10|2,0:3|0:3,0:0:0:0:
288,292,48599,2,0,P|308:300|288:308,1,48,6|2,0:3|0:3,0:0:0:0:
215,326,48843,5,2,1:2:0:0:
191,330,48965,1,0,0:0:0:0:
167,330,49087,1,2,0:0:0:0:
144,325,49209,1,0,0:0:0:0:
122,315,49331,1,10,1:2:0:0:
184,196,49574,6,0,L|180:243,1,48,2|0,0:0|0:0,0:0:0:0:
144,123,49818,1,2,1:2:0:0:
190,112,49940,1,0,0:0:0:0:
234,129,50062,1,2,0:0:0:0:
316,236,50306,6,0,P|363:240|408:225,1,96,10|0,1:2|0:0,0:0:0:0:
460,168,50672,1,2,0:0:0:0:
472,92,50794,2,0,P|488:164|476:212,1,96,2|2,1:2|0:0,0:0:0:0:
480,264,51160,1,0,0:0:0:0:
440,332,51282,2,0,P|445:365|465:391,2,48,8|0|2,1:2|0:0|0:0,0:0:0:0:
384,276,51648,1,0,0:0:0:0:
316,236,51770,2,0,P|270:220|223:223,1,96,2|2,1:2|0:0,0:0:0:0:
188,296,52135,1,0,0:0:0:0:
244,352,52257,2,0,P|328:344|348:332,1,96,8|0,1:2|0:0,0:0:0:0:
384,276,52623,1,0,0:0:0:0:
416,348,52745,6,0,P|448:364|480:364,1,48,2|0,1:2|0:0,0:0:0:0:
500,265,52989,2,0,P|482:281|460:288,1,48,2|0,0:0|0:0,0:0:0:0:
436,212,53233,6,0,P|439:176|428:146,1,48,10|0,1:2|0:0,0:0:0:0:
324,168,53477,2,0,P|345:179|359:198,1,48,2|0,0:0|0:0,0:0:0:0:
304,256,53721,6,0,B|244:248|272:284|204:276,1,96,2|2,1:2|0:0,0:0:0:0:
152,228,54087,2,0,P|160:296|132:332,1,96
88,272,54453,1,2,0:0:0:0:
88,272,54574,1,0,0:0:0:0:
24,312,54696,6,0,P|16:244|44:208,1,96,2|2,1:2|0:0,0:0:0:0:
92,172,55062,1,0,0:0:0:0:
164,200,55184,2,0,P|196:200|228:176,2,48,10|0|0,1:2|0:0|0:0,0:0:0:0:
100,152,55550,1,2,0:0:0:0:
148,88,55672,2,0,P|152:48|116:4,1,96,2|2,1:2|0:0,0:0:0:0:
48,32,56038,1,0,0:0:0:0:
24,104,56160,2,0,P|84:140|164:84,1,144,10|0,1:2|0:0,0:0:0:0:
224,100,56648,5,2,1:2:0:0:
320,160,56892,1,2,0:0:0:0:
320,160,57014,1,0,0:0:0:0:
320,160,57135,1,10,1:2:0:0:
452,124,57379,1,2,0:0:0:0:
512,0,57623,5,2,1:2:0:0:
452,208,57867,1,2,0:0:0:0:
324,268,58111,1,10,1:2:0:0:
208,244,58355,1,2,0:0:0:0:
144,172,58599,5,2,1:2:0:0:
132,288,58843,1,2,0:0:0:0:
132,288,58965,1,0,0:0:0:0:
132,288,59087,1,10,1:2:0:0:
72,364,59331,1,2,0:0:0:0:
0,384,59574,6,0,B|-8:328|32:300|32:300|-12:288|-20:236,1,144,2|0,1:2|0:0,0:0:0:0:
27,203,60062,2,0,P|32:249|-6:272,1,96,10|2,1:2|0:0,0:0:0:0:
256,384,62501,5,8,1:2:0:0:
256,384,62867,1,8,1:2:0:0:
256,384,63233,2,0,B|280:344|268:304|268:304|244:308|244:308|232:264|268:200,1,192,10|2,1:2|0:0,0:0:0:0:
284,156,63965,6,0,P|276:136|268:156,1,48,2|2,0:3|0:3,0:0:0:0:
200,72,64209,2,0,P|214:86|219:66,1,48,2|2,0:3|0:3,0:0:0:0:
280,20,64453,5,6,1:2:0:0:
408,52,64615,1,0,0:0:0:0:
408,52,64696,1,2,0:0:0:0:
416,183,64859,1,2,0:0:0:0:
416,183,64940,1,10,1:2:0:0:
293,232,65103,1,0,0:0:0:0:
293,232,65184,1,2,0:0:0:0:
224,204,65266,1,0,0:0:0:0:
209,132,65347,5,2,0:0:0:0:
209,132,65428,1,2,1:2:0:0:
380,64,65591,5,0,0:0:0:0:
380,64,65672,1,10,0:0:0:0:
497,205,65835,5,2,0:0:0:0:
497,205,65916,1,10,1:2:0:0:
398,360,66079,5,0,0:0:0:0:
388,348,66160,1,2,0:0:0:0:
316,316,66241,1,0,0:0:0:0:
240,308,66322,5,0,0:0:0:0:
219,313,66404,2,0,P|248:280|176:220,1,144,2|0,1:2|0:0,0:0:0:0:
32,256,66770,2,0,P|3:289|75:349,1,144,2|0,0:0|0:0,0:0:0:0:
136,328,67135,6,0,B|156:244|80:284|120:152,2,144,2|0|8,0:0|1:2|0:0,0:0:0:0:
64,60,67867,5,10,1:2:0:0:
196,76,68030,1,0,0:0:0:0:
208,100,68111,2,0,P|216:144|196:188,1,72,2|0,0:0|0:0,0:0:0:0:
420,196,68355,5,2,1:2:0:0:
288,212,68518,1,0,0:0:0:0:
276,236,68599,2,0,P|276:300|316:344,1,96,2|8,0:0|1:2,0:0:0:0:
476,252,69087,1,2,0:0:0:0:
496,176,69209,2,0,P|496:96|448:52,1,144,2|0,0:0|0:0,0:0:0:0:
380,32,69574,6,0,P|380:72|396:104,1,72,10|0,0:0|0:0,0:0:0:0:
420,196,69818,2,0,P|385:176|349:173,1,60,10|0,1:2|0:0,0:0:0:0:
276,140,70062,2,0,P|310:120|330:90,1,48,2|0,0:0|0:0,0:0:0:0:
366,172,70306,6,0,B|348:200|312:212|312:212|296:256|340:300,1,144,2|2,1:2|0:0,0:0:0:0:
388,336,70794,2,0,L|452:324,1,64,8|0,1:2|0:0,0:0:0:0:
476,320,71038,1,2,0:0:0:0:
264,232,71200,1,0,0:0:0:0:
240,217,71282,2,0,P|207:220|184:247,1,64,2|0,1:2|0:0,0:0:0:0:
214,338,71526,2,0,P|190:319|159:319,1,64,2|0,1:2|0:0,0:0:0:0:
84,336,71770,2,0,P|28:312|120:276,1,216,10|0,1:2|0:0,0:0:0:0:
159,319,72257,5,2,1:2:0:0:
286,347,72420,1,0,0:0:0:0:
286,347,72501,1,2,0:0:0:0:
353,235,72664,1,2,0:0:0:0:
353,235,72745,1,8,1:2:0:0:
266,135,72908,1,0,0:0:0:0:
266,135,72989,1,2,0:0:0:0:
192,128,73070,1,0,0:0:0:0:
145,186,73152,5,2,0:0:0:0:
145,186,73233,1,2,1:2:0:0:
267,324,73396,5,0,0:0:0:0:
267,324,73477,1,10,0:0:0:0:
435,252,73640,5,0,0:0:0:0:
435,252,73721,1,10,1:2:0:0:
418,69,73883,5,0,0:0:0:0:
400,80,73965,1,2,0:0:0:0:
320,80,74046,1,0,0:0:0:0:
248,48,74127,5,2,0:0:0:0:
237,29,74209,2,0,B|136:8|164:96|56:72,1,192,2|0,1:2|0:0,0:0:0:0:
253,212,74574,2,0,B|124:241|160:129|32:156,1,240,2|0,0:0|0:0,0:0:0:0:
320,296,74940,2,0,B|168:264|210:396|53:361,2,288,2|0|8,0:0|1:2|0:0,0:0:0:0:
400,312,75672,5,10,1:2:0:0:
468,268,75835,1,0,0:0:0:0:
480,248,75916,2,0,P|480:208|464:168,1,48,2|0,0:0|0:0,0:0:0:0:
472,348,76160,1,2,1:2:0:0:
396,232,76322,1,0,0:0:0:0:
384,211,76404,2,0,P|344:183|308:181,1,64
468,268,76648,5,8,1:2:0:0:
328,276,76892,6,0,P|256:264|140:332,1,192,2|2,1:2|0:0,0:0:0:0:
76,332,77623,2,0,P|59:357|58:317,1,96,2|2,0:0|0:0,0:0:0:0:
100,256,77948,1,2,0:0:0:0:
100,256,78030,1,2,0:0:0:0:
100,256,78111,6,0,P|120:191|114:162,1,95.9999999999999,6|0,1:2|0:0,0:0:0:0:
199,165,78355,2,0,P|168:104|143:89,1,95.9999999999999,2|0,0:0|0:0,0:0:0:0:
205,30,78599,2,0,P|140:8|112:14,1,95.9999999999999,10|0,1:2|0:0,0:0:0:0:
40,44,78843,1,2,0:0:0:0:
256,96,78965,6,0,P|364:80|440:32,1,144,2|0,0:0|0:0,0:0:0:0:
188,248,79331,2,0,P|254:273|326:278,2,144,2|8|2,0:0|1:2|0:0,0:0:0:0:
388,224,79981,5,2,0:0:0:0:
388,224,80062,2,0,P|408:276|400:316,1,95.9999999999999,2|0,1:2|0:0,0:0:0:0:
440,164,80306,2,0,P|475:120|513:107,1,95.9999999999999,2|0,0:0|0:0,0:0:0:0:
363,148,80550,2,0,P|307:139|277:112,1,95.9999999999999,10|0,1:2|0:0,0:0:0:0:
268,32,80794,1,2,0:0:0:0:
480,24,80916,6,0,P|405:53|336:68,1,144,2|0,0:0|0:0,0:0:0:0:
172,260,81282,2,0,P|246:230|316:216,2,144,2|10|0,0:0|1:2|0:0,0:0:0:0:
504,328,82014,6,0,P|472:267|448:252,1,95.9999999999999,2|0,1:2|0:0,0:0:0:0:
509,193,82257,2,0,P|444:171|416:178,1,95.9999999999999,2|0,0:0|0:0,0:0:0:0:
418,93,82501,2,0,P|357:123|341:147,1,95.9999999999999,10|0,1:2|0:0,0:0:0:0:
272,180,82745,1,2,0:0:0:0:
48,161,82867,6,0,P|28:81|28:-3,1,144.000005493164,2|0,0:0|0:0,0:0:0:0:
184,0,83233,2,0,P|204:80|204:164,2,144,2|8|2,0:0|1:2|0:0,0:0:0:0:
120,76,83883,5,2,0:0:0:0:
124,92,83965,1,2,1:2:0:0:
296,40,84127,5,2,0:0:0:0:
288,88,84209,1,2,0:0:0:0:
456,180,84371,5,2,0:0:0:0:
392,220,84453,1,10,1:2:0:0:
440,384,84615,5,2,0:0:0:0:
324,368,84696,1,2,0:0:0:0:
440,384,84859,2,0,P|392:316|352:320,1,95.9999999999999,2|0,0:0|0:0,0:0:0:0:
196,304,85103,5,2,0:0:0:0:
312,288,85184,1,2,0:0:0:0:
208,112,85347,5,2,0:0:0:0:
272,152,85428,1,10,1:2:0:0:
364,0,85591,5,2,0:0:0:0:
372,48,85672,1,2,0:0:0:0:
512,48,85835,5,2,0:0:0:0:
508,64,85916,2,0,B|496:112|472:88|456:152,1,95.9999999999999,2|0,0:2|0:0,0:0:0:0:
468,216,86160,2,0,L|433:225,1,48,2|0,0:3|0:0,0:0:0:0:
476,240,86282,2,0,L|510:230,1,48,2|0,0:3|0:0,0:0:0:0:
452,320,86404,2,0,P|372:292|308:320,1,144,14|2,1:2|0:0,0:0:0:0:
252,360,86770,6,0,L|76:372,1,144,2|0,0:0|0:0,0:0:0:0:
48,224,87135,2,0,L|191:214,2,144,2|8|2,0:0|1:2|0:0,0:0:0:0:
268,251,87786,1,2,0:0:0:0:
268,251,87867,2,0,P|275:204|259:159,1,95.9999999999999,2|0,1:2|0:0,0:0:0:0:
200,296,88111,2,0,P|155:312|124:348,1,95.9999999999999,2|0,0:0|0:0,0:0:0:0:
273,333,88355,2,0,P|309:362|356:371,1,95.9999999999999,10|0,1:2|0:0,0:0:0:0:
428,340,88599,1,2,0:0:0:0:
268,251,88721,2,0,P|376:244|412:276,1,144,2|0,0:0|0:0,0:0:0:0:
200,296,89087,2,0,P|139:205|149:158,2,144,2|10|0,0:0|1:2|0:0,0:0:0:0:
372,0,89818,6,0,P|402:59|400:89,1,95.9999999999999,2|0,1:2|0:0,0:0:0:0:
482,73,90062,2,0,P|461:137|439:155,1,95.9999999999999,2|0,0:0|0:0,0:0:0:0:
511,204,90306,2,0,P|451:234|421:232,1,95.9999999999999,10|0,1:2|0:0,0:0:0:0:
348,260,90550,1,2,0:0:0:0:
184,44,90672,2,0,P|276:40|352:96,1,144,2|0,0:0|0:0,0:0:0:0:
280,308,91038,2,0,P|188:312|112:256,2,144,2|8|2,0:0|1:2|0:0,0:0:0:0:
384,352,91688,5,2,0:0:0:0:
360,356,91770,1,2,1:2:0:0:
280,224,91932,5,2,0:0:0:0:
320,232,92014,1,2,0:0:0:0:
480,112,92176,5,2,0:0:0:0:
404,128,92257,1,10,1:2:0:0:
168,8,92420,5,2,0:0:0:0:
344,8,92501,1,2,0:0:0:0:
212,76,92664,2,0,B|256:56|256:56|300:76,1,95.9999999999999,2|0,0:0|0:0,0:0:0:0:
344,8,92908,5,2,0:0:0:0:
168,8,92989,1,2,0:0:0:0:
184,156,93152,5,2,0:0:0:0:
328,156,93233,1,10,1:2:0:0:
256,212,93396,5,2,0:0:0:0:
256,288,93477,2,0,L|220:288,1,32,2|0,0:0|0:0,0:0:0:0:
256,364,93640,2,0,L|296:364,1,32,2|0,0:0|1:2,0:0:0:0:
436,24,94574,6,0,L|400:264,1,216,2|2,1:2|1:2,0:0:0:0:
404,100,95184,2,0,L|448:188,1,72.0000027465821,8|0,0:0|0:0,0:0:0:0:
76,360,95672,1,2,1:2:0:0:
76,360,96526,6,0,L|112:120,1,216,0|2,1:2|0:0,0:0:0:0:
75,219,97135,2,0,L|108:284,1,72.0000027465821,8|0,0:0|0:0,0:0:0:0:
504,348,97623,1,0,1:2:0:0:
504,348,98477,6,0,L|264:312,1,216,2|2,1:2|1:2,0:0:0:0:
427,315,99087,2,0,L|363:348,1,72.0000027465821,8|0,0:0|0:0,0:0:0:0:
8,36,99574,6,0,P|64:24|84:84,1,96,2|2,1:2|0:0,0:0:0:0:
88,72,99940,1,2,0:0:0:0:
164,100,100062,6,0,P|206:134|196:188,1,115.2,2|2,1:2|0:0,0:0:0:0:
176,204,100428,1,2,0:0:0:0:
196,280,100550,6,0,P|168:344|76:356,1,134.4,0|2,1:2|0:0,0:0:0:0:
44,324,100916,1,0,0:0:0:0:
29,242,101038,2,0,P|76:248|111:280,1,95.9999999999999,8|8,0:3|0:3,0:0:0:0:
336,184,101282,2,0,P|289:189|253:221,1,95.9999999999999,4|4,0:3|0:3,0:0:0:0:
232,368,101526,5,0,1:2:0:0:
272,80,102014,1,10,1:2:0:0:
501,258,102379,5,0,0:0:0:0:
428,288,102501,2,0,L|340:280,1,64,2|0,1:2|0:0,0:0:0:0:
344,260,102745,2,0,L|256:252,1,64,2|2,0:0|0:0,0:0:0:0:
256,272,102989,1,8,1:2:0:0:
164,336,103152,2,0,L|50:325,1,96
0,292,103477,5,0,1:2:0:0:
76,148,103640,1,0,0:0:0:0:
76,148,103721,2,0,L|64:60,1,64,2|2,0:0|0:0,0:0:0:0:
136,32,103965,2,0,L|144:95,1,64,10|0,1:2|0:0,0:0:0:0:
228,172,104209,2,0,L|216:84,1,64,2|0,0:0|0:0,0:0:0:0:
288,56,104453,2,0,L|296:119,1,64,2|0,1:2|0:0,0:0:0:0:
300,144,104696,2,0,L|376:136,1,48
472,124,104940,2,0,L|463:60,1,64,8|0,1:2|0:0,0:0:0:0:
460,36,105184,1,2,0:0:0:0:
380,80,105347,5,2,0:0:0:0:
384,108,105428,1,2,1:2:0:0:
420,372,105916,1,8,1:2:0:0:
173,271,106282,1,0,0:0:0:0:
248,292,106404,2,0,L|336:284,1,64,0|0,1:2|0:0,0:0:0:0:
332,264,106648,2,0,L|420:256,1,64,2|0,0:0|0:0,0:0:0:0:
472,276,106892,2,0,P|492:312|460:368,1,64,8|0,1:2|0:0,0:0:0:0:
104,236,107379,5,2,1:2:0:0:
91,281,107501,1,2,0:0:0:0:
112,323,107623,1,2,0:0:0:0:
248,224,107867,5,10,1:2:0:0:
215,190,107989,1,2,0:0:0:0:
168,187,108111,1,2,0:0:0:0:
186,354,108355,5,2,1:2:0:0:
232,343,108477,1,2,0:0:0:0:
258,303,108599,1,2,0:0:0:0:
168,187,108843,6,0,P|151:230|175:273,1,96,10|2,1:2|0:0,0:0:0:0:
173,271,109168,1,2,0:0:0:0:
173,271,109249,1,2,0:0:0:0:
173,271,109331,1,2,1:2:0:0:
256,192,109453,12,0,112257,1:2:0:0:
472,148,112501,6,0,P|487:79|455:16,1,144,2|10,0:0|1:2,0:0:0:0:
343,164,112989,2,0,P|310:101|326:32,1,144,2|0,0:0|1:2,0:0:0:0:
400,92,113477,2,0,B|224:52|304:168|104:116,1,288,2|2,0:0|0:0,0:0:0:0:
0,184,114127,1,2,0:0:0:0:
72,208,114209,6,0,P|84:264|68:328,1,95.9999999999999,0|0,1:2|0:0,0:0:0:0:
68,324,114453,2,0,P|124:329|180:364,1,95.9999999999999,2|2,0:0|0:0,0:0:0:0:
177,363,114696,2,0,P|200:310|250:268,1,95.9999999999999,8|0,1:2|0:0,0:0:0:0:
247,271,114940,2,0,P|204:232|179:171,1,95.9999999999999,2|0,0:0|0:0,0:0:0:0:
181,175,115184,6,0,P|131:203|65:208,1,95.9999999999999,2|0,1:2|0:0,0:0:0:0:
60,280,115428,2,0,P|109:308|146:363,1,95.9999999999999,2|0,0:0|0:0,0:0:0:0:
211,332,115672,2,0,P|210:274|239:215,1,95.9999999999999,10|0,1:2|0:0,0:0:0:0:
260,168,115916,1,2,0:0:0:0:
260,168,116079,1,2,0:0:0:0:
181,175,116160,6,0,P|120:168|64:124,1,95.9999999999999,2|0,1:2|0:0,0:0:0:0:
24,196,116404,2,0,P|17:257|-27:313,1,95.9999999999999,2|0,0:0|0:0,0:0:0:0:
44,352,116648,2,0,P|105:359|161:403,1,95.9999999999999,10|0,1:2|0:0,0:0:0:0:
200,329,116892,2,0,P|207:268|251:212,1,95.9999999999999,2|0,0:0|0:0,0:0:0:0:
300,240,117135,6,0,B|388:256|432:12|432:12|388:256|488:276,1,576,2|0,1:2|1:2,0:0:0:0:
504,200,118355,1,2,0:0:0:0:
432,12,118599,1,10,1:2:0:0:
304,160,118843,1,0,0:0:0:0:
476,288,119087,6,0,B|416:288|372:376|372:376|360:280|300:260,1,288,2|8,1:2|1:2,0:0:0:0:
424,212,119818,6,0,B|381:151|346:70|438:44|510:97|444:176|367:215|327:222,1,288,2|2,0:0|0:0,0:0:0:0:
380,284,120550,6,0,P|369:331|387:284,1,144,10|2,1:2|0:0,0:0:0:0:
56,32,121038,6,0,L|64:128,1,72,2|0,1:2|0:0,0:0:0:0:
124,148,121282,2,0,L|136:308,1,144,2|8,0:0|1:2,0:0:0:0:
134,291,121770,6,0,P|200:236|184:332,1,216,2|0,0:0|0:0,0:0:0:0:
144,368,122257,2,0,P|96:360|64:324,1,72,2|0,0:0|0:0,0:0:0:0:
207,325,122501,2,0,P|241:315|266:290,1,72,10|0,1:2|0:0,0:0:0:0:
134,291,122745,2,0,P|96:260|86:212,1,72,2|0,0:0|0:0,0:0:0:0:
200,248,122989,6,0,P|228:208|225:160,1,72,2|0,1:2|0:0,0:0:0:0:
152,184,123233,2,0,P|134:138|150:92,1,72,2|0,0:0|0:0,0:0:0:0:
200,68,123477,5,10,1:2:0:0:
204,45,123558,1,2,0:0:0:0:
199,21,123640,1,2,0:0:0:0:
186,1,123721,2,0,P|104:-12|100:132,1,216,2|0,0:0|0:0,0:0:0:0:
81,170,124209,6,0,L|185:190,1,72,2|0,0:0|0:0,0:0:0:0:
260,116,124453,6,0,L|364:136,1,84.0000000000001,10|0,1:2|0:0,0:0:0:0:
439,62,124696,6,0,L|543:82,1,96,2|0,0:0|0:0,0:0:0:0:
456,328,126892,6,0,P|336:288|304:176,1,192,6|0,1:2|0:0,0:0:0:0:
368,112,127257,2,0,P|393:235|312:319,1,192,2|0,0:0|0:0,0:0:0:0:
225,297,127623,2,0,P|319:213|432:241,2,192,2|0|8,0:0|1:2|0:0,0:0:0:0:
104,348,128355,5,10,1:2:0:0:
24,248,128518,1,0,0:0:0:0:
40,224,128599,2,0,P|64:212|108:208,1,72,2|0,0:0|0:0,0:0:0:0:
248,56,128843,1,2,1:2:0:0:
280,176,129005,1,0,0:0:0:0:
254,188,129087,2,0,P|209:185|156:140,1,95.9999999999999,2|0,0:0|0:0,0:0:0:0:
131,89,129331,1,8,1:2:0:0:
472,116,129574,5,2,0:0:0:0:
416,168,129696,2,0,P|444:268|364:344,1,192,2|0,0:0|0:0,0:0:0:0:
336,384,130062,6,0,P|316:344|336:280,1,96,10|0,0:0|0:0,0:0:0:0:
248,284,130306,2,0,P|208:270|179:215,1,84.0000000000001,10|0,1:2|0:0,0:0:0:0:
128,292,130550,2,0,P|94:308|40:292,1,72,2|0,0:0|0:0,0:0:0:0:
80,224,130794,6,0,B|100:164|68:111|56:130|16:83|43:10,1,216,2|2,1:2|0:0,0:0:0:0:
244,44,131282,2,0,L|136:56,1,95.9999999999999,8|0,1:2|0:0,0:0:0:0:
116,60,131526,1,2,0:0:0:0:
160,144,131688,1,0,0:0:0:0:
168,172,131770,2,0,P|208:204|272:200,1,95.9999999999999,2|0,1:2|0:0,0:0:0:0:
316,244,132014,2,0,P|363:239|399:208,1,95.9999999999999,8|0,0:0|0:0,0:0:0:0:
476,220,132257,2,0,P|512:112|484:24,1,192,10|0,1:2|0:0,0:0:0:0:
420,52,132664,5,0,0:0:0:0:
420,52,132745,1,2,1:2:0:0:
293,24,132908,1,0,0:0:0:0:
293,24,132989,1,2,0:0:0:0:
226,136,133152,1,2,0:0:0:0:
226,136,133233,1,8,1:2:0:0:
313,236,133396,1,0,0:0:0:0:
313,236,133477,1,2,0:0:0:0:
387,243,133558,1,0,0:0:0:0:
434,185,133640,5,0,0:0:0:0:
434,185,133721,1,2,1:2:0:0:
312,47,133883,5,0,0:0:0:0:
312,47,133965,1,10,0:0:0:0:
144,119,134127,5,0,0:0:0:0:
144,119,134209,1,10,1:2:0:0:
161,302,134371,5,0,0:0:0:0:
180,296,134453,1,2,0:0:0:0:
259,291,134534,1,0,0:0:0:0:
328,328,134615,5,2,0:0:0:0:
342,342,134696,2,0,P|452:288|544:320,1,192,2|0,1:2|0:0,0:0:0:0:
488,216,135062,2,0,P|352:256|248:108,1,288,2|0,0:0|0:0,0:0:0:0:
332,16,135428,2,0,P|488:76|368:236,2,384,2|0|8,0:0|1:2|0:0,0:0:0:0:
276,72,136160,5,10,1:2:0:0:
352,92,136322,1,0,0:0:0:0:
370,105,136404,2,0,P|425:92|408:38,1,128,2|0,0:0|0:0,0:0:0:0:
296,148,136648,1,2,1:2:0:0:
236,204,136810,1,0,0:0:0:0:
215,213,136892,2,0,P|198:267|254:279,1,128
220,128,137135,1,8,1:2:0:0:
200,52,137379,6,0,P|124:32|172:108,1,192,2|0,1:2|0:0,0:0:0:0:
145,109,138111,1,0,0:0:0:0:
145,109,138355,1,0,0:0:0:0:
