osu file format v14

[General]
AudioFilename: audio.mp3
AudioLeadIn: 0
PreviewTime: 63233
Countdown: 0
SampleSet: Soft
StackLeniency: 0.7
Mode: 0
LetterboxInBreaks: 0
WidescreenStoryboard: 1

[Editor]
Bookmarks: 9818,17623,19331,32989,48843,56648,62501,77867,93721,109087,123721,138599
DistanceSpacing: 0.3
BeatDivisor: 4
GridSize: 4
TimelineZoom: 1.5

[Metadata]
Title:Kinmokusei (feat. Ado)
TitleUnicode:金木犀 (feat. Ado)
Artist:Kujira
ArtistUnicode:くじら
Creator:Ryuusei Aika
Version:Karen's Expert
Source:
Tags:アド WhaleDontSleep Osmanthus female vocal japanese pop jpop j-pop z1 z1085684963 karen agatsu dog food door weapon muz muziyami wanpachi cycopton
BeatmapID:2958501
BeatmapSetID:1435450

[Difficulty]
HPDrainRate:5
CircleSize:4
OverallDifficulty:8
ApproachRate:9
SliderMultiplier:1.92
SliderTickRate:1

[Events]
//Background and Video events
0,0,"bg.jpg",0,0
//Break Periods
//Storyboard Layer 0 (Background)
//Storyboard Layer 1 (Fail)
//Storyboard Layer 2 (Pass)
//Storyboard Layer 3 (Foreground)
//Storyboard Layer 4 (Overlay)
//Storyboard Sound Samples

[TimingPoints]
2014,487.80487804878,4,2,5,25,1,0
9818,-100,4,2,5,30,0,0
17135,-66.6666666666667,4,2,5,60,0,0
17623,-66.6666666666667,4,2,5,60,0,0
18111,-83.3333333333333,4,2,5,60,0,0
19574,-66.6666666666667,4,2,5,60,0,0
20062,-83.3333333333333,4,2,5,60,0,0
21526,-66.6666666666667,4,2,5,60,0,0
22013,-83.3333333333333,4,2,5,60,0,0
23477,-66.6666666666667,4,2,5,60,0,0
25428,-83.3333333333333,4,2,5,60,0,0
29331,-66.6666666666667,4,2,5,60,0,0
29818,-83.3333333333333,4,2,5,60,0,0
31282,-66.6666666666667,4,2,5,60,0,0
32989,-55.5555555555556,4,2,5,60,0,0
33233,-83.3333333333333,4,2,5,30,0,0
48355,-83.3333333333333,4,2,5,40,0,0
48843,-83.3333333333333,4,2,5,50,0,0
60550,-83.3333333333333,4,2,5,40,0,0
62501,-83.3333333333333,4,2,5,50,0,0
64453,-66.6666666666667,4,2,5,70,0,0
78111,-66.6666666666667,4,2,5,60,0,0
78599,-83.3333333333333,4,2,5,60,0,0
80062,-66.6666666666667,4,2,5,60,0,0
80550,-83.3333333333333,4,2,5,60,0,0
82013,-66.6666666666667,4,2,5,60,0,0
82501,-83.3333333333333,4,2,5,60,0,0
83965,-66.6666666666667,4,2,5,60,0,0
86404,-66.6666666666667,4,2,5,60,0,0
86770,-83.3333333333333,4,2,5,60,0,0
89818,-66.6666666666667,4,2,5,60,0,0
90306,-83.3333333333333,4,2,5,60,0,0
91770,-66.6666666666667,4,2,5,60,0,0
93477,-66.6666666666667,4,2,5,50,0,0
94574,-83.3333333333333,4,2,5,50,0,0
101038,-83.3333333333333,4,2,5,60,0,0
126892,-83.3333333333333,4,2,5,70,0,0
137379,-83.3333333333333,4,2,5,60,0,0
137501,-83.3333333333333,4,2,5,25,0,0

[Colours]
Combo1 : 210,210,210
Combo2 : 255,223,0
Combo3 : 255,255,128
Combo4 : 158,227,55
Combo5 : 215,145,40

[HitObjects]
363,0,17135,6,0,B|338:2|324:19|324:19|346:11|362:14,1,72.0000027465821
431,55,17379,1,2,0:3:0:0:
431,55,17501,1,2,0:3:0:0:
356,93,17623,6,0,P|326:148|337:240,1,144.000005493164,6|2,1:2|0:0,0:0:0:0:
457,312,17989,1,0,0:0:0:0:
512,207,18111,2,0,P|449:214|399:254,1,115.199996484375,10|2,1:2|0:0,0:0:0:0:
495,384,18477,6,0,P|439:350|375:350,1,115.199996484375,2|0,0:0|0:0,0:0:0:0:
310,368,18843,2,0,P|304:334|340:306,1,57.5999982421876,2|0,0:0|0:0,0:0:0:0:
390,346,19087,1,8,1:2:0:0:
154,173,19331,1,2,0:0:0:0:
209,280,19493,1,2,0:0:0:0:
222,275,19574,6,0,B|153:258|153:258|156:262|156:262|81:243,1,144.000005493164,2|2,1:2|0:0,0:0:0:0:
44,177,19940,1,0,0:0:0:0:
20,351,20062,2,0,P|-12:308|16:235,1,115.199996484375,10|2,1:2|0:0,0:0:0:0:
154,173,20428,6,0,P|175:123|252:111,1,115.199996484375,2|0,0:0|0:0,0:0:0:0:
281,169,20794,2,0,B|270:187|270:187|220:180,1,57.5999982421876,2|0,0:0|0:0,0:0:0:0:
116,252,21038,1,10,1:2:0:0:
387,221,21282,1,0,0:0:0:0:
390,227,21363,1,0,0:0:0:0:
393,233,21444,1,0,0:0:0:0:
396,238,21526,6,0,B|365:165|431:165|395:94,1,144.000005493164,2|2,1:2|0:0,0:0:0:0:
323,75,21892,1,0,0:0:0:0:
434,3,22013,2,0,P|406:2|377:19,1,57.5999982421876,10|0,1:2|0:0,0:0:0:0:
189,0,22257,1,2,0:0:0:0:
127,77,22379,6,0,P|179:77|251:136,1,115.199996484375,2|0,0:0|0:0,0:0:0:0:
160,186,22745,2,0,L|218:194,1,57.5999982421876,2|0,0:0|0:0,0:0:0:0:
298,345,22989,1,8,1:2:0:0:
138,362,23233,2,0,B|111:350|111:350|129:290,1,76.7999976562501,2|2,0:0|0:0,0:0:0:0:
82,228,23477,5,2,1:2:0:0:
290,232,23640,1,2,0:0:0:0:
302,224,23721,2,0,L|384:242,1,48.0000018310548,2|0,0:0|0:0,0:0:0:0:
476,127,23883,1,2,0:0:0:0:
404,86,23965,2,0,P|397:132|428:202,1,96.0000036621095,10|2,1:2|0:0,0:0:0:0:
495,328,24209,1,2,0:0:0:0:
495,328,24371,6,0,L|383:339,1,96.0000036621095,2|0,0:0|0:0,0:0:0:0:
328,363,24615,1,2,0:0:0:0:
314,368,24696,2,0,P|309:336|324:307,1,48.0000018310548,2|0,0:0|0:0,0:0:0:0:
358,246,24859,1,2,0:0:0:0:
341,235,24940,1,8,0:3:0:0:
203,262,25103,1,8,0:3:0:0:
244,250,25184,1,0,0:0:0:0:
95,287,25347,1,0,0:0:0:0:
50,257,25428,5,2,1:2:0:0:
205,84,25916,1,10,1:2:0:0:
0,45,26282,6,0,B|68:41|85:83|62:131|155:139,1,172.799994726563,2|2,0:0|0:0,0:0:0:0:
257,290,26892,2,0,P|255:228|263:175,1,115.199996484375,8|2,1:2|0:0,0:0:0:0:
332,123,27298,1,2,0:0:0:0:
338,113,27379,5,2,1:2:0:0:
458,274,27867,1,10,1:2:0:0:
512,1,28233,6,0,L|321:30,1,172.799994726563,2|2,0:0|0:0,0:0:0:0:
107,41,28843,2,0,P|121:100|187:104,1,115.199996484375,10|0,1:2|0:0,0:0:0:0:
257,87,29168,1,0,0:0:0:0:
255,79,29249,1,0,0:0:0:0:
252,71,29331,6,0,L|235:226,1,144.000005493164,2|2,1:2|0:0,0:0:0:0:
160,191,29696,1,0,0:0:0:0:
324,154,29818,2,0,L|328:239,1,57.5999982421876,10|0,1:2|0:0,0:0:0:0:
187,284,30062,1,2,0:0:0:0:
312,360,30184,6,0,P|362:316|473:286,1,172.799994726563,2|2,0:0|0:0,0:0:0:0:
489,135,30794,2,0,B|412:138|412:138|401:88,1,115.199996484375,8|2,1:2|0:0,0:0:0:0:
459,2,31200,1,2,0:0:0:0:
470,11,31282,6,0,P|478:37|475:70,1,48.0000018310548,2|0,1:2|0:0,0:0:0:0:
388,223,31444,1,2,0:0:0:0:
379,234,31526,2,0,P|353:243|320:243,1,48.0000018310548,2|0,0:0|0:0,0:0:0:0:
137,97,31688,1,2,0:0:0:0:
187,34,31770,2,0,L|306:59,1,96.0000036621095,10|2,1:2|0:0,0:0:0:0:
254,279,32013,1,2,0:0:0:0:
254,279,32176,6,0,P|196:268|175:210,1,96.0000036621095,2|0,0:0|0:0,0:0:0:0:
249,147,32420,1,2,0:0:0:0:
259,156,32501,2,0,L|245:217,1,48.0000018310548,2|0,0:0|0:0,0:0:0:0:
48,74,32664,1,2,0:0:0:0:
38,83,32745,2,0,L|52:144,1,48.0000018310548,10|0,1:2|0:0,0:0:0:0:
86,321,32908,1,2,0:0:0:0:
74,319,32989,6,0,P|83:283|106:315,1,86.3999973632813,2|2,0:3|0:3,0:0:0:0:
180,362,33233,5,0,1:2:0:0:
305,345,33599,1,2,3:2:0:0:
472,310,33965,1,2,3:2:0:0:
292,207,35184,5,0,1:2:0:0:
167,190,35550,1,0,3:2:0:0:
0,156,35916,1,2,3:2:0:0:
215,51,37135,5,0,1:2:0:0:
340,34,37501,1,2,3:2:0:0:
507,0,37867,1,2,3:2:0:0:
268,135,39087,6,0,L|249:314,2,172.799994726563,2|0|2,1:2|0:0|3:2,0:0:0:0:
149,290,41038,6,0,L|21:313,1,115.199996484375,0|2,1:2|3:2,0:0:0:0:
20,183,41444,1,2,0:0:0:0:
9,177,41526,2,0,P|2:130|43:92,1,76.7999976562501,2|0,1:2|0:0,0:0:0:0:
96,126,41770,2,0,P|133:96|186:112,1,76.7999976562501,2|0,3:2|0:0,0:0:0:0:
211,195,42013,2,0,P|255:212|269:289,1,115.199996484375,2|2,1:2|3:2,0:0:0:0:
458,339,42501,5,0,1:2:0:0:
199,303,42745,1,2,3:2:0:0:
449,249,42989,5,0,1:2:0:0:
295,138,43233,1,2,3:2:0:0:
497,27,43477,6,0,L|364:50,1,115.199996484375,2|0,1:2|3:2,0:0:0:0:
361,276,43965,2,0,L|349:332,1,57.5999982421876,2|2,1:2|0:0,0:0:0:0:
285,239,44209,2,0,L|273:295,1,57.5999982421876,2|2,3:2|0:0,0:0:0:0:
220,358,44453,2,0,P|168:341|141:279,1,115.199996484375,0|2,1:2|3:2,0:0:0:0:
18,185,44940,6,0,B|-6:61|-6:61|29:30,2,172.799994726563,0|0|0,1:2|0:0|3:2,0:0:0:0:
108,377,45916,2,0,P|58:342|-3:350,1,115.199996484375,0|0,1:2|3:2,0:0:0:0:
207,364,46404,1,0,1:2:0:0:
207,364,46648,1,2,3:2:0:0:
127,176,46892,6,0,L|144:303,1,115.199996484375,2|2,1:2|3:2,0:0:0:0:
329,235,47379,2,0,L|346:362,1,115.199996484375,2|2,1:2|3:2,0:0:0:0:
477,197,47867,2,0,L|404:189,1,57.5999982421876,2|0,1:2|0:0,0:0:0:0:
470,119,48111,2,0,L|397:111,1,57.5999982421876,2|0,3:2|0:0,0:0:0:0:
348,50,48355,1,10,0:3:0:0:
257,129,48518,1,8,0:3:0:0:
253,139,48599,1,6,0:3:0:0:
138,63,48761,1,4,0:3:0:0:
129,70,48843,6,0,L|123:6,2,57.5999982421876,2|0|2,1:2|0:0|0:0,0:0:0:0:
61,227,49249,1,0,0:0:0:0:
64,215,49331,2,0,P|130:212|183:247,1,115.199996484375,10|2,1:2|0:0,0:0:0:0:
230,379,49737,1,2,0:0:0:0:
220,384,49818,2,0,P|209:344|224:298,1,76.7999976562501,2|2,1:2|0:0,0:0:0:0:
299,279,50062,2,0,P|328:249|375:239,1,76.7999976562501,2|0,0:0|0:0,0:0:0:0:
447,304,50306,2,0,P|487:314|519:350,1,76.7999976562501,10|2,1:2|0:0,0:0:0:0:
453,383,50550,1,0,0:0:0:0:
358,130,50672,1,2,0:0:0:0:
479,106,50794,6,0,L|459:-13,1,115.199996484375,2|2,1:2|0:0,0:0:0:0:
512,186,51200,1,2,0:0:0:0:
501,191,51282,2,0,L|412:175,1,76.7999976562501,8|2,1:2|0:0,0:0:0:0:
369,239,51526,1,2,0:0:0:0:
248,276,51770,1,2,1:2:0:0:
127,312,52013,1,2,0:0:0:0:
194,89,52257,2,0,L|182:180,1,76.7999976562501,8|0,1:2|0:0,0:0:0:0:
183,176,52501,1,0,0:0:0:0:
56,263,52664,1,0,0:0:0:0:
50,272,52745,6,0,P|21:265|3:208,1,76.7999976562501,2|2,1:2|0:0,0:0:0:0:
49,148,52989,2,0,P|40:119|80:75,1,76.7999976562501,2|2,0:0|0:0,0:0:0:0:
160,256,53233,2,0,L|259:276,1,76.7999976562501,10|2,1:2|0:0,0:0:0:0:
305,234,53477,1,2,0:0:0:0:
472,337,53640,1,2,0:0:0:0:
476,326,53721,2,0,P|440:300|400:306,1,76.7999976562501,2|0,1:2|0:0,0:0:0:0:
356,360,53965,1,2,0:0:0:0:
419,76,54127,2,0,L|390:200,1,115.199996484375,2|0,0:0|0:0,0:0:0:0:
461,232,54453,1,2,0:0:0:0:
240,125,54615,1,2,0:0:0:0:
236,136,54696,6,0,L|149:151,1,76.7999976562501,2|0,1:2|0:0,0:0:0:0:
149,69,54940,2,0,L|62:84,1,76.7999976562501,2|2,0:0|0:0,0:0:0:0:
88,222,55184,2,0,L|1:237,1,76.7999976562501,10|2,1:2|0:0,0:0:0:0:
0,314,55428,1,0,0:0:0:0:
206,360,55591,1,0,0:0:0:0:
195,355,55672,2,0,P|195:286|222:244,2,115.199996484375,2|2|10,1:2|0:0|1:2,0:0:0:0:
344,216,56404,1,0,0:0:0:0:
416,290,56566,1,2,0:0:0:0:
407,298,56648,5,2,1:2:0:0:
315,308,56892,1,2,0:0:0:0:
237,180,57135,1,10,1:2:0:0:
346,3,57379,1,2,0:0:0:0:
498,92,57542,1,2,0:0:0:0:
500,103,57624,1,2,1:2:0:0:
466,189,57868,1,2,0:0:0:0:
316,198,58111,1,10,1:2:0:0:
211,19,58355,1,2,0:0:0:0:
76,79,58518,1,0,0:0:0:0:
82,88,58599,6,0,L|207:102,1,115.199996484375,2|2,1:2|0:0,0:0:0:0:
243,280,59087,2,0,L|368:294,1,115.199996484375,10|2,1:2|0:0,0:0:0:0:
512,203,59574,1,2,1:2:0:0:
494,281,59818,1,0,0:0:0:0:
469,357,60062,1,10,1:2:0:0:
476,362,60306,1,2,0:0:0:0:
345,372,60550,5,2,0:0:0:0:
345,372,62257,6,0,P|333:333|357:305,1,76.7999976562501,2|0,0:0|0:0,0:0:0:0:
428,276,62501,5,8,1:2:0:0:
325,120,62867,1,8,1:2:0:0:
43,33,63233,1,10,1:2:0:0:
43,33,63965,6,0,L|106:43,1,57.5999982421876,2|2,0:3|0:3,0:0:0:0:
107,49,64209,2,0,L|50:39,1,57.5999982421876,2|2,0:3|0:3,0:0:0:0:
0,190,64453,6,0,P|81:215|118:265,1,144.000005493164,6|2,1:2|0:0,0:0:0:0:
266,177,64859,1,2,0:0:0:0:
147,132,64940,2,0,P|180:175|184:233,1,96.0000036621095,10|0,1:2|0:0,0:0:0:0:
355,156,65184,2,0,P|347:210|309:254,1,96.0000036621095,2|2,0:0|0:0,0:0:0:0:
457,380,65428,6,0,P|412:336|309:332,1,144.000005493164,2|10,1:2|0:0,0:0:0:0:
175,383,65835,1,2,0:0:0:0:
88,384,65916,2,0,P|87:333|119:278,1,96.0000036621095,10|0,1:2|0:0,0:0:0:0:
2,162,66160,2,0,L|107:191,1,96.0000036621095,2|0,0:0|0:0,0:0:0:0:
256,104,66404,6,0,P|241:23|180:21,1,144.000005493164,2|0,1:2|0:0,0:0:0:0:
118,50,66770,2,0,P|112:83|143:126,1,72.0000027465821,2|8,0:0|1:2,0:0:0:0:
432,98,67135,2,0,P|416:147|370:173,1,96.0000036621095,2|0,0:0|0:0,0:0:0:0:
295,178,67379,5,0,1:2:0:0:
485,272,67542,1,0,0:0:0:0:
494,263,67623,2,0,P|456:249|384:256,1,96.0000036621095,8|0,0:0|0:0,0:0:0:0:
242,337,67867,2,0,P|197:343|146:367,1,96.0000036621095,10|0,1:2|0:0,0:0:0:0:
79,322,68111,1,2,0:0:0:0:
206,221,68274,5,0,0:0:0:0:
195,230,68355,2,0,L|214:129,1,96.0000036621095,2|0,1:2|0:0,0:0:0:0:
137,110,68599,2,0,L|156:9,1,96.0000036621095,2|0,0:0|0:0,0:0:0:0:
235,0,68843,1,8,1:2:0:0:
354,158,69005,1,0,0:0:0:0:
340,152,69087,1,2,0:0:0:0:
495,15,69249,1,2,0:0:0:0:
491,0,69331,6,0,B|408:11|455:75|373:85,1,144.000005493164,0|10,1:2|0:0,0:0:0:0:
361,272,69737,1,0,0:0:0:0:
365,257,69819,2,0,B|448:268|401:332|483:342,1,144.000005493164,10|2,1:2|0:0,0:0:0:0:
470,221,70184,1,0,0:0:0:0:
335,168,70306,6,0,L|171:201,1,144.000005493164,2|0,1:2|0:0,0:0:0:0:
63,239,70672,2,0,B|48:248|33:256|33:256|61:253|88:254,1,72.0000027465821,2|8,0:0|1:2,0:0:0:0:
164,309,70916,1,2,0:0:0:0:
117,151,71038,2,0,P|118:84|145:-5,2,144.000005493164,2|2|8,0:0|1:2|0:0,0:0:0:0:
99,370,71770,1,10,1:2:0:0:
99,370,72013,2,0,L|28:354,1,72.0000027465821
0,277,72257,6,0,P|68:235|134:246,1,144.000005493164,2|2,1:2|0:0,0:0:0:0:
260,161,72664,1,2,0:0:0:0:
178,176,72745,2,0,P|255:194|294:248,1,144.000005493164,8|2,1:2|0:0,0:0:0:0:
461,293,73152,1,2,0:0:0:0:
406,348,73233,6,0,L|293:315,1,96.0000036621095,2|0,1:2|0:0,0:0:0:0:
465,206,73477,2,0,L|352:173,1,96.0000036621095,10|0,0:0|0:0,0:0:0:0:
342,94,73721,1,10,1:2:0:0:
464,27,73883,1,0,0:0:0:0:
460,41,73965,1,2,0:0:0:0:
237,120,74127,1,2,0:0:0:0:
241,133,74209,6,0,P|204:94|231:6,1,144.000005493164,2|0,1:2|0:0,0:0:0:0:
340,38,74574,2,0,L|320:120,1,72.0000027465821,2|8,0:0|1:2,0:0:0:0:
135,218,74940,2,0,B|90:226|90:226|93:227|93:227|30:239,1,96.0000036621095,2|0,0:0|0:0,0:0:0:0:
4,170,75184,5,0,1:2:0:0:
122,116,75428,1,8,0:0:0:0:
238,60,75672,1,10,1:2:0:0:
335,138,75835,1,0,0:0:0:0:
342,150,75916,1,2,0:0:0:0:
453,206,76079,1,0,0:0:0:0:
460,218,76160,1,2,1:2:0:0:
467,231,76404,6,0,L|350:226,1,96.0000036621095
300,268,76648,2,0,P|294:291|330:319,1,48.0000018310548,8|0,1:2|0:0,0:0:0:0:
460,356,76810,2,0,L|533:381,1,48.0000018310548,0|2,0:0|1:2,0:0:0:0:
417,131,77867,5,2,0:0:0:0:
415,140,77948,1,2,0:0:0:0:
413,149,78030,1,2,0:0:0:0:
410,158,78111,6,0,B|366:118|395:65|395:65|416:66|441:51,1,144.000005493164,6|2,1:2|0:0,0:0:0:0:
499,117,78477,1,0,0:0:0:0:
327,184,78599,2,0,P|277:150|219:162,1,115.199996484375,10|2,1:2|0:0,0:0:0:0:
47,196,78965,6,0,P|24:141|53:58,1,115.199996484375,2|0,0:0|0:0,0:0:0:0:
27,11,79331,2,0,P|61:14|91:43,1,57.5999982421876,2|0,0:0|0:0,0:0:0:0:
115,103,79575,1,8,1:2:0:0:
307,46,79819,1,2,0:0:0:0:
216,8,79981,1,2,0:0:0:0:
218,19,80062,6,0,L|234:170,1,144.000005493164,2|2,1:2|0:0,0:0:0:0:
238,272,80428,1,0,0:0:0:0:
127,340,80550,2,0,P|98:294|133:224,1,115.199996484375,10|2,1:2|0:0,0:0:0:0:
345,214,80916,6,0,P|373:259|338:329,1,115.199996484375,2|0,0:0|0:0,0:0:0:0:
216,367,81282,2,0,L|297:352,1,57.5999982421876,2|0,0:0|0:0,0:0:0:0:
476,365,81526,1,10,1:2:0:0:
401,120,81770,1,0,0:0:0:0:
404,126,81851,1,0,0:0:0:0:
407,132,81932,1,0,0:0:0:0:
411,138,82013,6,0,B|356:99|317:110|317:110|310:130|275:156,1,144.000005493164,2|2,1:2|0:0,0:0:0:0:
160,144,82380,1,0,0:0:0:0:
230,254,82501,2,0,P|226:211|240:182,1,57.5999982421876,10|0,1:2|0:0,0:0:0:0:
242,76,82745,1,2,0:0:0:0:
136,228,82867,6,0,L|9:256,1,115.199996484375,2|0,0:0|0:0,0:0:0:0:
33,54,83233,2,0,L|91:62,1,57.5999982421876,2|0,0:0|0:0,0:0:0:0:
160,144,83477,1,8,1:2:0:0:
92,379,83721,2,0,B|65:367|65:367|83:307,1,76.7999976562501,2|2,0:0|0:0,0:0:0:0:
167,311,83965,5,2,1:2:0:0:
0,159,84128,1,2,0:0:0:0:
8,147,84209,2,0,P|49:154|88:164,1,48.0000018310548,2|0,0:0|0:0,0:0:0:0:
211,219,84371,1,2,0:0:0:0:
293,192,84453,2,0,P|305:141|273:91,1,96.0000036621095,10|2,1:2|0:0,0:0:0:0:
151,14,84697,1,2,0:0:0:0:
151,14,84859,6,0,L|277:30,1,96.0000036621095,2|0,0:0|0:0,0:0:0:0:
379,91,85103,1,2,0:0:0:0:
389,100,85184,2,0,L|455:109,1,48.0000018310548,2|0,0:0|0:0,0:0:0:0:
487,39,85347,1,2,0:0:0:0:
470,28,85428,1,10,1:2:0:0:
437,188,85591,1,2,0:0:0:0:
478,176,85672,1,2,0:0:0:0:
448,358,85835,1,2,0:0:0:0:
403,328,85916,5,2,0:2:0:0:
184,311,86160,2,0,B|150:327|150:327|186:323,1,72.0000027465821,2|2,0:3|0:3,0:0:0:0:
255,367,86404,6,0,P|221:296|247:214,1,144.000005493164,14|2,1:2|0:0,0:0:0:0:
181,89,86770,2,0,B|231:103|231:103|273:157|273:157|325:173,1,172.799994726563,2|2,0:0|0:0,0:0:0:0:
503,106,87379,6,0,P|496:42|445:24,1,115.199996484375,8|2,1:2|0:0,0:0:0:0:
362,65,87786,1,2,0:0:0:0:
369,74,87867,5,2,1:2:0:0:
512,216,88355,1,10,1:2:0:0:
355,306,88721,6,0,L|164:335,1,172.799994726563,2|2,0:0|0:0,0:0:0:0:
12,156,89331,2,0,B|56:154|56:154|78:235,1,115.199996484375,10|0,1:2|0:0,0:0:0:0:
0,278,89656,1,0,0:0:0:0:
3,284,89737,1,0,0:0:0:0:
6,290,89819,6,0,P|68:317|117:384,1,144.000005493164,2|2,1:2|0:0,0:0:0:0:
253,226,90184,1,0,0:0:0:0:
361,273,90306,2,0,B|340:304|340:304|271:296,1,76.7999976562501,10|0,1:2|0:0,0:0:0:0:
202,374,90550,1,2,0:0:0:0:
168,247,90672,6,0,P|154:193|198:86,1,172.799994726563,2|2,0:0|0:0,0:0:0:0:
350,153,91282,2,0,P|396:183|470:171,1,115.199996484375,8|2,1:2|0:0,0:0:0:0:
461,89,91688,1,2,0:0:0:0:
454,74,91770,6,0,P|427:63|396:63,1,48.0000018310548,2|0,1:2|0:0,0:0:0:0:
321,251,91932,1,2,0:0:0:0:
304,249,92013,2,0,P|289:231|280:209,1,48.0000018310548,2|0,0:0|0:0,0:0:0:0:
280,53,92176,1,2,0:0:0:0:
206,10,92257,2,0,L|96:2,1,96.0000036621095,10|2,1:2|0:0,0:0:0:0:
10,54,92501,1,2,0:0:0:0:
10,54,92664,6,0,P|-11:111|8:149,1,96.0000036621095,2|0,0:0|0:0,0:0:0:0:
132,202,92908,1,2,0:0:0:0:
140,213,92989,2,0,L|74:195,1,48.0000018310548,2|0,0:0|0:0,0:0:0:0:
137,298,93152,1,2,0:0:0:0:
145,309,93233,2,0,L|79:291,1,48.0000018310548,10|0,1:2|0:0,0:0:0:0:
0,350,93396,1,2,0:0:0:0:
20,270,93477,2,0,L|12:211,1,48.0000018310548,2|0,0:0|0:0,0:0:0:0:
83,116,93640,1,2,0:0:0:0:
75,103,93721,5,0,1:2:0:0:
278,197,94574,2,0,P|248:146|287:83,1,115.199996484375,2|0,1:2|0:0,0:0:0:0:
402,149,94940,2,0,P|376:162|363:187,1,57.5999982421876,2|2,1:2|0:0,0:0:0:0:
441,231,95184,1,8,0:0:0:0:
337,366,95428,2,0,L|273:354,1,57.5999982421876
211,303,95672,5,2,1:2:0:0:
211,303,96526,2,0,L|87:329,1,115.199996484375,0|0,1:2|0:0,0:0:0:0:
201,223,96892,2,0,L|134:217,1,57.5999982421876,2|0,0:0|0:0,0:0:0:0:
48,117,97135,1,8,0:0:0:0:
228,36,97379,2,0,P|214:59|220:96,1,57.5999982421876
289,142,97623,5,0,1:2:0:0:
289,142,98477,2,0,P|338:144|391:184,1,115.199996484375,2|0,1:2|0:0,0:0:0:0:
424,77,98843,2,0,P|442:98|450:137,1,57.5999982421876,2|0,1:2|0:0,0:0:0:0:
512,181,99087,1,8,0:0:0:0:
395,334,99331,2,0,L|315:313,1,57.5999982421876,2|0,0:0|0:0,0:0:0:0:
263,361,99574,6,0,B|258:276|258:276|260:279|260:279|254:226,1,115.199996484375,2|2,1:2|0:0,0:0:0:0:
186,216,99940,1,2,0:0:0:0:
352,237,100062,2,0,B|347:152|347:152|349:155|349:155|343:102,1,115.199996484375,2|2,1:2|0:0,0:0:0:0:
412,85,100428,1,2,0:0:0:0:
239,108,100550,6,0,B|234:23|234:23|236:26|236:26|230:-27,2,115.199996484375,0|2|8,1:2|0:0|0:3,0:0:0:0:
110,150,101200,1,8,0:3:0:0:
115,159,101282,1,4,0:3:0:0:
307,202,101444,1,4,0:3:0:0:
304,213,101526,1,0,1:2:0:0:
138,354,101770,1,2,0:0:0:0:
322,309,102013,6,0,L|439:290,1,115.199996484375,10|2,1:2|0:0,0:0:0:0:
486,133,102379,1,0,0:0:0:0:
512,267,102501,2,0,P|444:231|436:189,1,115.199996484375,2|2,1:2|0:0,0:0:0:0:
352,228,102867,2,0,P|346:194|359:165,1,57.5999982421876,2|8,0:0|1:2,0:0:0:0:
439,59,103152,1,2,0:0:0:0:
430,51,103233,2,0,L|340:61,1,76.7999976562501,0|2,0:0|0:0,0:0:0:0:
282,13,103477,6,0,B|231:26|231:26|255:103,1,115.199996484375,0|2,1:2|0:0,0:0:0:0:
218,218,103883,1,2,0:0:0:0:
208,224,103965,2,0,P|181:189|191:156,1,76.7999976562501,10|0,1:2|0:0,0:0:0:0:
288,173,104209,2,0,P|316:139|350:142,1,76.7999976562501,2|0,0:0|0:0,0:0:0:0:
365,230,104453,6,0,P|419:270|399:318,1,115.199996484375,2|2,1:2|0:0,0:0:0:0:
119,384,104940,2,0,L|142:267,1,115.199996484375,8|2,1:2|0:0,0:0:0:0:
52,133,105347,1,2,0:0:0:0:
51,144,105428,1,2,1:2:0:0:
150,115,105672,1,0,0:0:0:0:
249,86,105916,1,8,1:2:0:0:
249,86,106282,6,0,L|425:125,1,172.799994726563,0|2,0:0|0:0,0:0:0:0:
208,6,106892,1,8,1:2:0:0:
208,6,107379,5,2,1:2:0:0:
176,80,107501,1,2,0:0:0:0:
101,111,107623,1,2,0:0:0:0:
317,150,107867,5,10,1:2:0:0:
275,180,107989,1,2,0:0:0:0:
223,174,108111,1,2,0:0:0:0:
378,297,108355,5,2,1:2:0:0:
344,300,108477,1,2,0:0:0:0:
317,280,108599,1,2,0:0:0:0:
163,384,108843,6,0,L|194:265,1,115.199996484375,10|2,1:2|0:0,0:0:0:0:
125,229,109168,1,2,0:0:0:0:
117,231,109249,1,2,0:0:0:0:
110,234,109331,1,2,1:2:0:0:
256,192,109412,12,2,112989,0:0:0:0:
405,338,113233,5,0,1:2:0:0:
354,260,113477,1,2,0:0:0:0:
263,244,113721,1,8,1:2:0:0:
477,296,113965,2,0,P|462:262|456:222,1,57.5999982421876,2|0,0:0|0:0,0:0:0:0:
407,179,114209,6,0,P|458:146|517:164,1,115.199996484375,0|2,1:2|0:0,0:0:0:0:
423,4,114615,1,2,0:0:0:0:
411,1,114696,2,0,L|397:85,1,76.7999976562501,8|0,1:2|0:0,0:0:0:0:
333,14,114940,2,0,L|319:98,1,76.7999976562501,2|0,0:0|0:0,0:0:0:0:
246,135,115184,5,2,1:2:0:0:
380,264,115428,1,2,0:0:0:0:
157,364,115672,1,10,1:2:0:0:
304,209,115916,2,0,L|214:227,1,76.7999976562501,2|2,0:0|0:0,0:0:0:0:
162,269,116160,6,0,B|139:251|139:251|157:185,1,76.7999976562501,2|0,1:2|0:0,0:0:0:0:
67,156,116404,2,0,B|71:127|71:127|137:109,1,76.7999976562501,2|0,0:0|0:0,0:0:0:0:
135,2,116648,2,0,B|162:-8|162:-8|210:39,1,76.7999976562501,10|0,1:2|0:0,0:0:0:0:
317,44,116892,2,0,B|339:62|339:62|322:128,1,76.7999976562501,2|0,0:0|0:0,0:0:0:0:
339,311,117135,6,0,B|411:307|441:257|441:257|428:314|486:369,2,230.39999296875,2|8|0,1:2|1:2|1:2,0:0:0:0:
288,248,118233,1,0,0:0:0:0:
214,334,118355,2,0,L|203:253,1,57.5999982421876,2|0,0:0|0:0,0:0:0:0:
344,176,118599,2,0,L|363:48,1,115.199996484375,10|0,1:2|0:0,0:0:0:0:
209,9,119087,6,0,P|140:11|73:96,2,172.799994726563,2|0|2,1:2|0:0|0:0,0:0:0:0:
236,187,120062,2,0,B|179:172|179:172|181:175|181:175|126:161,1,115.199996484375,0|2,1:2|0:0,0:0:0:0:
35,252,120428,1,0,0:0:0:0:
79,333,120550,2,0,P|148:328|169:277,1,115.199996484375,10|2,1:2|0:0,0:0:0:0:
65,112,120916,1,0,0:0:0:0:
115,40,121038,6,0,L|208:57,1,57.5999982421876,2|0,1:2|0:0,0:0:0:0:
293,16,121282,1,2,0:0:0:0:
340,155,121404,2,0,L|433:172,1,57.5999982421876,0|8,0:0|1:2,0:0:0:0:
396,165,121770,6,0,P|402:104|359:72,1,115.199996484375,2|0,0:0|1:2,0:0:0:0:
240,127,122135,1,0,0:0:0:0:
262,205,122257,2,0,L|247:268,1,57.5999982421876,2|0,0:0|0:0,0:0:0:0:
164,71,122501,2,0,L|149:134,1,57.5999982421876,10|0,1:2|0:0,0:0:0:0:
13,222,122745,2,0,L|-2:285,1,57.5999982421876,2|0,0:0|0:0,0:0:0:0:
112,297,122989,6,0,P|136:278|171:281,1,57.5999982421876,2|0,1:2|0:0,0:0:0:0:
252,341,123233,2,0,P|282:344|305:371,1,57.5999982421876,2|0,0:0|0:0,0:0:0:0:
433,358,123477,1,10,1:2:0:0:
428,351,123558,1,2,0:0:0:0:
426,343,123640,1,2,0:0:0:0:
427,335,123721,6,0,L|471:136,1,172.799994726563,2|0,0:0|0:0,0:0:0:0:
420,99,124209,1,2,0:0:0:0:
331,199,124453,1,10,1:2:0:0:
512,328,124696,1,2,0:0:0:0:
403,374,124940,5,2,0:0:0:0:
403,374,126892,2,0,P|358:323|381:271,1,115.199996484375,6|0,1:2|0:0,0:0:0:0:
353,286,127257,2,0,P|385:226|442:230,1,115.199996484375,2|0,0:0|0:0,0:0:0:0:
428,172,127623,2,0,P|495:182|511:236,2,115.199996484375,2|0|8,0:0|1:2|0:0,0:0:0:0:
349,49,128355,2,0,L|223:72,1,115.199996484375,10|2,1:2|0:0,0:0:0:0:
112,183,128761,1,0,0:0:0:0:
107,189,128843,6,0,L|117:90,1,76.7999976562501,2|0,1:2|0:0,0:0:0:0:
186,272,129087,2,0,L|196:173,1,76.7999976562501,2|0,0:0|0:0,0:0:0:0:
261,151,129331,1,8,1:2:0:0:
306,349,129574,1,2,0:0:0:0:
385,328,129696,2,0,P|316:297|294:255,1,115.199996484375,2|0,0:0|0:0,0:0:0:0:
357,129,130062,2,0,L|422:149,1,57.5999982421876,10|0,0:0|0:0,0:0:0:0:
499,60,130306,1,10,1:2:0:0:
360,219,130550,1,2,0:0:0:0:
244,17,130794,6,0,L|120:41,1,115.199996484375,2|0,1:2|0:0,0:0:0:0:
45,150,131160,1,2,0:0:0:0:
134,248,131282,2,0,L|127:190,1,57.5999982421876,8|2,1:2|0:0,0:0:0:0:
47,63,131526,1,2,0:0:0:0:
233,180,131770,5,2,1:2:0:0:
317,216,131892,1,0,0:0:0:0:
401,249,132013,1,8,0:0:0:0:
487,280,132135,1,0,0:0:0:0:
483,265,132257,1,10,1:2:0:0:
483,265,132745,6,0,P|469:294|467:329,1,57.5999982421876,2|0,1:2|0:0,0:0:0:0:
375,213,132989,2,0,P|377:245|393:276,1,57.5999982421876,2|0,0:0|0:0,0:0:0:0:
247,235,133233,2,0,P|265:261|294:280,1,57.5999982421876,8|0,1:2|0:0,0:0:0:0:
195,368,133477,2,0,P|224:382|259:383,1,57.5999982421876,2|2,0:0|0:0,0:0:0:0:
466,318,133721,6,0,P|469:290|483:265,1,57.5999982421876,2|0,1:2|0:0,0:0:0:0:
387,268,133965,2,0,P|376:241|375:213,1,57.5999982421876,10|0,0:0|0:0,0:0:0:0:
285,276,134209,2,0,P|262:259|247:235,1,57.5999982421876,10|0,1:2|0:0,0:0:0:0:
248,384,134453,2,0,P|220:381|195:368,1,57.5999982421876,2|0,0:0|0:0,0:0:0:0:
25,265,134696,6,0,P|4:199|58:120,1,115.199996484375,2|0,1:2|0:0,0:0:0:0:
96,100,135062,2,0,P|163:114|205:201,1,115.199996484375,2|0,0:0|0:0,0:0:0:0:
206,241,135428,2,0,P|159:292|63:284,1,115.199996484375,2|0,0:0|1:2,0:0:0:0:
104,202,135835,1,0,0:0:0:0:
114,198,135916,5,8,0:0:0:0:
225,348,136079,1,0,0:0:0:0:
234,353,136160,1,10,1:2:0:0:
388,285,136404,1,2,0:0:0:0:
471,337,136648,5,2,1:2:0:0:
447,89,137054,1,0,0:0:0:0:
455,96,137135,2,0,L|438:186,1,76.7999976562501,8|0,1:2|0:0,0:0:0:0:
473,14,137379,1,2,1:2:0:0:
