osu file format v14

[General]
AudioFilename: audio.mp3
AudioLeadIn: 0
PreviewTime: 43145
Countdown: 0
SampleSet: Normal
StackLeniency: 0.7
Mode: 1
LetterboxInBreaks: 0
EpilepsyWarning: 1
WidescreenStoryboard: 1

[Editor]
Bookmarks: 7647,14758,21869,28994,36105,43201,57439,64548,71659,78770,85882,92993,107215,121437,128547,135658,162325,176550,189511
DistanceSpacing: 0.2
BeatDivisor: 4
GridSize: 32
TimelineZoom: 5.349995

[Metadata]
Title:Zettai Zetsumei
TitleUnicode:ゼッタイゼツメイ
Artist:Kuhaku Gokko
ArtistUnicode:空白ごっこ
Creator:gaston_2199
Version:Zetsubou
Source:凋落ゲーム
Tags:Choraku game theme song イナスゼロ MINUS ZERO koyori 電ポルP DenpolP Denpol-P セツコ setsuko japanese rock jrock j-rock Erowdi roxorotto
BeatmapID:4093629
BeatmapSetID:1972804

[Difficulty]
HPDrainRate:6
CircleSize:2
OverallDifficulty:7.2
ApproachRate:10
SliderMultiplier:1.4
SliderTickRate:1

[Events]
//Background and Video events
0,0,"BG.jpg",0,-40
Video,0,"TaikoVideo.mp4"
//Break Periods
2,142970,148764
//Storyboard Layer 0 (Background)
//Storyboard Layer 1 (Fail)
//Storyboard Layer 2 (Pass)
//Storyboard Layer 3 (Foreground)
//Storyboard Layer 4 (Overlay)
//Storyboard Sound Samples

[TimingPoints]
550,222.222222222222,4,1,0,50,1,0
550,-133.333333333333,4,1,0,50,0,0
5827,-90.9090909090909,4,1,0,80,0,0
5935,-91.1656064026267,4,1,0,80,0,0
5991,-91.4282774233381,4,1,0,80,0,0
6046,-91.6877354109695,4,1,0,80,0,0
6102,-91.9534282018111,4,1,0,80,0,0
6157,-92.2158796056046,4,1,0,80,0,0
6213,-92.4846466118455,4,1,0,80,0,0
6268,-92.7501435356751,4,1,0,80,0,0
6324,-93.0220384232843,4,1,0,80,0,0
6380,-93.2955321047934,4,1,0,80,0,0
6435,-93.5657118786858,4,1,0,80,0,0
6491,-93.8424165610477,4,1,0,80,0,0
6546,-94.1157777660082,4,1,0,80,0,0
6602,-94.3957503320053,4,1,0,80,0,0
6657,-94.6723494938732,4,1,0,80,0,0
6713,-94.9556481778348,4,1,0,80,0,0
6768,-95.235543169516,4,1,0,80,0,0
6879,-95.8054776795342,4,1,0,80,0,0
6991,-96.3875027120851,4,1,0,80,0,0
7102,-96.9713506139154,4,1,0,80,0,0
7213,-97.5623147029757,4,1,0,80,0,0
7324,-98.1605258796884,4,1,0,80,0,0
7435,-98.7661182747888,4,1,0,80,0,0
7546,-99.3792293495889,4,1,0,80,0,0
7657,-100,4,1,0,80,0,0
14882,-105.263157894737,4,1,0,75,0,0
29105,-125,4,1,0,70,0,0
32546,-111.111111111111,4,1,0,70,0,0
32768,-112.674271229404,4,1,0,70,0,0
32879,-113.47246154828,4,1,0,70,0,0
32991,-114.289387414026,4,1,0,70,0,0
33102,-115.110708273987,4,1,0,70,0,0
33213,-115.943919139224,4,1,0,70,0,0
33324,-116.789280084078,4,1,0,70,0,0
33379,-117.212736502077,4,1,0,70,0,0
33435,-117.647058823529,4,1,0,70,0,0
33546,-118.517530995867,4,1,0,70,0,0
33657,-119.400980457995,4,1,0,70,0,0
33768,-120.297699594046,4,1,0,70,0,0
33879,-121.207989638012,4,1,0,70,0,0
34102,-123.079053025059,4,1,0,70,0,0
34213,-124.032089291943,4,1,0,70,0,0
34324,-111.111111111111,4,1,0,70,0,0
34546,-112.674271229404,4,1,0,70,0,0
34657,-113.47246154828,4,1,0,70,0,0
34768,-114.282041393495,4,1,0,70,0,0
34879,-115.103256295721,4,1,0,70,0,0
34991,-115.943919139224,4,1,0,70,0,0
35102,-116.789280084078,4,1,0,70,0,0
35157,-117.212736502077,4,1,0,70,0,0
35213,-117.647058823529,4,1,0,70,0,0
35324,-118.517530995867,4,1,0,70,0,0
35435,-119.400980457995,4,1,0,70,0,0
35546,-120.297699594046,4,1,0,70,0,0
35657,-121.207989638012,4,1,0,70,0,0
35768,-122.132161011128,4,1,0,70,0,0
35879,-123.070533674811,4,1,0,70,0,0
35991,-124.032089291943,4,1,0,70,0,0
36102,-125,4,1,0,70,0,0
39657,-105.263157894737,4,1,0,70,0,0
39768,-106.31110048133,4,1,0,70,0,0
39879,-107.380118371784,4,1,0,70,0,0
39991,-108.480780964002,4,1,0,70,0,0
40102,-109.594107313465,4,1,0,70,0,0
40213,-110.730522513545,4,1,0,70,0,0
40324,-111.890752336302,4,1,0,70,0,0
40435,-113.075553294327,4,1,0,70,0,0
40546,-114.285714285714,4,1,0,70,0,0
40657,-115.522058345786,4,1,0,70,0,0
40768,-116.785444513777,4,1,0,70,0,0
40879,-118.07676982335,4,1,0,70,0,0
40991,-119.408999328408,4,1,0,70,0,0
41102,-120.759330322274,4,1,0,70,0,0
41213,-122.140550937693,4,1,0,70,0,0
41324,-123.553733365762,4,1,0,70,0,0
43216,-100,4,1,0,90,0,1
57438,444.444444444444,4,1,0,90,1,0
57438,-50.0000000000001,4,1,0,90,0,0
57879,-83.3333333333333,4,1,0,40,0,0
62771,222.222222222222,4,1,0,70,1,0
62771,-111.111111111111,4,1,0,70,0,0
63882,-100,4,1,0,70,0,0
64212,-111.111111111111,4,1,0,70,0,0
64323,-107.142857142857,4,1,0,70,0,0
64434,-103.448275862069,4,1,0,70,0,0
64545,-100,4,1,0,80,0,0
77286,-107.138550584831,4,1,0,80,0,0
77434,-111.104164061523,4,1,0,80,0,0
77582,-115.374626671861,4,1,0,80,0,0
77730,-119.986495611074,4,1,0,80,0,0
77879,-125.017588293232,4,1,0,80,0,0
78175,-136.377590176516,4,1,0,80,0,0
78323,-142.868628396848,4,1,0,80,0,0
78471,-150.008441668074,4,1,0,80,0,0
78619,-157.899413541852,4,1,0,80,0,0
78715,-166.666666666667,4,1,0,60,0,0
84104,-100,4,1,0,80,0,0
85382,-166.666666666667,4,1,0,60,0,0
85882,-105.263157894737,4,1,0,75,0,0
93093,-125,4,1,0,70,0,0
96534,-111.111111111111,4,1,0,70,0,0
96756,-112.674271229404,4,1,0,70,0,0
96867,-113.47246154828,4,1,0,70,0,0
96979,-114.289387414026,4,1,0,70,0,0
97090,-115.110708273987,4,1,0,70,0,0
97201,-115.943919139224,4,1,0,70,0,0
97312,-116.789280084078,4,1,0,70,0,0
97367,-117.212736502077,4,1,0,70,0,0
97423,-117.647058823529,4,1,0,70,0,0
97534,-118.517530995867,4,1,0,70,0,0
97645,-119.400980457995,4,1,0,70,0,0
97756,-120.297699594046,4,1,0,70,0,0
97867,-121.207989638012,4,1,0,70,0,0
98090,-123.079053025059,4,1,0,70,0,0
98201,-124.032089291943,4,1,0,70,0,0
98312,-111.111111111111,4,1,0,70,0,0
98534,-112.674271229404,4,1,0,70,0,0
98645,-113.47246154828,4,1,0,70,0,0
98756,-114.282041393495,4,1,0,70,0,0
98867,-115.103256295721,4,1,0,70,0,0
98979,-115.943919139224,4,1,0,70,0,0
99090,-116.789280084078,4,1,0,70,0,0
99145,-117.212736502077,4,1,0,70,0,0
99201,-117.647058823529,4,1,0,70,0,0
99312,-118.517530995867,4,1,0,70,0,0
99423,-119.400980457995,4,1,0,70,0,0
99534,-120.297699594046,4,1,0,70,0,0
99645,-121.207989638012,4,1,0,70,0,0
99756,-122.132161011128,4,1,0,70,0,0
99867,-123.070533674811,4,1,0,70,0,0
99979,-124.032089291943,4,1,0,70,0,0
100090,-125,4,1,0,70,0,0
103645,-105.263157894737,4,1,0,70,0,0
103756,-106.31110048133,4,1,0,70,0,0
103867,-107.380118371784,4,1,0,70,0,0
103979,-108.480780964002,4,1,0,70,0,0
104090,-109.594107313465,4,1,0,70,0,0
104201,-110.730522513545,4,1,0,70,0,0
104312,-111.890752336302,4,1,0,70,0,0
104423,-113.075553294327,4,1,0,70,0,0
104534,-114.285714285714,4,1,0,70,0,0
104645,-115.522058345786,4,1,0,70,0,0
104756,-116.785444513777,4,1,0,70,0,0
104867,-118.07676982335,4,1,0,70,0,0
104979,-119.408999328408,4,1,0,70,0,0
105090,-120.759330322274,4,1,0,70,0,0
105201,-122.140550937693,4,1,0,70,0,0
105312,-123.553733365762,4,1,0,70,0,0
105423,-105.263157894737,4,1,0,70,0,0
107215,-100,4,1,0,90,0,1
121437,444.444444444444,4,1,0,90,1,0
121437,-50.0000000000001,4,1,0,90,0,0
121878,-83.3333333333333,4,1,0,40,0,0
126770,222.222222222222,4,1,0,70,1,0
126770,-111.111111111111,4,1,0,70,0,0
127881,-100,4,1,0,70,0,0
128211,-111.111111111111,4,1,0,70,0,0
128322,-107.142857142857,4,1,0,70,0,0
128433,-103.448275862069,4,1,0,70,0,0
128547,-83.3333333333333,4,1,0,80,0,0
128992,-111.111111111111,4,1,0,60,0,0
132103,-83.3333333333333,4,1,0,80,0,0
132548,-111.111111111111,4,1,0,60,0,0
135658,-100,4,1,0,80,0,0
136103,-111.111111111111,4,1,0,70,0,0
139206,-100,4,1,0,80,0,0
139651,-111.111111111111,4,1,0,70,0,0
141100,-109.634949132256,4,1,0,70,0,0
141211,-108.911479697997,4,1,0,70,0,0
141322,-108.197495865816,4,1,0,70,0,0
141378,-107.840828820344,4,1,0,70,0,0
141433,-107.492812298304,4,1,0,70,0,0
141544,-106.797248455171,4,1,0,70,0,0
141655,-106.110628439039,4,1,0,70,0,0
141711,-105.767565383061,4,1,0,70,0,0
141767,-105.426713471831,4,1,0,70,0,0
141878,-104.757548032937,4,1,0,80,0,0
141989,-104.096823683164,4,1,0,80,0,0
142044,-103.77251614365,4,1,0,80,0,0
142100,-103.444381705251,4,1,0,80,0,0
142155,-103.124120461582,4,1,0,80,0,0
142211,-102.800067336289,4,1,0,80,0,0
142267,-102.478044414611,4,1,0,80,0,0
142322,-102.163729645327,4,1,0,80,0,0
142378,-101.845674894374,4,1,0,80,0,0
142433,-101.535221415508,4,1,0,80,0,0
142489,-101.221061937124,4,1,0,80,0,0
142544,-100.914399030517,4,1,0,80,0,0
142600,-100.604063701263,4,1,0,80,0,0
142655,-100.301122365179,4,1,0,80,0,0
142710,-100,4,1,0,80,0,0
142992,-133.333333333333,4,1,0,50,0,0
149878,-111.111111111111,4,1,0,70,0,0
149989,-110.32096867192,4,1,0,70,0,0
150100,-109.541984732825,4,1,0,70,0,0
150211,-108.773924578359,4,1,0,70,0,0
150322,-108.016560030109,4,1,0,70,0,0
150433,-107.269669220707,4,1,0,70,0,0
150544,-106.533036377134,4,1,0,70,0,0
150655,-105.806451612903,4,1,0,70,0,0
150766,-105.089710728671,4,1,0,70,0,0
150878,-104.376288034913,4,1,0,70,0,0
150989,-103.678728400265,4,1,0,70,0,0
151100,-102.99043062201,4,1,0,70,0,0
151211,-102.311211455053,4,1,0,70,0,0
151322,-101.640892456617,4,1,0,70,0,0
151433,-100.979299829942,4,1,0,70,0,0
151544,-100.326264274062,4,1,0,70,0,0
151655,-99.6816208393633,4,1,0,70,0,0
151766,-99.0452087886807,4,1,0,70,0,0
151878,-98.4112469996572,4,1,0,70,0,0
151989,-97.7909023794651,4,1,0,70,0,0
152100,-97.1783295711062,4,1,0,70,0,0
152211,-96.5733834333465,4,1,0,70,0,0
152322,-95.975922416676,4,1,0,70,0,0
152433,-95.3858084528888,4,1,0,70,0,0
152544,-94.8029068487118,4,1,0,70,0,0
152655,-94.2270861833106,4,1,0,70,0,0
152766,-93.6582182095073,4,1,0,70,0,0
152878,-93.0911449886475,4,1,0,70,0,0
152989,-92.5358697404483,4,1,0,70,0,0
153100,-91.9871794871796,4,1,0,70,0,0
153211,-91.4449577823802,4,1,0,70,0,0
153322,-90.909090909091,4,1,0,70,0,0
153436,-20,4,1,0,5,0,0
154325,222.222222222222,4,1,0,5,1,8
155102,-200,4,1,0,70,0,8
155211,-100,4,1,0,80,0,8
155322,-102.561144439317,4,1,0,80,0,8
155544,-108.098249027237,4,1,0,80,0,8
155655,-111.097225693577,4,1,0,80,0,8
155766,-114.26735218509,4,1,0,80,0,8
155989,-121.216253067903,4,1,0,80,0,8
156100,-100,4,1,0,80,0,8
156211,-98.7668036884792,4,1,0,80,0,8
156322,-97.5636523266024,4,1,0,80,0,8
156433,-96.3894611297843,4,1,0,80,0,8
156655,-94.1238750661727,4,1,0,80,0,8
156878,-91.9528340918495,4,1,0,80,0,8
156989,-90.909090909091,4,1,0,80,0,8
157102,-90.909090909091,4,1,0,50,0,8
157880,222.222222222222,4,1,0,50,1,8
157880,-90.909090909091,4,1,0,50,0,0
158268,-90.909090909091,4,1,0,80,0,0
158878,-100,4,1,0,80,0,0
158933,-100.331225534478,4,1,0,80,0,0
158989,-100.670735391867,4,1,0,80,0,0
159100,-101.350529261467,4,1,0,80,0,0
159211,-102.039566362467,4,1,0,80,0,0
159322,-102.738036507154,4,1,0,80,0,0
159378,-103.094059405941,4,1,0,80,0,0
159433,-103.446134740764,4,1,0,80,0,0
159544,-104.164061523071,4,1,0,80,0,0
159655,-104.892022917585,4,1,0,80,0,0
159766,-105.63023078874,4,1,0,80,0,0
159822,-106.006617459914,4,1,0,80,0,0
159878,-106.385696040869,4,1,0,80,0,0
159989,-107.145154029198,4,1,0,80,0,0
160100,-107.915533100143,4,1,0,80,0,0
160155,-108.301371644023,4,1,0,80,0,0
160211,-108.697070529132,4,1,0,80,0,0
160322,-109.490010515247,4,1,0,80,0,0
160433,-110.294604435617,4,1,0,80,0,0
160546,-100,4,1,0,80,0,0
160657,-111.111111111111,4,1,0,80,0,0
160963,-100,4,1,0,80,0,0
161176,-111.111111111111,4,1,0,80,0,0
161380,-100,4,1,0,80,0,0
161657,-111.111111111111,4,1,0,80,0,0
162324,-95.2380952380952,4,1,0,90,0,1
176546,222.222222222222,4,1,0,90,1,9
176550,454.545454545455,4,1,0,90,1,0
176550,-46.5608465608465,4,1,0,90,0,0
176777,-81.4814814814813,4,1,0,40,0,0
178361,461.538461538462,4,1,0,40,1,0
178361,-80.2469135802468,4,1,0,40,0,0
179284,452.830188679245,4,1,0,40,1,8
179284,-81.7901234567902,4,1,0,40,0,0
180189,444.444444444444,4,1,0,40,1,0
180189,-83.3333333333334,4,1,0,40,0,0
181077,461.538461538462,4,1,0,40,1,8
181077,-80.2469135802468,4,1,0,40,0,0
182000,461.538461538462,4,1,0,40,1,0
182000,-80.2469135802468,4,1,0,40,0,0
182923,413.793103448276,4,1,0,40,1,8
182923,-89.5061728395061,4,1,0,40,0,0
183864,489.795918367347,4,1,0,40,1,0
183864,-75.6172839506173,4,1,0,40,0,0
185578,510.63829787234,4,1,0,40,1,8
185578,-76.10301238541,4,1,0,40,0,0
186088,666.666666666667,4,1,0,40,1,0
186088,-59.1585987013492,4,1,0,40,0,0
187088,470.588235294118,4,1,0,40,1,8
187088,-86.325376800566,4,1,0,40,0,0
188026,-88.8363402814269,4,1,0,40,0,0
188970,470.588235294118,4,1,0,40,1,8
188970,-78.7037037037036,4,1,0,40,0,0
189949,461.53846153846,4,1,0,40,1,0
189949,-96.2962962962966,4,1,0,40,0,0
191564,399.999999999999,4,1,0,40,1,8
191564,-111.111111111111,4,1,0,40,0,0
192364,384.615384615384,4,1,0,40,1,8
192364,-115.555555555556,4,1,0,40,0,8
193133,384.615384615383,4,1,0,40,1,0
193133,-115.555555555556,4,1,0,40,0,0
194671,352.941176470587,4,1,0,40,1,8
194671,-125.925925925926,4,1,0,40,0,0
195023,399.999999999998,4,1,0,40,1,8
195023,-111.111111111112,4,1,0,40,0,8
195423,461.53846153846,4,1,0,40,1,8
195423,-96.2962962962966,4,1,0,40,0,8
196346,512.82051282051,4,1,0,35,1,0
196346,-86.6666666666672,4,1,0,35,0,0
196684,-87.5883395737447,4,1,0,35,0,0
197371,499.999999999998,4,1,0,35,1,8
197371,-91.7922843411389,4,1,0,35,0,8
197868,-93.2785159081653,4,1,0,35,0,8
198371,458.015267175571,4,1,0,35,1,8
198371,-103.504920284048,4,1,0,35,0,0
198829,526.315789473682,4,1,0,35,1,8
198829,-91.451642249871,4,1,0,35,0,8
199352,-93.087991412544,4,1,0,35,0,8
200407,483.870967741933,4,1,0,35,1,8
200407,-99.0377841137452,4,1,0,35,0,0
201855,483.870967741933,4,1,0,30,1,0
201855,-110.66488174922,4,1,0,30,0,0
202701,-111.111111111111,4,1,0,23,0,0
203548,-111.111111111111,4,1,0,19,0,0
204758,-111.111111111111,4,1,0,16,0,0
206451,-111.111111111111,4,1,0,12,0,0
207419,-111.111111111111,4,1,0,8,0,0

[HitObjects]
254,182,550,5,4,0:0:0:0:
254,182,772,1,8,0:0:0:0:
254,182,994,1,0,0:0:0:0:
254,182,1105,1,0,0:0:0:0:
254,182,1216,1,8,0:0:0:0:
254,182,1327,1,0,0:0:0:0:
254,182,1549,1,0,0:0:0:0:
254,182,1661,1,8,0:0:0:0:
268,189,1772,1,8,0:0:0:0:
254,182,1883,1,0,0:0:0:0:
254,182,1994,1,0,0:0:0:0:
254,182,2105,1,8,0:0:0:0:
254,182,2327,1,0,0:0:0:0:
254,182,2549,1,8,0:0:0:0:
254,182,2772,1,0,0:0:0:0:
254,182,2883,1,0,0:0:0:0:
254,182,2994,1,8,0:0:0:0:
254,182,3105,1,0,0:0:0:0:
254,182,3327,1,0,0:0:0:0:
254,182,3438,1,8,0:0:0:0:
242,184,3549,1,0,2:0:0:0:
254,182,3661,1,8,0:0:0:0:
254,182,3772,1,0,0:0:0:0:
254,182,3883,1,8,0:0:0:0:
254,182,4105,1,0,0:0:0:0:
254,182,4327,1,8,0:0:0:0:
254,182,4549,1,0,0:0:0:0:
254,182,4661,1,0,0:0:0:0:
254,182,4772,1,8,0:0:0:0:
254,182,4883,1,0,0:0:0:0:
242,184,5105,1,0,0:0:0:0:
242,184,5216,1,8,0:0:0:0:
242,184,5327,1,8,0:0:0:0:
242,184,5438,1,0,0:0:0:0:
242,184,5549,1,0,0:0:0:0:
242,184,5661,1,8,0:0:0:0:
252,165,5883,1,0,0:0:0:0:
232,157,5938,1,0,0:0:0:0:
237,160,5994,1,0,0:0:0:0:
200,149,6049,1,0,0:0:0:0:
232,157,6105,1,8,0:0:0:0:
234,158,6161,1,0,0:0:0:0:
232,157,6216,1,8,0:0:0:0:
233,157,6272,1,0,0:0:0:0:
200,149,6327,1,8,0:0:0:0:
232,157,6383,1,8,0:0:0:0:
232,157,6438,1,0,0:0:0:0:
199,149,6494,1,0,0:0:0:0:
200,149,6549,1,8,0:0:0:0:
212,183,6605,1,0,0:0:0:0:
199,149,6661,1,8,0:0:0:0:
193,126,6716,1,8,0:0:0:0:
212,183,6772,1,0,0:0:0:0:
212,183,6883,1,8,0:0:0:0:
212,183,6994,1,0,0:0:0:0:
212,183,7105,1,8,0:0:0:0:
212,183,7216,1,4,0:0:0:0:
212,183,7327,1,8,0:0:0:0:
213,183,7438,1,8,0:0:0:0:
212,183,7549,1,8,0:0:0:0:
212,183,7661,1,4,0:0:0:0:
227,143,7772,1,0,0:0:0:0:
212,183,7827,1,0,0:0:0:0:
212,183,7883,1,8,0:0:0:0:
212,183,7994,1,0,0:0:0:0:
212,183,8105,1,8,0:0:0:0:
212,183,8161,1,8,0:0:0:0:
205,178,8216,1,8,0:0:0:0:
189,47,8272,1,8,0:0:0:0:
205,178,8327,1,0,0:0:0:0:
199,178,8438,1,8,0:0:0:0:
199,178,8494,1,0,0:0:0:0:
191,181,8549,1,0,0:0:0:0:
198,178,8661,1,8,0:0:0:0:
197,78,8716,1,0,0:0:0:0:
192,181,8772,1,0,0:0:0:0:
192,181,8883,1,8,0:0:0:0:
191,181,8938,1,0,0:0:0:0:
192,181,8994,1,8,0:0:0:0:
192,181,9049,1,8,0:0:0:0:
256,90,9105,1,0,0:0:0:0:
249,61,9161,1,0,0:0:0:0:
192,181,9216,1,8,0:0:0:0:
192,160,9327,1,0,0:0:0:0:
232,81,9438,1,8,0:0:0:0:
230,80,9549,1,0,0:0:0:0:
192,160,9605,1,0,0:0:0:0:
230,79,9661,1,8,0:0:0:0:
222,73,9772,1,0,0:0:0:0:
230,79,9827,1,0,0:0:0:0:
222,73,9883,1,8,0:0:0:0:
242,90,9938,1,0,0:0:0:0:
222,73,9994,1,8,0:0:0:0:
222,73,10105,1,0,0:0:0:0:
222,73,10216,1,8,0:0:0:0:
222,73,10272,1,0,0:0:0:0:
222,73,10327,1,0,0:0:0:0:
222,73,10438,1,8,0:0:0:0:
222,73,10494,1,0,0:0:0:0:
214,71,10549,1,0,0:0:0:0:
214,71,10661,1,8,0:0:0:0:
214,71,10772,1,0,0:0:0:0:
214,71,10827,1,8,0:0:0:0:
214,71,10883,1,0,0:0:0:0:
199,81,10938,1,0,0:0:0:0:
214,71,10994,1,8,0:0:0:0:
199,81,11049,1,8,0:0:0:0:
199,80,11105,1,0,0:0:0:0:
199,80,11216,1,8,0:0:0:0:
297,58,11327,1,0,0:0:0:0:
212,183,11383,1,0,0:0:0:0:
212,183,11438,1,8,0:0:0:0:
212,183,11549,1,0,0:0:0:0:
212,183,11661,1,8,0:0:0:0:
212,183,11716,1,8,0:0:0:0:
205,178,11772,1,8,0:0:0:0:
189,47,11827,1,8,0:0:0:0:
205,178,11883,1,0,0:0:0:0:
199,178,11994,1,8,0:0:0:0:
199,178,12049,1,0,0:0:0:0:
191,181,12105,1,0,0:0:0:0:
198,178,12216,1,8,0:0:0:0:
197,78,12272,1,0,0:0:0:0:
192,181,12327,1,0,0:0:0:0:
192,181,12438,1,8,0:0:0:0:
191,181,12494,1,0,0:0:0:0:
192,181,12549,1,8,0:0:0:0:
192,181,12605,1,8,0:0:0:0:
256,90,12661,1,0,0:0:0:0:
249,61,12716,1,0,0:0:0:0:
192,181,12772,1,8,0:0:0:0:
192,160,12883,1,0,0:0:0:0:
232,81,12994,1,8,0:0:0:0:
192,160,13049,1,0,0:0:0:0:
230,80,13105,1,0,0:0:0:0:
226,79,13161,1,0,0:0:0:0:
230,79,13216,1,8,0:0:0:0:
230,79,13272,1,0,0:0:0:0:
222,73,13327,1,8,0:0:0:0:
232,81,13383,1,8,0:0:0:0:
222,73,13438,1,0,0:0:0:0:
242,90,13494,1,8,0:0:0:0:
222,73,13549,1,0,0:0:0:0:
131,196,13605,1,0,0:0:0:0:
222,73,13661,1,8,0:0:0:0:
222,73,13772,1,8,0:0:0:0:
222,73,13827,1,8,0:0:0:0:
222,73,13883,1,0,0:0:0:0:
222,73,13994,1,0,0:0:0:0:
214,71,14105,1,8,0:0:0:0:
214,71,14216,1,0,0:0:0:0:
233,59,14272,1,0,0:0:0:0:
214,71,14327,1,8,0:0:0:0:
214,71,14383,1,0,0:0:0:0:
214,71,14438,1,8,0:0:0:0:
199,81,14494,1,8,0:0:0:0:
214,71,14549,1,0,0:0:0:0:
199,81,14605,1,0,0:0:0:0:
199,80,14661,1,8,0:0:0:0:
199,80,14772,1,4,0:0:0:0:
262,82,14994,1,8,0:0:0:0:
221,93,15216,1,0,0:0:0:0:
221,93,15327,1,0,0:0:0:0:
219,93,15438,1,8,0:0:0:0:
219,93,15549,1,0,0:0:0:0:
195,46,15605,1,0,0:0:0:0:
215,55,15661,1,0,0:0:0:0:
209,92,15772,1,8,0:0:0:0:
204,93,15883,1,0,0:0:0:0:
199,90,15994,1,8,0:0:0:0:
210,89,16049,1,8,0:0:0:0:
199,93,16105,1,8,0:0:0:0:
199,90,16216,1,0,0:0:0:0:
199,90,16327,1,8,0:0:0:0:
229,82,16438,1,8,0:0:0:0:
199,90,16549,1,0,0:0:0:0:
188,91,16772,1,8,0:0:0:0:
188,91,16994,1,8,0:0:0:0:
181,93,17105,1,0,0:0:0:0:
188,91,17216,1,8,0:0:0:0:
181,93,17327,1,8,0:0:0:0:
209,78,17383,1,8,0:0:0:0:
196,59,17438,1,0,0:0:0:0:
213,98,17549,1,8,0:0:0:0:
213,98,17661,1,0,0:0:0:0:
213,98,17772,1,8,0:0:0:0:
208,71,17827,1,0,0:0:0:0:
213,88,17883,1,8,0:0:0:0:
214,88,17994,1,0,0:0:0:0:
214,88,18105,1,8,0:0:0:0:
209,88,18216,1,8,0:0:0:0:
214,88,18327,1,0,0:0:0:0:
210,88,18549,1,8,0:0:0:0:
210,88,18772,1,0,0:0:0:0:
213,88,18883,1,0,0:0:0:0:
214,88,18994,1,8,0:0:0:0:
213,69,19105,1,0,0:0:0:0:
209,69,19161,1,8,0:0:0:0:
218,77,19216,1,0,0:0:0:0:
203,90,19327,1,0,0:0:0:0:
203,90,19438,1,8,0:0:0:0:
202,90,19549,1,0,0:0:0:0:
202,90,19661,1,8,0:0:0:0:
216,94,19716,1,8,0:0:0:0:
202,90,19772,1,0,0:0:0:0:
203,90,19883,1,8,0:0:0:0:
202,90,19994,1,8,0:0:0:0:
202,90,20105,1,0,0:0:0:0:
203,90,20327,1,8,0:0:0:0:
196,76,20383,1,0,0:0:0:0:
203,90,20438,1,8,0:0:0:0:
211,65,20549,1,0,0:0:0:0:
202,90,20661,1,0,0:0:0:0:
202,90,20772,1,8,0:0:0:0:
210,87,20883,1,8,0:0:0:0:
209,88,20938,1,8,0:0:0:0:
202,90,20994,1,0,0:0:0:0:
202,90,21105,1,0,0:0:0:0:
203,90,21216,1,8,0:0:0:0:
206,80,21438,1,0,0:0:0:0:
202,90,21549,1,0,0:0:0:0:
202,90,21661,1,8,0:0:0:0:
202,90,21772,1,8,0:0:0:0:
203,90,21883,1,0,0:0:0:0:
262,82,22105,1,8,0:0:0:0:
221,93,22327,1,8,0:0:0:0:
221,93,22438,1,0,0:0:0:0:
219,93,22549,1,8,0:0:0:0:
229,68,22605,1,0,0:0:0:0:
219,93,22661,1,8,0:0:0:0:
250,93,22772,1,0,0:0:0:0:
209,92,22883,1,8,0:0:0:0:
204,93,22994,1,8,0:0:0:0:
199,90,23105,1,0,0:0:0:0:
210,89,23161,1,0,0:0:0:0:
199,93,23216,1,0,0:0:0:0:
199,90,23327,1,0,0:0:0:0:
199,90,23438,1,8,0:0:0:0:
249,97,23549,1,8,0:0:0:0:
199,90,23661,1,0,0:0:0:0:
188,91,23883,1,8,0:0:0:0:
215,79,23994,1,0,0:0:0:0:
188,91,24105,1,8,0:0:0:0:
207,81,24161,1,8,0:0:0:0:
181,93,24216,1,0,0:0:0:0:
188,91,24327,1,8,0:0:0:0:
181,93,24438,1,8,0:0:0:0:
213,84,24549,1,0,0:0:0:0:
213,98,24661,1,8,0:0:0:0:
215,57,24716,1,0,0:0:0:0:
213,98,24772,1,8,0:0:0:0:
213,98,24883,1,0,0:0:0:0:
213,88,24994,1,8,0:0:0:0:
214,88,25105,1,0,0:0:0:0:
214,88,25216,1,8,0:0:0:0:
209,88,25327,1,8,0:0:0:0:
214,88,25438,1,0,0:0:0:0:
210,88,25661,1,8,0:0:0:0:
210,88,25772,1,0,0:0:0:0:
203,90,25827,1,0,0:0:0:0:
210,88,25883,1,8,0:0:0:0:
213,88,25994,1,0,0:0:0:0:
214,88,26105,1,8,0:0:0:0:
214,88,26216,1,8,0:0:0:0:
225,73,26272,1,8,0:0:0:0:
218,72,26327,1,0,0:0:0:0:
223,75,26383,1,0,0:0:0:0:
203,90,26438,1,8,0:0:0:0:
203,90,26549,1,0,0:0:0:0:
202,90,26661,1,8,0:0:0:0:
216,94,26716,1,0,0:0:0:0:
202,90,26772,1,8,0:0:0:0:
202,90,26883,1,0,0:0:0:0:
203,90,26994,1,8,0:0:0:0:
202,90,27105,1,8,0:0:0:0:
202,90,27216,1,0,0:0:0:0:
203,90,27438,1,8,0:0:0:0:
203,90,27549,1,0,0:0:0:0:
202,90,27772,1,0,0:0:0:0:
202,90,27883,1,8,0:0:0:0:
197,79,27994,1,0,0:0:0:0:
219,72,28216,1,8,0:0:0:0:
203,90,28327,1,8,0:0:0:0:
219,72,28438,1,0,0:0:0:0:
206,80,28549,1,12,0:0:0:0:
202,90,28772,1,0,0:0:0:0:
202,90,28883,1,8,0:0:0:0:
203,90,28994,1,4,0:0:0:0:
252,180,29216,1,0,0:0:0:0:
252,180,29438,1,8,0:0:0:0:
196,113,29549,1,8,0:0:0:0:
252,180,29661,1,0,0:0:0:0:
229,85,29772,1,0,0:0:0:0:
252,180,29883,1,8,0:0:0:0:
252,180,29938,1,8,0:0:0:0:
252,180,30105,1,0,0:0:0:0:
214,104,30216,1,8,0:0:0:0:
252,180,30327,1,0,0:0:0:0:
213,112,30549,1,0,0:0:0:0:
209,112,30772,1,8,0:0:0:0:
231,104,30883,1,0,0:0:0:0:
209,112,30994,1,8,0:0:0:0:
209,112,31216,1,0,0:0:0:0:
220,119,31438,1,8,0:0:0:0:
215,121,31512,1,0,0:0:0:0:
215,121,31587,1,0,0:0:0:0:
215,121,31661,1,8,0:0:0:0:
208,93,31883,1,0,0:0:0:0:
207,93,31957,1,0,0:0:0:0:
206,98,32031,1,0,0:0:0:0:
207,93,32105,1,0,0:0:0:0:
201,98,32327,1,0,0:0:0:0:
201,98,32438,1,0,0:0:0:0:
201,98,32549,1,12,0:0:0:0:
197,98,32772,1,0,0:0:0:0:
199,102,32883,1,8,0:0:0:0:
192,96,32994,1,0,0:0:0:0:
199,102,33105,1,8,0:0:0:0:
201,98,33216,1,0,0:0:0:0:
201,98,33327,1,0,0:0:0:0:
201,98,33383,1,0,0:0:0:0:
201,98,33438,1,8,0:0:0:0:
193,109,33549,1,8,0:0:0:0:
193,109,33661,1,0,0:0:0:0:
193,109,33772,1,8,0:0:0:0:
193,109,33883,1,8,0:0:0:0:
181,109,34105,1,0,0:0:0:0:
180,109,34216,1,0,0:0:0:0:
181,109,34327,1,12,0:0:0:0:
180,109,34549,1,0,0:0:0:0:
193,109,34661,1,8,0:0:0:0:
193,109,34772,1,0,0:0:0:0:
193,109,34883,1,8,0:0:0:0:
188,111,34994,1,0,0:0:0:0:
188,111,35105,1,0,0:0:0:0:
182,79,35161,1,0,0:0:0:0:
188,111,35216,1,8,0:0:0:0:
188,111,35327,1,8,0:0:0:0:
188,111,35438,1,0,0:0:0:0:
180,109,35549,1,8,0:0:0:0:
193,109,35661,1,8,0:0:0:0:
184,111,35772,1,8,0:0:0:0:
184,111,35883,1,0,0:0:0:0:
188,111,35994,1,8,0:0:0:0:
188,111,36105,1,4,0:0:0:0:
215,126,36327,1,0,0:0:0:0:
215,126,36438,1,8,0:0:0:0:
215,126,36549,1,0,0:0:0:0:
201,17,36661,1,0,0:0:0:0:
215,126,36772,1,8,0:0:0:0:
196,93,36883,1,0,0:0:0:0:
208,123,36994,1,8,0:0:0:0:
226,126,37068,1,0,0:0:0:0:
226,126,37142,1,0,0:0:0:0:
208,123,37216,1,8,0:0:0:0:
226,127,37327,1,8,0:0:0:0:
225,133,37438,1,0,0:0:0:0:
225,133,37661,1,8,0:0:0:0:
226,133,37883,1,8,0:0:0:0:
198,94,37994,1,8,0:0:0:0:
218,137,38105,1,0,0:0:0:0:
218,137,38216,1,8,0:0:0:0:
218,137,38327,1,0,0:0:0:0:
199,114,38438,1,0,0:0:0:0:
225,133,38549,1,8,0:0:0:0:
198,94,38661,1,8,0:0:0:0:
226,133,38772,1,0,0:0:0:0:
226,133,38846,1,0,0:0:0:0:
226,133,38920,1,0,0:0:0:0:
218,137,38994,1,8,0:0:0:0:
218,137,39105,1,0,0:0:0:0:
218,137,39216,1,8,0:0:0:0:
218,137,39438,1,0,0:0:0:0:
214,137,39661,1,8,0:0:0:0:
211,138,39772,1,8,0:0:0:0:
211,138,39883,1,8,0:0:0:0:
211,138,39994,1,0,0:0:0:0:
211,138,40105,1,0,0:0:0:0:
211,138,40216,1,0,0:0:0:0:
211,138,40327,1,8,0:0:0:0:
211,138,40438,1,8,0:0:0:0:
214,137,40549,1,8,0:0:0:0:
214,137,40661,1,0,0:0:0:0:
211,138,40772,1,0,0:0:0:0:
211,138,40883,1,0,0:0:0:0:
211,138,40994,1,8,0:0:0:0:
211,138,41105,1,8,0:0:0:0:
211,138,41216,1,0,0:0:0:0:
211,138,41327,1,0,0:0:0:0:
211,138,41438,1,8,0:0:0:0:
214,137,41549,1,8,0:0:0:0:
198,138,41772,1,8,0:0:0:0:
198,138,41994,1,8,0:0:0:0:
198,138,42216,1,8,0:0:0:0:
197,138,42327,1,0,0:0:0:0:
211,163,42549,1,8,0:0:0:0:
211,163,43216,5,12,0:0:0:0:
213,168,43327,1,0,0:0:0:0:
208,169,43383,1,0,0:0:0:0:
211,163,43438,1,8,0:0:0:0:
211,163,43549,1,0,0:0:0:0:
223,130,43605,1,0,0:0:0:0:
201,154,43661,1,8,0:0:0:0:
201,154,43716,1,0,0:0:0:0:
192,147,43772,1,0,0:0:0:0:
206,148,43883,1,8,0:0:0:0:
201,154,43938,1,0,0:0:0:0:
206,148,43994,1,8,0:0:0:0:
202,147,44105,1,0,0:0:0:0:
202,147,44216,1,8,0:0:0:0:
202,147,44272,1,8,0:0:0:0:
223,130,44327,1,0,0:0:0:0:
202,147,44383,1,0,0:0:0:0:
202,147,44438,1,0,0:0:0:0:
203,146,44494,1,0,0:0:0:0:
202,147,44549,1,8,0:0:0:0:
202,147,44661,1,0,0:0:0:0:
202,147,44772,1,8,0:0:0:0:
218,103,44827,1,0,0:0:0:0:
206,148,44883,1,8,0:0:0:0:
203,146,44938,1,8,0:0:0:0:
206,138,44994,1,0,0:0:0:0:
208,139,45105,1,8,0:0:0:0:
208,139,45161,1,8,0:0:0:0:
208,139,45216,1,8,0:0:0:0:
204,137,45272,1,8,0:0:0:0:
205,139,45327,1,0,0:0:0:0:
204,137,45383,1,0,0:0:0:0:
204,137,45438,1,8,0:0:0:0:
222,137,45549,1,0,0:0:0:0:
205,139,45661,1,8,0:0:0:0:
202,147,45716,1,0,0:0:0:0:
202,147,45772,1,8,0:0:0:0:
214,142,45883,1,0,0:0:0:0:
214,142,45994,1,8,0:0:0:0:
215,147,46049,1,8,0:0:0:0:
214,142,46105,1,0,0:0:0:0:
214,142,46161,1,0,0:0:0:0:
215,147,46216,1,0,0:0:0:0:
214,142,46272,1,0,0:0:0:0:
214,142,46327,1,8,0:0:0:0:
215,147,46438,1,0,0:0:0:0:
227,97,46494,1,0,0:0:0:0:
205,139,46549,1,8,0:0:0:0:
205,139,46661,1,0,0:0:0:0:
196,138,46772,1,8,0:0:0:0:
236,124,46827,1,0,0:0:0:0:
196,138,46883,1,8,0:0:0:0:
221,101,46938,1,0,0:0:0:0:
213,129,46994,1,8,0:0:0:0:
213,129,47105,1,0,0:0:0:0:
221,101,47216,1,8,0:0:0:0:
224,126,47272,1,0,0:0:0:0:
212,130,47327,1,0,0:0:0:0:
224,126,47438,1,8,0:0:0:0:
224,125,47494,1,0,0:0:0:0:
213,120,47549,1,8,0:0:0:0:
223,125,47605,1,8,0:0:0:0:
223,125,47661,1,0,0:0:0:0:
213,120,47772,1,0,0:0:0:0:
213,120,47883,1,8,0:0:0:0:
206,120,47938,1,8,0:0:0:0:
213,120,47994,1,8,0:0:0:0:
213,120,48049,1,0,0:0:0:0:
206,120,48105,1,8,0:0:0:0:
252,111,48161,1,8,0:0:0:0:
206,120,48216,1,0,0:0:0:0:
212,130,48272,1,0,0:0:0:0:
205,120,48327,1,8,0:0:0:0:
231,119,48438,1,0,0:0:0:0:
237,118,48549,1,8,0:0:0:0:
223,125,48605,1,0,0:0:0:0:
231,120,48661,1,0,0:0:0:0:
231,120,48772,1,8,0:0:0:0:
252,111,48827,1,8,0:0:0:0:
231,120,48883,1,0,0:0:0:0:
227,120,48994,1,8,0:0:0:0:
227,120,49049,1,0,0:0:0:0:
227,120,49105,1,0,0:0:0:0:
225,121,49216,1,8,0:0:0:0:
225,122,49272,1,8,0:0:0:0:
225,122,49327,1,8,0:0:0:0:
231,119,49438,1,0,0:0:0:0:
223,127,49549,1,0,0:0:0:0:
230,117,49605,1,0,0:0:0:0:
223,125,49661,1,8,0:0:0:0:
231,120,49772,1,0,0:0:0:0:
231,120,49883,1,8,0:0:0:0:
227,120,49938,1,8,0:0:0:0:
227,120,49994,1,8,0:0:0:0:
229,103,50049,1,8,0:0:0:0:
227,120,50105,1,0,0:0:0:0:
230,116,50161,1,0,0:0:0:0:
228,104,50216,1,8,0:0:0:0:
230,116,50327,1,4,0:0:0:0:
228,104,50438,1,8,0:0:0:0:
223,108,50494,1,0,0:0:0:0:
228,104,50549,1,8,0:0:0:0:
223,108,50661,1,0,0:0:0:0:
223,108,50716,1,0,0:0:0:0:
223,108,50772,1,8,0:0:0:0:
231,120,50883,1,0,0:0:0:0:
227,120,50994,1,8,0:0:0:0:
230,116,51049,1,0,0:0:0:0:
227,120,51105,1,8,0:0:0:0:
223,118,51216,1,0,0:0:0:0:
223,118,51327,1,8,0:0:0:0:
224,119,51383,1,8,0:0:0:0:
203,94,51438,1,0,0:0:0:0:
224,119,51494,1,0,0:0:0:0:
224,119,51549,1,0,0:0:0:0:
236,104,51605,1,0,0:0:0:0:
224,119,51661,1,8,0:0:0:0:
223,108,51772,1,0,0:0:0:0:
223,108,51883,1,8,0:0:0:0:
199,120,51938,1,0,0:0:0:0:
236,104,51994,1,8,0:0:0:0:
243,124,52049,1,8,0:0:0:0:
217,120,52105,1,0,0:0:0:0:
223,118,52216,1,8,0:0:0:0:
223,118,52272,1,8,0:0:0:0:
214,115,52327,1,8,0:0:0:0:
223,118,52383,1,8,0:0:0:0:
217,120,52438,1,0,0:0:0:0:
214,115,52494,1,0,0:0:0:0:
210,115,52549,1,8,0:0:0:0:
210,115,52661,1,0,0:0:0:0:
210,115,52772,1,8,0:0:0:0:
211,116,52883,1,8,0:0:0:0:
211,116,52938,1,8,0:0:0:0:
198,97,52994,1,0,0:0:0:0:
213,97,53105,1,8,0:0:0:0:
213,96,53161,1,8,0:0:0:0:
212,97,53216,1,8,0:0:0:0:
208,94,53272,1,8,0:0:0:0:
202,91,53327,1,0,0:0:0:0:
203,91,53383,1,0,0:0:0:0:
202,91,53438,1,8,0:0:0:0:
199,90,53549,1,0,0:0:0:0:
196,89,53605,1,0,0:0:0:0:
199,90,53661,1,8,0:0:0:0:
182,94,53772,1,0,0:0:0:0:
182,94,53883,1,8,0:0:0:0:
202,76,53938,1,0,0:0:0:0:
216,95,53994,1,0,0:0:0:0:
190,104,54049,1,0,0:0:0:0:
190,104,54105,1,8,0:0:0:0:
190,105,54216,1,0,0:0:0:0:
186,104,54327,1,8,0:0:0:0:
194,29,54383,1,8,0:0:0:0:
203,73,54438,1,0,0:0:0:0:
182,104,54549,1,8,0:0:0:0:
182,104,54661,1,0,0:0:0:0:
174,106,54716,1,8,0:0:0:0:
182,104,54772,1,0,0:0:0:0:
172,105,54883,1,0,0:0:0:0:
171,104,54994,1,8,0:0:0:0:
167,103,55049,1,0,0:0:0:0:
165,102,55105,1,0,0:0:0:0:
248,74,55161,1,0,0:0:0:0:
163,101,55216,1,8,0:0:0:0:
207,83,55272,1,8,0:0:0:0:
178,98,55327,1,0,0:0:0:0:
163,101,55383,1,0,0:0:0:0:
163,100,55438,1,8,0:0:0:0:
222,60,55549,1,0,0:0:0:0:
169,88,55661,1,8,0:0:0:0:
194,23,55716,1,0,0:0:0:0:
189,96,55772,1,0,0:0:0:0:
169,76,55883,1,8,0:0:0:0:
189,96,55938,1,8,0:0:0:0:
170,91,55994,1,0,0:0:0:0:
169,76,56049,1,0,0:0:0:0:
170,91,56105,1,8,0:0:0:0:
170,91,56216,1,0,0:0:0:0:
170,91,56327,1,8,0:0:0:0:
189,65,56383,1,8,0:0:0:0:
189,65,56438,1,0,0:0:0:0:
155,88,56549,1,8,0:0:0:0:
178,73,56661,1,0,0:0:0:0:
209,72,56716,1,0,0:0:0:0:
178,75,56772,1,8,0:0:0:0:
178,75,56883,1,0,0:0:0:0:
178,75,56994,1,8,0:0:0:0:
174,82,57049,1,8,0:0:0:0:
178,75,57105,1,0,0:0:0:0:
178,75,57161,1,0,0:0:0:0:
178,75,57216,1,8,0:0:0:0:
208,65,57272,1,8,0:0:0:0:
170,83,57327,1,0,0:0:0:0:
196,77,57438,1,12,0:0:0:0:
244,193,57882,1,0,0:0:0:0:
245,189,58326,1,8,0:0:0:0:
244,193,58771,1,0,0:0:0:0:
245,189,58993,1,8,0:0:0:0:
233,192,59882,1,8,0:0:0:0:
245,189,60104,1,0,0:0:0:0:
233,192,60549,1,8,0:0:0:0:
233,192,60771,1,0,0:0:0:0:
234,188,60993,1,0,0:0:0:0:
233,192,61438,1,8,0:0:0:0:
234,188,61882,1,0,0:0:0:0:
233,192,62326,1,8,0:0:0:0:
224,192,62549,1,0,0:0:0:0:
237,200,62623,1,0,0:0:0:0:
237,200,62697,1,0,0:0:0:0:
234,188,62771,1,8,0:0:0:0:
223,194,62882,1,8,0:0:0:0:
223,194,63104,1,8,0:0:0:0:
223,194,63326,1,8,0:0:0:0:
215,170,63548,1,8,0:0:0:0:
215,170,63659,1,0,0:0:0:0:
213,174,63882,1,12,0:0:0:0:
233,182,64215,1,8,0:0:0:0:
233,182,64326,1,8,0:0:0:0:
233,182,64437,1,8,0:0:0:0:
212,183,64548,1,4,0:0:0:0:
227,143,64659,1,0,0:0:0:0:
212,183,64715,1,0,0:0:0:0:
212,183,64771,1,8,0:0:0:0:
212,183,64882,1,0,0:0:0:0:
212,183,64993,1,8,0:0:0:0:
212,183,65048,1,8,0:0:0:0:
205,178,65104,1,8,0:0:0:0:
189,47,65159,1,8,0:0:0:0:
205,178,65215,1,0,0:0:0:0:
199,178,65326,1,8,0:0:0:0:
199,178,65382,1,0,0:0:0:0:
191,181,65437,1,0,0:0:0:0:
198,178,65548,1,8,0:0:0:0:
197,78,65604,1,0,0:0:0:0:
192,181,65659,1,0,0:0:0:0:
192,181,65771,1,8,0:0:0:0:
191,181,65826,1,0,0:0:0:0:
192,181,65882,1,8,0:0:0:0:
192,181,65937,1,8,0:0:0:0:
256,90,65993,1,0,0:0:0:0:
249,61,66048,1,0,0:0:0:0:
192,181,66104,1,8,0:0:0:0:
192,160,66215,1,0,0:0:0:0:
232,81,66326,1,8,0:0:0:0:
230,80,66437,1,0,0:0:0:0:
192,160,66493,1,0,0:0:0:0:
230,79,66548,1,8,0:0:0:0:
222,73,66659,1,0,0:0:0:0:
232,81,66715,1,0,0:0:0:0:
222,73,66771,1,8,0:0:0:0:
242,90,66826,1,0,0:0:0:0:
222,73,66882,1,8,0:0:0:0:
222,73,66993,1,0,0:0:0:0:
222,73,67104,1,8,0:0:0:0:
222,73,67159,1,0,0:0:0:0:
222,73,67215,1,0,0:0:0:0:
222,73,67326,1,8,0:0:0:0:
222,73,67382,1,0,0:0:0:0:
214,71,67437,1,0,0:0:0:0:
214,71,67548,1,8,0:0:0:0:
214,71,67659,1,0,0:0:0:0:
214,71,67715,1,8,0:0:0:0:
214,71,67771,1,0,0:0:0:0:
199,81,67826,1,0,0:0:0:0:
214,71,67882,1,8,0:0:0:0:
199,81,67937,1,8,0:0:0:0:
199,80,67993,1,0,0:0:0:0:
199,80,68104,1,8,0:0:0:0:
297,58,68215,1,0,0:0:0:0:
212,183,68271,1,0,0:0:0:0:
212,183,68326,1,8,0:0:0:0:
212,183,68437,1,0,0:0:0:0:
212,183,68548,1,8,0:0:0:0:
212,183,68604,1,8,0:0:0:0:
205,178,68659,1,8,0:0:0:0:
189,47,68715,1,8,0:0:0:0:
205,178,68771,1,0,0:0:0:0:
199,178,68882,1,8,0:0:0:0:
199,178,68937,1,0,0:0:0:0:
191,181,68993,1,0,0:0:0:0:
198,178,69104,1,8,0:0:0:0:
197,78,69159,1,0,0:0:0:0:
192,181,69215,1,0,0:0:0:0:
192,181,69326,1,8,0:0:0:0:
191,181,69382,1,0,0:0:0:0:
192,181,69437,1,8,0:0:0:0:
192,181,69493,1,8,0:0:0:0:
256,90,69548,1,0,0:0:0:0:
249,61,69604,1,0,0:0:0:0:
192,181,69659,1,8,0:0:0:0:
192,160,69771,1,0,0:0:0:0:
232,81,69882,1,8,0:0:0:0:
192,160,69937,1,0,0:0:0:0:
200,66,69993,1,0,0:0:0:0:
206,46,70048,1,0,0:0:0:0:
230,79,70104,1,8,0:0:0:0:
230,79,70159,1,0,0:0:0:0:
222,73,70215,1,8,0:0:0:0:
232,81,70271,1,8,0:0:0:0:
222,73,70326,1,0,0:0:0:0:
242,90,70382,1,8,0:0:0:0:
222,73,70437,1,0,0:0:0:0:
131,196,70493,1,0,0:0:0:0:
219,61,70548,1,8,0:0:0:0:
222,73,70659,1,8,0:0:0:0:
222,73,70715,1,8,0:0:0:0:
222,73,70771,1,0,0:0:0:0:
222,73,70882,1,0,0:0:0:0:
214,71,70993,1,8,0:0:0:0:
214,71,71104,1,0,0:0:0:0:
233,59,71159,1,0,0:0:0:0:
214,71,71215,1,8,0:0:0:0:
214,71,71326,1,0,0:0:0:0:
214,71,71437,1,8,0:0:0:0:
199,81,71493,1,0,0:0:0:0:
216,68,71548,1,0,0:0:0:0:
216,68,71604,1,0,0:0:0:0:
212,183,71659,1,8,0:0:0:0:
227,143,71770,1,0,0:0:0:0:
212,183,71826,1,0,0:0:0:0:
212,183,71882,1,8,0:0:0:0:
212,183,71993,1,0,0:0:0:0:
212,183,72104,1,8,0:0:0:0:
212,183,72159,1,8,0:0:0:0:
205,178,72215,1,8,0:0:0:0:
189,47,72270,1,8,0:0:0:0:
205,178,72326,1,0,0:0:0:0:
199,178,72437,1,8,0:0:0:0:
199,178,72493,1,0,0:0:0:0:
191,181,72548,1,0,0:0:0:0:
198,178,72659,1,8,0:0:0:0:
197,78,72715,1,0,0:0:0:0:
192,181,72770,1,0,0:0:0:0:
192,181,72882,1,8,0:0:0:0:
191,181,72937,1,0,0:0:0:0:
192,181,72993,1,8,0:0:0:0:
192,181,73048,1,8,0:0:0:0:
256,90,73104,1,0,0:0:0:0:
249,61,73159,1,0,0:0:0:0:
192,181,73215,1,8,0:0:0:0:
192,160,73326,1,0,0:0:0:0:
232,81,73437,1,8,0:0:0:0:
230,80,73548,1,0,0:0:0:0:
192,160,73604,1,0,0:0:0:0:
230,79,73659,1,8,0:0:0:0:
222,73,73770,1,0,0:0:0:0:
232,81,73826,1,0,0:0:0:0:
222,73,73882,1,8,0:0:0:0:
242,90,73937,1,0,0:0:0:0:
222,73,73993,1,8,0:0:0:0:
222,73,74104,1,0,0:0:0:0:
222,73,74215,1,8,0:0:0:0:
222,73,74270,1,0,0:0:0:0:
222,73,74326,1,0,0:0:0:0:
222,73,74437,1,8,0:0:0:0:
222,73,74493,1,0,0:0:0:0:
214,71,74548,1,0,0:0:0:0:
214,71,74659,1,8,0:0:0:0:
214,71,74770,1,0,0:0:0:0:
214,71,74826,1,8,0:0:0:0:
214,71,74882,1,0,0:0:0:0:
199,81,74937,1,0,0:0:0:0:
214,71,74993,1,8,0:0:0:0:
199,81,75048,1,8,0:0:0:0:
199,80,75104,1,0,0:0:0:0:
199,80,75215,1,8,0:0:0:0:
297,58,75326,1,0,0:0:0:0:
212,183,75382,1,0,0:0:0:0:
212,183,75437,1,8,0:0:0:0:
212,183,75548,1,0,0:0:0:0:
212,183,75659,1,8,0:0:0:0:
212,183,75715,1,0,0:0:0:0:
205,178,75770,1,0,0:0:0:0:
189,47,75826,1,0,0:0:0:0:
205,178,75882,1,8,0:0:0:0:
234,94,75937,1,0,0:0:0:0:
199,178,75993,1,8,0:0:0:0:
199,178,76048,1,8,0:0:0:0:
191,181,76104,1,0,0:0:0:0:
198,178,76215,1,0,0:0:0:0:
192,181,76326,1,8,0:0:0:0:
252,65,76382,1,8,0:0:0:0:
192,181,76437,1,0,0:0:0:0:
191,181,76493,1,0,0:0:0:0:
252,65,76548,1,8,0:0:0:0:
252,65,76604,1,0,0:0:0:0:
256,90,76659,1,0,0:0:0:0:
249,61,76715,1,0,0:0:0:0:
192,181,76770,1,8,0:0:0:0:
234,94,76826,1,8,0:0:0:0:
192,160,76882,1,0,0:0:0:0:
232,81,76993,1,12,0:0:0:0:
234,77,77289,1,0,0:0:0:0:
234,77,77437,1,8,0:0:0:0:
234,77,77585,1,0,0:0:0:0:
234,77,77733,1,0,0:0:0:0:
232,81,77882,1,12,0:0:0:0:
234,77,78178,1,0,0:0:0:0:
234,77,78326,1,8,0:0:0:0:
234,77,78474,1,8,0:0:0:0:
234,77,78622,1,8,0:0:0:0:
232,81,78770,1,0,0:0:0:0:
245,104,78919,1,8,0:0:0:0:
245,104,79067,1,0,0:0:0:0:
245,104,79215,1,8,0:0:0:0:
226,99,79363,1,8,0:0:0:0:
245,104,79511,1,0,0:0:0:0:
245,104,79659,1,8,0:0:0:0:
245,104,79956,1,8,0:0:0:0:
265,104,80104,1,0,0:0:0:0:
258,107,80400,1,0,0:0:0:0:
258,107,80548,1,8,0:0:0:0:
258,107,80845,1,0,0:0:0:0:
258,107,80993,1,0,0:0:0:0:
258,107,81289,1,8,0:0:0:0:
258,107,81437,1,8,0:0:0:0:
258,107,81585,1,0,0:0:0:0:
258,107,81733,1,0,0:0:0:0:
258,107,81882,1,8,0:0:0:0:
254,125,82178,1,0,0:0:0:0:
254,125,82326,1,8,0:0:0:0:
254,125,82474,1,8,0:0:0:0:
254,125,82622,1,0,0:0:0:0:
254,125,82770,1,8,0:0:0:0:
254,125,82919,1,0,0:0:0:0:
254,125,83067,1,0,0:0:0:0:
245,111,83215,1,8,0:0:0:0:
254,109,83511,1,8,0:0:0:0:
254,109,83659,1,0,0:0:0:0:
254,109,84104,1,0,0:0:0:0:
254,109,84215,1,8,0:0:0:0:
254,109,84326,1,0,0:0:0:0:
254,109,84437,1,8,0:0:0:0:
254,109,84548,1,0,0:0:0:0:
254,109,84659,1,8,0:0:0:0:
254,109,84770,1,0,0:0:0:0:
254,109,84882,1,8,0:0:0:0:
254,109,84993,1,0,0:0:0:0:
254,109,85437,1,8,0:0:0:0:
249,161,85882,1,12,0:0:0:0:
255,179,86104,1,8,0:0:0:0:
256,160,86215,1,8,0:0:0:0:
250,171,86326,1,0,0:0:0:0:
250,171,86437,1,0,0:0:0:0:
250,171,86548,1,8,0:0:0:0:
248,170,86659,1,0,0:0:0:0:
245,119,86715,1,0,0:0:0:0:
250,171,86770,1,8,0:0:0:0:
250,171,86882,1,0,0:0:0:0:
250,171,86993,1,8,0:0:0:0:
248,170,87215,1,0,0:0:0:0:
250,171,87326,1,0,0:0:0:0:
250,171,87437,1,8,0:0:0:0:
250,171,87548,1,8,0:0:0:0:
248,170,87659,1,0,0:0:0:0:
250,171,87882,1,8,0:0:0:0:
250,171,87993,1,0,0:0:0:0:
248,170,88104,1,0,0:0:0:0:
250,171,88215,1,0,0:0:0:0:
250,171,88326,1,8,0:0:0:0:
263,163,88382,1,8,0:0:0:0:
250,171,88437,1,0,0:0:0:0:
242,131,88548,1,8,0:0:0:0:
248,170,88659,1,0,0:0:0:0:
250,171,88770,1,8,0:0:0:0:
237,146,88826,1,0,0:0:0:0:
250,171,88882,1,0,0:0:0:0:
250,171,88993,1,8,0:0:0:0:
242,131,89048,1,8,0:0:0:0:
248,170,89104,1,0,0:0:0:0:
242,131,89159,1,0,0:0:0:0:
242,131,89215,1,8,0:0:0:0:
250,171,89326,1,0,0:0:0:0:
250,171,89437,1,8,0:0:0:0:
248,170,89659,1,8,0:0:0:0:
250,171,89770,1,8,0:0:0:0:
250,171,89882,1,0,0:0:0:0:
250,171,89993,1,0,0:0:0:0:
248,170,90104,1,8,0:0:0:0:
260,143,90159,1,8,0:0:0:0:
250,171,90215,1,0,0:0:0:0:
250,171,90326,1,8,0:0:0:0:
250,171,90437,1,0,0:0:0:0:
248,170,90548,1,8,0:0:0:0:
248,170,90659,1,8,0:0:0:0:
250,171,90770,1,0,0:0:0:0:
218,113,90826,1,0,0:0:0:0:
250,171,90882,1,0,0:0:0:0:
268,151,90993,1,8,0:0:0:0:
248,170,91104,1,0,0:0:0:0:
250,171,91215,1,8,0:0:0:0:
250,171,91437,1,8,0:0:0:0:
248,170,91548,1,0,0:0:0:0:
250,171,91770,1,0,0:0:0:0:
250,171,91882,1,8,0:0:0:0:
250,171,91993,1,0,0:0:0:0:
250,171,92215,1,8,0:0:0:0:
244,157,92270,1,8,0:0:0:0:
250,171,92326,1,8,0:0:0:0:
244,157,92382,1,8,0:0:0:0:
250,171,92437,1,8,0:0:0:0:
248,170,92548,1,0,0:0:0:0:
250,171,92659,1,8,0:0:0:0:
250,171,92770,1,0,0:0:0:0:
250,171,92882,1,8,0:0:0:0:
203,90,92993,1,4,0:0:0:0:
252,180,93215,1,0,0:0:0:0:
252,180,93437,1,8,0:0:0:0:
196,113,93548,1,8,0:0:0:0:
252,180,93659,1,0,0:0:0:0:
200,67,93770,1,0,0:0:0:0:
252,180,93882,1,8,0:0:0:0:
252,180,93937,1,8,0:0:0:0:
252,180,94104,1,0,0:0:0:0:
214,104,94215,1,8,0:0:0:0:
252,180,94326,1,0,0:0:0:0:
213,112,94548,1,0,0:0:0:0:
209,112,94770,1,8,0:0:0:0:
231,104,94882,1,0,0:0:0:0:
209,112,94993,1,8,0:0:0:0:
209,112,95215,1,0,0:0:0:0:
220,119,95437,1,8,0:0:0:0:
215,121,95511,1,0,0:0:0:0:
215,121,95585,1,0,0:0:0:0:
215,121,95659,1,8,0:0:0:0:
208,93,95882,1,0,0:0:0:0:
207,93,95956,1,0,0:0:0:0:
206,98,96030,1,0,0:0:0:0:
207,93,96104,1,0,0:0:0:0:
201,98,96326,1,0,0:0:0:0:
201,98,96437,1,0,0:0:0:0:
201,98,96548,1,12,0:0:0:0:
197,98,96770,1,0,0:0:0:0:
199,102,96882,1,8,0:0:0:0:
192,96,96993,1,0,0:0:0:0:
199,102,97104,1,8,0:0:0:0:
201,98,97215,1,0,0:0:0:0:
201,98,97326,1,0,0:0:0:0:
201,98,97382,1,0,0:0:0:0:
201,98,97437,1,8,0:0:0:0:
193,109,97548,1,8,0:0:0:0:
193,109,97659,1,0,0:0:0:0:
193,109,97770,1,8,0:0:0:0:
193,109,97882,1,8,0:0:0:0:
181,109,98104,1,0,0:0:0:0:
180,109,98215,1,0,0:0:0:0:
181,109,98326,1,12,0:0:0:0:
180,109,98548,1,0,0:0:0:0:
193,109,98659,1,8,0:0:0:0:
193,109,98770,1,0,0:0:0:0:
193,109,98882,1,8,0:0:0:0:
188,111,98993,1,0,0:0:0:0:
188,111,99104,1,0,0:0:0:0:
182,79,99159,1,0,0:0:0:0:
188,111,99215,1,8,0:0:0:0:
188,111,99326,1,8,0:0:0:0:
188,111,99437,1,0,0:0:0:0:
180,109,99548,1,8,0:0:0:0:
193,109,99659,1,8,0:0:0:0:
184,111,99770,1,8,0:0:0:0:
184,111,99882,1,0,0:0:0:0:
188,111,99993,1,8,0:0:0:0:
188,111,100104,1,4,0:0:0:0:
215,126,100326,1,0,0:0:0:0:
215,126,100437,1,8,0:0:0:0:
215,126,100548,1,0,0:0:0:0:
201,17,100659,1,0,0:0:0:0:
215,126,100770,1,8,0:0:0:0:
196,93,100882,1,0,0:0:0:0:
208,123,100993,1,8,0:0:0:0:
226,126,101067,1,0,0:0:0:0:
226,126,101141,1,0,0:0:0:0:
208,123,101215,1,8,0:0:0:0:
226,127,101326,1,8,0:0:0:0:
225,133,101437,1,0,0:0:0:0:
225,133,101659,1,8,0:0:0:0:
226,133,101882,1,8,0:0:0:0:
198,94,101993,1,8,0:0:0:0:
218,137,102104,1,0,0:0:0:0:
218,137,102215,1,8,0:0:0:0:
218,137,102326,1,0,0:0:0:0:
199,114,102437,1,0,0:0:0:0:
225,133,102548,1,8,0:0:0:0:
198,94,102659,1,8,0:0:0:0:
226,133,102770,1,0,0:0:0:0:
226,133,102845,1,0,0:0:0:0:
226,133,102919,1,0,0:0:0:0:
218,137,102993,1,8,0:0:0:0:
218,137,103104,1,0,0:0:0:0:
218,137,103215,1,8,0:0:0:0:
218,137,103437,1,0,0:0:0:0:
214,137,103659,1,8,0:0:0:0:
211,138,103770,1,8,0:0:0:0:
211,138,103882,1,8,0:0:0:0:
211,138,103993,1,0,0:0:0:0:
211,138,104104,1,0,0:0:0:0:
211,138,104215,1,0,0:0:0:0:
211,138,104326,1,8,0:0:0:0:
211,138,104437,1,8,0:0:0:0:
214,137,104548,1,8,0:0:0:0:
214,137,104659,1,0,0:0:0:0:
211,138,104770,1,0,0:0:0:0:
211,138,104882,1,0,0:0:0:0:
211,138,104993,1,8,0:0:0:0:
211,138,105104,1,8,0:0:0:0:
211,138,105215,1,0,0:0:0:0:
211,138,105326,1,0,0:0:0:0:
211,138,105437,1,8,0:0:0:0:
214,137,105548,1,8,0:0:0:0:
198,138,105770,1,8,0:0:0:0:
198,138,105993,1,8,0:0:0:0:
198,138,106215,1,8,0:0:0:0:
197,138,106326,1,0,0:0:0:0:
211,163,106548,1,8,0:0:0:0:
211,163,107215,5,12,0:0:0:0:
215,152,107326,1,0,0:0:0:0:
211,163,107437,1,8,0:0:0:0:
211,163,107548,1,0,0:0:0:0:
223,167,107604,1,0,0:0:0:0:
201,154,107659,1,8,0:0:0:0:
192,147,107770,1,0,0:0:0:0:
206,148,107882,1,8,0:0:0:0:
201,154,107937,1,0,0:0:0:0:
206,148,107993,1,8,0:0:0:0:
202,147,108104,1,0,0:0:0:0:
202,147,108215,1,8,0:0:0:0:
202,147,108270,1,8,0:0:0:0:
202,147,108326,1,0,0:0:0:0:
202,147,108382,1,0,0:0:0:0:
202,147,108437,1,0,0:0:0:0:
203,146,108493,1,0,0:0:0:0:
202,147,108548,1,8,0:0:0:0:
202,147,108659,1,0,0:0:0:0:
202,147,108770,1,8,0:0:0:0:
203,146,108826,1,0,0:0:0:0:
206,148,108882,1,8,0:0:0:0:
227,134,108937,1,8,0:0:0:0:
206,138,108993,1,0,0:0:0:0:
208,139,109104,1,8,0:0:0:0:
208,139,109159,1,8,0:0:0:0:
208,139,109215,1,8,0:0:0:0:
204,137,109270,1,8,0:0:0:0:
205,139,109326,1,0,0:0:0:0:
204,137,109382,1,0,0:0:0:0:
204,137,109437,1,8,0:0:0:0:
205,139,109548,1,0,0:0:0:0:
205,139,109659,1,8,0:0:0:0:
202,147,109770,1,8,0:0:0:0:
202,147,109826,1,8,0:0:0:0:
214,142,109882,1,0,0:0:0:0:
214,142,109993,1,8,0:0:0:0:
215,147,110048,1,8,0:0:0:0:
214,142,110104,1,0,0:0:0:0:
214,142,110159,1,0,0:0:0:0:
215,147,110215,1,0,0:0:0:0:
214,142,110270,1,0,0:0:0:0:
214,142,110326,1,8,0:0:0:0:
215,147,110437,1,0,0:0:0:0:
221,101,110493,1,0,0:0:0:0:
205,139,110548,1,8,0:0:0:0:
212,117,110659,1,0,0:0:0:0:
196,138,110770,1,8,0:0:0:0:
229,88,110826,1,0,0:0:0:0:
196,138,110882,1,0,0:0:0:0:
229,88,110937,1,0,0:0:0:0:
213,129,110993,1,8,0:0:0:0:
225,124,111104,1,0,0:0:0:0:
221,101,111215,1,8,0:0:0:0:
215,96,111270,1,0,0:0:0:0:
212,130,111326,1,8,0:0:0:0:
224,126,111437,1,0,0:0:0:0:
216,124,111493,1,0,0:0:0:0:
213,120,111548,1,8,0:0:0:0:
223,125,111659,1,0,0:0:0:0:
213,120,111770,1,8,0:0:0:0:
213,120,111882,1,8,0:0:0:0:
206,120,111937,1,8,0:0:0:0:
213,120,111993,1,0,0:0:0:0:
213,120,112048,1,0,0:0:0:0:
206,120,112104,1,8,0:0:0:0:
208,40,112159,1,0,0:0:0:0:
206,120,112215,1,0,0:0:0:0:
224,126,112270,1,0,0:0:0:0:
205,120,112326,1,8,0:0:0:0:
231,119,112437,1,0,0:0:0:0:
237,118,112548,1,8,0:0:0:0:
212,130,112604,1,8,0:0:0:0:
231,120,112659,1,0,0:0:0:0:
231,120,112770,1,8,0:0:0:0:
223,125,112826,1,0,0:0:0:0:
231,120,112882,1,0,0:0:0:0:
227,120,112993,1,8,0:0:0:0:
227,120,113048,1,8,0:0:0:0:
227,120,113104,1,0,0:0:0:0:
225,121,113215,1,8,0:0:0:0:
221,128,113270,1,8,0:0:0:0:
225,122,113326,1,8,0:0:0:0:
231,119,113437,1,0,0:0:0:0:
223,127,113548,1,0,0:0:0:0:
230,117,113604,1,0,0:0:0:0:
223,125,113659,1,8,0:0:0:0:
231,120,113770,1,0,0:0:0:0:
231,120,113882,1,8,0:0:0:0:
227,120,113937,1,8,0:0:0:0:
227,120,113993,1,0,0:0:0:0:
229,103,114048,1,0,0:0:0:0:
227,120,114104,1,0,0:0:0:0:
230,116,114159,1,0,0:0:0:0:
228,104,114215,1,8,0:0:0:0:
230,116,114326,1,4,0:0:0:0:
228,104,114437,1,8,0:0:0:0:
223,108,114493,1,0,0:0:0:0:
228,104,114548,1,8,0:0:0:0:
223,108,114659,1,0,0:0:0:0:
223,108,114715,1,0,0:0:0:0:
223,108,114770,1,8,0:0:0:0:
231,120,114882,1,0,0:0:0:0:
227,120,114993,1,8,0:0:0:0:
230,116,115048,1,0,0:0:0:0:
227,120,115104,1,8,0:0:0:0:
223,118,115215,1,0,0:0:0:0:
223,118,115326,1,8,0:0:0:0:
224,119,115382,1,8,0:0:0:0:
203,94,115437,1,8,0:0:0:0:
224,119,115493,1,8,0:0:0:0:
224,119,115548,1,0,0:0:0:0:
236,104,115604,1,0,0:0:0:0:
224,119,115659,1,8,0:0:0:0:
223,108,115770,1,0,0:0:0:0:
223,108,115882,1,8,0:0:0:0:
235,77,115937,1,0,0:0:0:0:
236,104,115993,1,8,0:0:0:0:
199,120,116048,1,8,0:0:0:0:
217,120,116104,1,0,0:0:0:0:
223,118,116215,1,8,0:0:0:0:
223,118,116270,1,8,0:0:0:0:
214,115,116326,1,0,0:0:0:0:
223,118,116382,1,0,0:0:0:0:
217,120,116437,1,0,0:0:0:0:
214,115,116493,1,0,0:0:0:0:
210,115,116548,1,8,0:0:0:0:
210,115,116659,1,0,0:0:0:0:
210,115,116770,1,8,0:0:0:0:
211,116,116826,1,0,0:0:0:0:
211,116,116882,1,8,0:0:0:0:
198,97,116993,1,0,0:0:0:0:
213,97,117104,1,8,0:0:0:0:
213,96,117159,1,8,0:0:0:0:
212,97,117215,1,8,0:0:0:0:
208,94,117270,1,8,0:0:0:0:
202,91,117326,1,0,0:0:0:0:
203,91,117382,1,0,0:0:0:0:
202,91,117437,1,8,0:0:0:0:
199,90,117548,1,0,0:0:0:0:
196,89,117604,1,0,0:0:0:0:
199,90,117659,1,8,0:0:0:0:
182,94,117770,1,0,0:0:0:0:
182,94,117882,1,8,0:0:0:0:
232,61,117937,1,8,0:0:0:0:
216,95,117993,1,0,0:0:0:0:
218,83,118048,1,0,0:0:0:0:
190,104,118104,1,8,0:0:0:0:
190,105,118215,1,0,0:0:0:0:
186,104,118326,1,8,0:0:0:0:
203,91,118382,1,0,0:0:0:0:
216,95,118437,1,8,0:0:0:0:
182,104,118548,1,0,0:0:0:0:
182,104,118659,1,8,0:0:0:0:
182,104,118715,1,8,0:0:0:0:
182,104,118770,1,0,0:0:0:0:
172,105,118882,1,0,0:0:0:0:
171,104,118993,1,8,0:0:0:0:
167,103,119048,1,8,0:0:0:0:
165,102,119104,1,8,0:0:0:0:
206,67,119159,1,8,0:0:0:0:
163,101,119215,1,0,0:0:0:0:
190,45,119270,1,0,0:0:0:0:
178,98,119326,1,0,0:0:0:0:
163,101,119382,1,0,0:0:0:0:
163,100,119437,1,8,0:0:0:0:
222,60,119548,1,0,0:0:0:0:
169,88,119659,1,8,0:0:0:0:
194,23,119715,1,8,0:0:0:0:
189,96,119770,1,0,0:0:0:0:
169,76,119882,1,8,0:0:0:0:
206,67,119937,1,0,0:0:0:0:
170,91,119993,1,0,0:0:0:0:
169,76,120048,1,0,0:0:0:0:
170,91,120104,1,8,0:0:0:0:
170,91,120215,1,0,0:0:0:0:
170,91,120326,1,8,0:0:0:0:
168,77,120382,1,0,0:0:0:0:
189,65,120437,1,0,0:0:0:0:
155,88,120548,1,8,0:0:0:0:
178,73,120659,1,0,0:0:0:0:
209,72,120715,1,0,0:0:0:0:
178,75,120770,1,8,0:0:0:0:
178,75,120882,1,0,0:0:0:0:
178,75,120993,1,8,0:0:0:0:
174,82,121048,1,8,0:0:0:0:
178,75,121104,1,0,0:0:0:0:
178,75,121159,1,0,0:0:0:0:
178,75,121215,1,8,0:0:0:0:
208,65,121270,1,8,0:0:0:0:
170,83,121326,1,0,0:0:0:0:
196,77,121437,1,12,0:0:0:0:
203,105,121881,1,0,0:0:0:0:
203,105,122325,1,8,0:0:0:0:
203,105,122770,1,0,0:0:0:0:
203,105,122992,1,8,0:0:0:0:
203,105,123881,1,8,0:0:0:0:
203,105,124103,1,0,0:0:0:0:
203,105,124548,1,8,0:0:0:0:
203,105,124770,1,0,0:0:0:0:
203,105,124992,1,0,0:0:0:0:
203,105,125437,1,8,0:0:0:0:
203,105,125881,1,0,0:0:0:0:
203,105,126325,1,8,0:0:0:0:
203,105,126548,1,0,0:0:0:0:
203,105,126622,1,0,0:0:0:0:
203,105,126696,1,0,0:0:0:0:
234,188,126770,1,8,0:0:0:0:
223,194,126881,1,8,0:0:0:0:
223,194,127103,1,8,0:0:0:0:
223,194,127325,1,8,0:0:0:0:
215,170,127547,1,8,0:0:0:0:
215,170,127658,1,0,0:0:0:0:
213,174,127881,1,12,0:0:0:0:
233,182,128214,1,8,0:0:0:0:
233,182,128325,1,8,0:0:0:0:
233,182,128436,1,8,0:0:0:0:
212,183,128547,1,4,0:0:0:0:
218,178,128770,1,4,0:0:0:0:
243,186,132103,1,4,0:0:0:0:
243,186,132325,1,4,0:0:0:0:
256,192,133881,12,0,135547,0:0:0:0:
240,194,135658,5,4,0:0:0:0:
240,194,135881,1,4,0:0:0:0:
240,194,136103,1,8,0:0:0:0:
240,194,136214,1,0,0:0:0:0:
240,194,136325,1,0,0:0:0:0:
240,194,136436,1,8,0:0:0:0:
240,194,136658,1,0,0:0:0:0:
240,194,136770,1,8,0:0:0:0:
240,194,136881,1,0,0:0:0:0:
244,172,136936,1,0,0:0:0:0:
240,194,136992,1,8,0:0:0:0:
240,194,137103,1,0,0:0:0:0:
240,194,137214,1,8,0:0:0:0:
240,194,137325,1,8,0:0:0:0:
240,194,137436,1,0,0:0:0:0:
240,194,137547,1,8,0:0:0:0:
244,172,137603,1,0,0:0:0:0:
240,194,137658,1,8,0:0:0:0:
240,194,137770,1,0,0:0:0:0:
240,194,137881,1,8,0:0:0:0:
240,194,137992,1,0,0:0:0:0:
240,194,138103,1,0,0:0:0:0:
240,194,138214,1,8,0:0:0:0:
240,194,138325,1,0,0:0:0:0:
244,172,138381,1,0,0:0:0:0:
240,194,138436,1,8,0:0:0:0:
240,194,138547,1,0,0:0:0:0:
240,194,138658,1,0,0:0:0:0:
240,194,138770,1,12,0:0:0:0:
240,194,138992,1,8,0:0:0:0:
240,194,139214,1,4,0:0:0:0:
240,194,139436,1,4,0:0:0:0:
240,194,139658,1,8,0:0:0:0:
240,194,139770,1,0,0:0:0:0:
240,194,139881,1,0,0:0:0:0:
234,152,139992,1,8,0:0:0:0:
224,136,140214,1,0,0:0:0:0:
224,136,140325,1,8,0:0:0:0:
224,136,140436,1,0,0:0:0:0:
208,146,140492,1,0,0:0:0:0:
224,136,140547,1,8,0:0:0:0:
224,136,140658,1,0,0:0:0:0:
224,136,140770,1,0,0:0:0:0:
224,136,140881,1,8,0:0:0:0:
224,136,141103,1,0,0:0:0:0:
224,136,141214,1,8,0:0:0:0:
224,136,141325,1,0,0:0:0:0:
219,106,141381,1,0,0:0:0:0:
224,136,141436,1,8,0:0:0:0:
224,136,141547,1,0,0:0:0:0:
224,136,141658,1,8,0:0:0:0:
205,88,141714,1,0,0:0:0:0:
224,136,141770,1,8,0:0:0:0:
224,136,141881,1,0,0:0:0:0:
216,91,141992,1,0,0:0:0:0:
216,91,142047,1,0,0:0:0:0:
224,136,142103,1,8,0:0:0:0:
215,74,142158,1,0,0:0:0:0:
224,136,142214,1,8,0:0:0:0:
224,136,142270,1,0,0:0:0:0:
224,136,142325,1,8,0:0:0:0:
224,136,142381,1,8,0:0:0:0:
224,136,142436,1,0,0:0:0:0:
224,136,142492,1,0,0:0:0:0:
224,136,142547,1,8,0:0:0:0:
224,136,142603,1,0,0:0:0:0:
224,136,142658,1,8,0:0:0:0:
236,127,142714,1,8,0:0:0:0:
239,120,142770,1,0,0:0:0:0:
256,188,149214,5,0,0:0:0:0:
256,188,149325,1,0,0:0:0:0:
256,188,149436,1,8,0:0:0:0:
256,188,149881,5,8,0:0:0:0:
256,188,149992,1,0,0:0:0:0:
256,188,150103,1,8,0:0:0:0:
256,188,150214,1,0,0:0:0:0:
256,188,150325,1,8,0:0:0:0:
256,188,150436,1,0,0:0:0:0:
256,188,150547,1,8,0:0:0:0:
256,188,150658,1,8,0:0:0:0:
256,188,150769,1,0,0:0:0:0:
256,188,150881,1,0,0:0:0:0:
256,188,150992,1,8,0:0:0:0:
256,188,151103,1,8,0:0:0:0:
256,188,151214,1,8,0:0:0:0:
256,188,151325,1,0,0:0:0:0:
256,188,151436,1,0,0:0:0:0:
256,188,151547,1,0,0:0:0:0:
256,188,151658,1,8,0:0:0:0:
256,188,151769,1,8,0:0:0:0:
256,188,151881,1,8,0:0:0:0:
256,188,151992,1,0,0:0:0:0:
256,188,152103,1,8,0:0:0:0:
256,188,152214,1,8,0:0:0:0:
256,188,152325,1,0,0:0:0:0:
256,188,152436,1,0,0:0:0:0:
256,188,152547,1,0,0:0:0:0:
256,188,152658,1,0,0:0:0:0:
256,188,152769,1,8,0:0:0:0:
256,188,152881,1,0,0:0:0:0:
256,188,152992,1,8,0:0:0:0:
256,188,153103,1,0,0:0:0:0:
256,188,153214,1,8,0:0:0:0:
256,188,153325,1,0,0:0:0:0:
252,181,155102,1,0,0:0:0:0:
252,181,155213,1,12,0:0:0:0:
252,181,155325,1,0,0:0:0:0:
252,181,155547,1,0,0:0:0:0:
252,181,155658,1,12,0:0:0:0:
252,181,155769,1,0,0:0:0:0:
252,181,155991,1,0,0:0:0:0:
252,181,156102,1,8,0:0:0:0:
252,181,156213,1,8,0:0:0:0:
252,181,156325,1,8,0:0:0:0:
252,181,156436,1,8,0:0:0:0:
252,181,156658,1,8,0:0:0:0:
252,181,156880,1,8,0:0:0:0:
252,181,156991,1,4,0:0:0:0:
249,163,158324,1,12,0:0:0:0:
249,163,158546,1,12,0:0:0:0:
249,163,158768,1,4,0:0:0:0:
249,163,158880,1,8,0:0:0:0:
255,154,158935,1,8,0:0:0:0:
249,163,158991,1,0,0:0:0:0:
256,162,159102,1,0,0:0:0:0:
256,160,159213,1,8,0:0:0:0:
256,162,159324,1,0,0:0:0:0:
226,141,159380,1,0,0:0:0:0:
256,162,159435,1,8,0:0:0:0:
256,162,159546,1,0,0:0:0:0:
256,162,159657,1,8,0:0:0:0:
256,162,159768,1,0,0:0:0:0:
248,152,159824,1,0,0:0:0:0:
256,162,159880,1,0,0:0:0:0:
256,162,159991,1,8,0:0:0:0:
256,162,160102,1,0,0:0:0:0:
248,152,160157,1,0,0:0:0:0:
256,160,160213,1,0,0:0:0:0:
256,162,160324,1,8,0:0:0:0:
256,162,160435,1,0,0:0:0:0:
256,162,160546,1,12,0:0:0:0:
252,148,160842,1,0,0:0:0:0:
252,148,160963,1,12,0:0:0:0:
256,150,161176,1,0,0:0:0:0:
256,150,161435,1,12,0:0:0:0:
252,148,161768,1,0,0:0:0:0:
252,148,161824,1,0,0:0:0:0:
252,148,161880,1,0,0:0:0:0:
211,163,162324,5,12,0:0:0:0:
213,168,162435,1,0,0:0:0:0:
208,169,162491,1,0,0:0:0:0:
211,163,162546,1,8,0:0:0:0:
211,163,162657,1,0,0:0:0:0:
234,136,162713,1,0,0:0:0:0:
201,154,162768,1,8,0:0:0:0:
201,154,162824,1,8,0:0:0:0:
192,147,162880,1,0,0:0:0:0:
206,148,162991,1,8,0:0:0:0:
201,154,163046,1,0,0:0:0:0:
206,148,163102,1,8,0:0:0:0:
202,147,163213,1,0,0:0:0:0:
202,147,163324,1,8,0:0:0:0:
202,147,163380,1,8,0:0:0:0:
202,147,163435,1,0,0:0:0:0:
202,147,163491,1,0,0:0:0:0:
202,147,163546,1,0,0:0:0:0:
203,146,163602,1,0,0:0:0:0:
202,147,163657,1,8,0:0:0:0:
202,147,163768,1,0,0:0:0:0:
202,147,163880,1,8,0:0:0:0:
228,128,163935,1,0,0:0:0:0:
206,148,163991,1,8,0:0:0:0:
203,146,164046,1,8,0:0:0:0:
206,138,164102,1,0,0:0:0:0:
208,139,164213,1,8,0:0:0:0:
208,139,164268,1,8,0:0:0:0:
208,139,164324,1,8,0:0:0:0:
204,137,164380,1,8,0:0:0:0:
205,139,164435,1,0,0:0:0:0:
204,137,164491,1,0,0:0:0:0:
204,137,164546,1,8,0:0:0:0:
228,128,164602,1,8,0:0:0:0:
205,139,164657,1,0,0:0:0:0:
205,139,164768,1,8,0:0:0:0:
202,147,164824,1,0,0:0:0:0:
202,147,164880,1,8,0:0:0:0:
214,142,164991,1,0,0:0:0:0:
214,142,165102,1,8,0:0:0:0:
215,147,165157,1,8,0:0:0:0:
214,142,165213,1,0,0:0:0:0:
214,142,165268,1,0,0:0:0:0:
215,147,165324,1,0,0:0:0:0:
214,142,165380,1,0,0:0:0:0:
214,142,165435,1,8,0:0:0:0:
214,92,165491,1,0,0:0:0:0:
215,147,165546,1,0,0:0:0:0:
170,50,165602,1,0,0:0:0:0:
228,128,165657,1,8,0:0:0:0:
205,139,165768,1,0,0:0:0:0:
196,138,165880,1,8,0:0:0:0:
196,138,165935,1,0,0:0:0:0:
196,138,165991,1,8,0:0:0:0:
192,61,166046,1,0,0:0:0:0:
213,129,166102,1,8,0:0:0:0:
213,129,166213,1,0,0:0:0:0:
221,101,166324,1,8,0:0:0:0:
223,120,166380,1,8,0:0:0:0:
212,130,166435,1,0,0:0:0:0:
224,126,166491,1,0,0:0:0:0:
224,126,166546,1,8,0:0:0:0:
224,125,166602,1,0,0:0:0:0:
213,120,166657,1,8,0:0:0:0:
223,125,166713,1,8,0:0:0:0:
223,125,166768,1,0,0:0:0:0:
213,120,166880,1,0,0:0:0:0:
213,120,166991,1,8,0:0:0:0:
206,120,167046,1,8,0:0:0:0:
213,120,167102,1,8,0:0:0:0:
213,120,167157,1,0,0:0:0:0:
206,120,167213,1,8,0:0:0:0:
223,120,167268,1,8,0:0:0:0:
206,120,167324,1,0,0:0:0:0:
212,130,167380,1,0,0:0:0:0:
205,120,167435,1,8,0:0:0:0:
231,119,167546,1,0,0:0:0:0:
237,118,167657,1,8,0:0:0:0:
223,125,167713,1,0,0:0:0:0:
231,120,167768,1,0,0:0:0:0:
231,120,167880,1,8,0:0:0:0:
213,120,167935,1,8,0:0:0:0:
231,120,167991,1,0,0:0:0:0:
227,120,168102,1,8,0:0:0:0:
227,120,168157,1,0,0:0:0:0:
227,120,168213,1,0,0:0:0:0:
225,121,168324,1,8,0:0:0:0:
225,122,168380,1,8,0:0:0:0:
225,122,168435,1,8,0:0:0:0:
231,103,168491,1,8,0:0:0:0:
231,119,168546,1,0,0:0:0:0:
223,127,168657,1,0,0:0:0:0:
230,117,168713,1,0,0:0:0:0:
223,125,168768,1,8,0:0:0:0:
231,120,168880,1,0,0:0:0:0:
231,120,168991,1,8,0:0:0:0:
227,120,169046,1,8,0:0:0:0:
227,120,169102,1,8,0:0:0:0:
229,103,169157,1,8,0:0:0:0:
227,120,169213,1,0,0:0:0:0:
230,116,169268,1,0,0:0:0:0:
228,104,169324,1,8,0:0:0:0:
230,116,169435,1,4,0:0:0:0:
228,104,169546,1,8,0:0:0:0:
223,108,169602,1,0,0:0:0:0:
228,104,169657,1,8,0:0:0:0:
223,108,169768,1,0,0:0:0:0:
223,108,169824,1,0,0:0:0:0:
223,108,169880,1,8,0:0:0:0:
231,120,169991,1,0,0:0:0:0:
227,120,170102,1,8,0:0:0:0:
230,116,170157,1,0,0:0:0:0:
227,120,170213,1,8,0:0:0:0:
223,118,170324,1,0,0:0:0:0:
223,118,170435,1,8,0:0:0:0:
224,119,170491,1,8,0:0:0:0:
203,94,170546,1,0,0:0:0:0:
224,119,170602,1,0,0:0:0:0:
224,119,170657,1,0,0:0:0:0:
236,104,170713,1,0,0:0:0:0:
224,119,170768,1,8,0:0:0:0:
223,108,170880,1,0,0:0:0:0:
223,108,170991,1,8,0:0:0:0:
199,120,171046,1,0,0:0:0:0:
236,104,171102,1,8,0:0:0:0:
242,109,171157,1,8,0:0:0:0:
217,120,171213,1,0,0:0:0:0:
223,118,171324,1,8,0:0:0:0:
223,118,171380,1,8,0:0:0:0:
214,115,171435,1,8,0:0:0:0:
223,118,171491,1,8,0:0:0:0:
217,120,171546,1,0,0:0:0:0:
214,115,171602,1,0,0:0:0:0:
210,115,171657,1,8,0:0:0:0:
242,109,171713,1,8,0:0:0:0:
210,115,171768,1,0,0:0:0:0:
210,115,171880,1,8,0:0:0:0:
211,116,171991,1,8,0:0:0:0:
211,116,172046,1,8,0:0:0:0:
198,97,172102,1,0,0:0:0:0:
213,97,172213,1,8,0:0:0:0:
213,96,172268,1,8,0:0:0:0:
212,97,172324,1,8,0:0:0:0:
208,94,172380,1,8,0:0:0:0:
202,91,172435,1,0,0:0:0:0:
203,91,172491,1,0,0:0:0:0:
202,91,172546,1,8,0:0:0:0:
242,109,172602,1,0,0:0:0:0:
199,90,172657,1,8,0:0:0:0:
196,89,172713,1,8,0:0:0:0:
199,90,172768,1,0,0:0:0:0:
225,101,172824,1,0,0:0:0:0:
182,94,172880,1,8,0:0:0:0:
182,94,172991,1,0,0:0:0:0:
225,80,173046,1,8,0:0:0:0:
216,95,173102,1,0,0:0:0:0:
190,104,173157,1,0,0:0:0:0:
190,104,173213,1,8,0:0:0:0:
190,105,173324,1,0,0:0:0:0:
186,104,173435,1,8,0:0:0:0:
185,104,173491,1,0,0:0:0:0:
182,104,173546,1,0,0:0:0:0:
182,104,173602,1,0,0:0:0:0:
182,104,173657,1,8,0:0:0:0:
214,106,173713,1,8,0:0:0:0:
182,104,173768,1,0,0:0:0:0:
174,106,173824,1,8,0:0:0:0:
182,104,173880,1,0,0:0:0:0:
172,105,173991,1,0,0:0:0:0:
171,104,174102,1,8,0:0:0:0:
167,103,174157,1,8,0:0:0:0:
165,102,174213,1,0,0:0:0:0:
190,93,174268,1,0,0:0:0:0:
214,106,174324,1,8,0:0:0:0:
199,97,174380,1,0,0:0:0:0:
178,98,174435,1,0,0:0:0:0:
163,101,174491,1,0,0:0:0:0:
163,100,174546,1,8,0:0:0:0:
222,60,174657,1,0,0:0:0:0:
169,88,174768,1,8,0:0:0:0:
194,23,174824,1,0,0:0:0:0:
189,96,174880,1,0,0:0:0:0:
169,76,174991,1,8,0:0:0:0:
194,23,175046,1,8,0:0:0:0:
170,91,175102,1,0,0:0:0:0:
222,60,175157,1,0,0:0:0:0:
170,91,175213,1,8,0:0:0:0:
170,91,175324,1,0,0:0:0:0:
170,91,175435,1,8,0:0:0:0:
168,77,175491,1,8,0:0:0:0:
189,65,175546,1,0,0:0:0:0:
155,88,175657,1,8,0:0:0:0:
178,73,175768,1,0,0:0:0:0:
209,72,175824,1,0,0:0:0:0:
178,75,175879,1,8,0:0:0:0:
178,75,175991,1,0,0:0:0:0:
178,75,176102,1,8,0:0:0:0:
174,82,176157,1,8,0:0:0:0:
178,75,176213,1,0,0:0:0:0:
178,75,176268,1,0,0:0:0:0:
178,75,176324,1,8,0:0:0:0:
203,67,176379,1,8,0:0:0:0:
170,83,176435,1,0,0:0:0:0:
196,77,176550,1,8,0:0:0:0:
192,96,177004,1,0,0:0:0:0:
203,89,177459,1,8,0:0:0:0:
192,96,177913,1,0,0:0:0:0:
203,89,178140,1,8,0:0:0:0:
203,89,179053,1,8,0:0:0:0:
203,89,179284,1,0,0:0:0:0:
203,89,179736,1,8,0:0:0:0:
203,89,179963,1,0,0:0:0:0:
203,89,180189,1,0,0:0:0:0:
203,89,180633,1,8,0:0:0:0:
203,89,181077,1,0,0:0:0:0:
203,89,181538,1,8,0:0:0:0:
203,89,181769,1,0,0:0:0:0:
193,89,183336,1,8,0:0:0:0:
193,89,183864,1,0,0:0:0:0:
192,89,185578,1,0,0:0:0:0:
192,89,186088,1,8,0:0:0:0:
192,89,187088,1,8,0:0:0:0:
192,89,188029,1,0,0:0:0:0:
196,89,189949,1,8,0:0:0:0:
228,104,190256,1,0,0:0:0:0:
196,89,190872,1,8,0:0:0:0:
196,89,191564,1,0,0:0:0:0:
196,89,191964,1,0,0:0:0:0:
196,89,192364,1,8,0:0:0:0:
196,89,193133,1,8,0:0:0:0:
196,89,193517,1,0,0:0:0:0:
196,89,193902,1,8,0:0:0:0:
196,89,194671,1,0,0:0:0:0:
196,89,195023,1,0,0:0:0:0:
196,89,195423,1,8,0:0:0:0:
196,89,196346,1,8,0:0:0:0:
196,89,196687,1,0,0:0:0:0:
196,89,197371,1,8,0:0:0:0:
179,84,197871,1,8,0:0:0:0:
196,89,198371,1,0,0:0:0:0:
190,90,198829,1,0,0:0:0:0:
196,89,199355,1,8,0:0:0:0:
256,192,201855,12,0,207660,0:0:0:0:
