osu file format v14

[General]
AudioFilename: audio.ogg
AudioLeadIn: 0
PreviewTime: 38097
Countdown: 0
SampleSet: Normal
StackLeniency: 0.7
Mode: 1
LetterboxInBreaks: 0
WidescreenStoryboard: 1

[Editor]
DistanceSpacing: 0.6
BeatDivisor: 4
GridSize: 32
TimelineZoom: 2.832

[Metadata]
Title:Shaurytime
TitleUnicode:シャウりータイム
Artist:Kuhaku Gokko
ArtistUnicode:空白ごっこ
Creator:KyeX
Version:Muzukashii
Source:
Tags:japanese pop jpop j-pop rock jrock j-rock vocal female vocaloid utaite utattemita 開花 kaika gaston_2199 Nipponham Nippon Ham Nippon Hamu Kabushiki-gaisha 日本ハム株式会社 NH Foods Ltd. koyori 世津田スン
BeatmapID:3597501
BeatmapSetID:1727693

[Difficulty]
HPDrainRate:6
CircleSize:3
OverallDifficulty:5
ApproachRate:10
SliderMultiplier:1.4
SliderTickRate:1

[Events]
//Background and Video events
0,0,"bg salchicha.png",0,0
//Break Periods
2,138158,143318
//Storyboard Layer 0 (Background)
//Storyboard Layer 1 (Fail)
//Storyboard Layer 2 (Pass)
//Storyboard Layer 3 (Foreground)
//Storyboard Layer 4 (Overlay)
//Storyboard Sound Samples

[TimingPoints]
598,243.90243902439,4,1,0,75,1,0
1451,-111.111111111111,4,1,0,75,0,0
2549,-105.263157894737,4,1,0,75,0,0
3402,-111.111111111111,4,1,0,75,0,0
4496,-105.263157894737,4,1,0,75,0,0
4861,-111.111111111111,4,1,0,75,0,0
7907,-108.691772264858,4,1,0,75,0,0
8151,-104.15597742432,4,1,0,75,0,0
8273,-102.044235924933,4,1,0,75,0,0
8394,-100,4,1,0,80,0,0
16435,-111.111111111111,4,1,0,70,0,0
23988,-111.111111111111,4,1,0,75,0,0
31785,-117.647058823529,4,1,0,70,0,0
37389,-114.285714285714,4,1,0,75,0,0
37671,-111.111111111111,4,1,0,75,0,0
39622,-100,4,1,0,80,0,1
55232,-100,4,1,0,75,0,0
55592,-111.111111111111,4,1,0,75,0,0
59134,-111.111111111111,4,1,0,75,0,1
60110,-111.111111111111,4,1,0,75,0,0
61074,-100,4,1,0,80,0,0
69845,-117.647058823529,4,1,0,70,0,0
76668,-111.111111111111,4,1,0,75,0,0
84465,-117.647058823529,4,1,0,70,0,0
90069,-114.285714285714,4,1,0,75,0,0
90354,-111.111111111111,4,1,0,75,0,0
92305,-100,4,1,0,80,0,1
107915,-100,4,1,0,75,0,0
108159,-111.111111111111,4,1,0,75,0,0
111817,-111.111111111111,4,1,0,75,0,1
112793,-111.111111111111,4,1,0,75,0,0
113763,-117.647058823529,4,1,0,75,0,0
121573,-114.285714285714,4,1,0,75,0,0
127427,-111.111111111111,4,1,0,75,0,0
143765,-105.263157894737,4,1,0,75,0,0
143887,-102.564102564103,4,1,0,75,0,0
144009,-100,4,1,0,80,0,0
151817,-100,4,1,0,80,0,1
167427,-100,4,1,0,75,0,0
167643,-111.111111111111,4,1,0,75,0,0
171329,-111.111111111111,4,1,0,75,0,1
172305,-111.111111111111,4,1,0,75,0,0
173280,-111.111111111111,4,1,0,75,0,1
174256,-111.111111111111,4,1,0,75,0,0
175232,-111.111111111111,4,1,0,75,0,1
176207,-111.111111111111,4,1,0,75,0,0
177146,-111.111111111111,4,1,0,70,0,0

[HitObjects]
256,192,598,5,4,0:0:0:0:
256,192,1451,1,8,0:0:0:0:
256,192,1573,1,0,0:0:0:0:
256,192,1695,1,8,0:0:0:0:
256,192,1939,1,0,0:0:0:0:
256,192,2061,1,8,0:0:0:0:
256,192,2549,1,4,0:0:0:0:
256,192,2793,1,4,0:0:0:0:
256,192,3402,1,8,0:0:0:0:
256,192,3524,1,0,0:0:0:0:
256,192,3646,1,8,0:0:0:0:
256,192,3890,1,0,0:0:0:0:
256,192,4012,1,8,0:0:0:0:
256,192,4500,1,4,0:0:0:0:
256,192,4988,1,8,0:0:0:0:
256,192,5110,1,0,0:0:0:0:
256,192,5354,1,8,0:0:0:0:
256,192,5597,1,8,0:0:0:0:
256,192,5841,1,0,0:0:0:0:
256,192,5963,1,8,0:0:0:0:
256,192,6207,1,0,0:0:0:0:
256,192,6451,1,0,0:0:0:0:
256,192,6573,1,8,0:0:0:0:
256,192,6695,1,0,0:0:0:0:
256,192,6939,1,8,0:0:0:0:
256,192,7183,1,0,0:0:0:0:
256,192,7305,1,0,0:0:0:0:
256,192,7427,1,8,0:0:0:0:
256,192,7549,1,0,0:0:0:0:
256,192,7915,1,8,0:0:0:0:
256,192,8158,1,8,0:0:0:0:
256,192,8280,1,8,0:0:0:0:
256,192,8402,1,4,0:0:0:0:
256,192,8646,1,0,0:0:0:0:
256,192,8890,1,8,0:0:0:0:
256,192,9134,1,8,0:0:0:0:
256,192,9256,1,0,0:0:0:0:
256,192,9317,1,0,0:0:0:0:
256,192,9378,1,0,0:0:0:0:
256,192,9500,1,0,0:0:0:0:
256,192,9622,1,8,0:0:0:0:
256,192,9866,1,0,0:0:0:0:
256,192,10110,1,8,0:0:0:0:
256,192,10354,1,0,0:0:0:0:
256,192,10476,1,8,0:0:0:0:
256,192,10597,1,0,0:0:0:0:
256,192,10719,1,8,0:0:0:0:
256,192,10841,1,0,0:0:0:0:
256,192,10963,1,8,0:0:0:0:
256,192,11207,1,0,0:0:0:0:
256,192,11451,1,0,0:0:0:0:
256,192,11573,1,8,0:0:0:0:
256,192,11817,1,0,0:0:0:0:
256,192,11939,1,0,0:0:0:0:
256,192,12061,1,8,0:0:0:0:
256,192,12305,1,0,0:0:0:0:
256,192,12549,1,8,0:0:0:0:
256,192,12793,1,0,0:0:0:0:
256,192,13037,1,8,0:0:0:0:
256,192,13158,1,0,0:0:0:0:
256,192,13219,1,0,0:0:0:0:
256,192,13280,1,0,0:0:0:0:
256,192,13402,1,0,0:0:0:0:
256,192,13524,1,8,0:0:0:0:
256,192,13768,1,0,0:0:0:0:
256,192,14012,1,8,0:0:0:0:
256,192,14256,1,0,0:0:0:0:
256,192,14378,1,0,0:0:0:0:
256,192,14500,1,8,0:0:0:0:
256,192,14744,1,8,0:0:0:0:
256,192,14866,1,0,0:0:0:0:
256,192,14988,1,0,0:0:0:0:
256,192,15110,1,8,0:0:0:0:
256,192,15354,1,8,0:0:0:0:
256,192,15476,1,0,0:0:0:0:
256,192,15719,1,0,0:0:0:0:
256,192,15841,1,8,0:0:0:0:
256,192,15963,1,8,0:0:0:0:
256,192,16085,1,8,0:0:0:0:
256,192,16207,1,4,0:0:0:0:
256,192,16451,1,8,0:0:0:0:
256,192,16695,1,0,0:0:0:0:
256,192,16939,1,8,0:0:0:0:
256,192,17061,1,0,0:0:0:0:
256,192,17305,1,0,0:0:0:0:
256,192,17549,1,8,0:0:0:0:
256,192,17671,1,0,0:0:0:0:
256,192,17915,1,8,0:0:0:0:
256,192,18158,1,0,0:0:0:0:
256,192,18402,1,8,0:0:0:0:
256,192,18646,1,0,0:0:0:0:
256,192,18890,1,0,0:0:0:0:
256,192,19012,1,8,0:0:0:0:
256,192,19256,1,8,0:0:0:0:
256,192,19500,1,8,0:0:0:0:
256,192,19744,1,8,0:0:0:0:
256,192,19866,1,8,0:0:0:0:
256,192,19988,1,8,0:0:0:0:
256,192,20110,1,0,0:0:0:0:
256,192,20354,1,8,0:0:0:0:
256,192,20597,1,0,0:0:0:0:
256,192,20841,1,8,0:0:0:0:
256,192,20963,1,0,0:0:0:0:
256,192,21207,1,8,0:0:0:0:
256,192,21573,1,8,0:0:0:0:
256,192,21817,1,8,0:0:0:0:
256,192,22061,1,0,0:0:0:0:
256,192,22305,1,8,0:0:0:0:
256,192,22549,1,0,0:0:0:0:
256,192,22793,1,8,0:0:0:0:
256,192,22915,1,0,0:0:0:0:
256,192,23158,1,0,0:0:0:0:
256,192,23280,1,8,0:0:0:0:
256,192,23402,1,8,0:0:0:0:
256,192,23524,1,0,0:0:0:0:
256,192,23768,1,8,0:0:0:0:
256,192,23890,1,8,0:0:0:0:
256,192,24012,1,4,0:0:0:0:
256,192,24256,1,8,0:0:0:0:
256,192,24500,1,0,0:0:0:0:
256,192,24744,1,8,0:0:0:0:
256,192,24866,1,0,0:0:0:0:
256,192,25110,1,0,0:0:0:0:
256,192,25354,1,8,0:0:0:0:
256,192,25476,1,0,0:0:0:0:
256,192,25719,1,8,0:0:0:0:
256,192,25963,1,0,0:0:0:0:
256,192,26207,1,8,0:0:0:0:
256,192,26451,1,0,0:0:0:0:
256,192,26695,1,0,0:0:0:0:
256,192,26817,1,8,0:0:0:0:
256,192,27061,1,8,0:0:0:0:
256,192,27305,1,8,0:0:0:0:
256,192,27549,1,8,0:0:0:0:
256,192,27671,1,8,0:0:0:0:
256,192,27793,1,8,0:0:0:0:
256,192,27915,1,0,0:0:0:0:
256,192,28158,1,8,0:0:0:0:
256,192,28402,1,0,0:0:0:0:
256,192,28646,1,8,0:0:0:0:
256,192,28768,1,8,0:0:0:0:
256,192,29012,1,8,0:0:0:0:
256,192,29256,1,0,0:0:0:0:
256,192,29378,1,8,0:0:0:0:
256,192,29622,1,8,0:0:0:0:
256,192,29866,1,0,0:0:0:0:
256,192,30110,1,8,0:0:0:0:
256,192,30354,1,0,0:0:0:0:
256,192,30597,1,8,0:0:0:0:
256,192,30719,1,0,0:0:0:0:
256,192,30963,1,0,0:0:0:0:
256,192,31085,1,8,0:0:0:0:
256,192,31207,1,8,0:0:0:0:
256,192,31329,1,0,0:0:0:0:
256,192,31451,1,8,0:0:0:0:
256,192,31573,1,0,0:0:0:0:
256,192,31817,1,12,0:0:0:0:
256,192,32061,1,0,0:0:0:0:
256,192,32183,1,8,0:0:0:0:
256,192,32549,1,8,0:0:0:0:
256,192,32793,1,0,0:0:0:0:
256,192,33037,1,0,0:0:0:0:
256,192,33158,1,8,0:0:0:0:
256,192,33524,1,8,0:0:0:0:
256,192,33768,1,0,0:0:0:0:
256,192,34012,1,8,0:0:0:0:
256,192,34134,1,8,0:0:0:0:
256,192,34500,1,8,0:0:0:0:
256,192,34744,1,0,0:0:0:0:
256,192,34988,1,0,0:0:0:0:
256,192,35110,1,8,0:0:0:0:
256,192,35476,1,8,0:0:0:0:
256,192,35719,1,12,0:0:0:0:
256,192,35963,1,0,0:0:0:0:
256,192,36085,1,8,0:0:0:0:
256,192,36451,1,8,0:0:0:0:
256,192,36695,1,0,0:0:0:0:
256,192,36939,1,8,0:0:0:0:
256,192,37061,1,8,0:0:0:0:
256,192,37427,1,12,0:0:0:0:
256,192,37671,1,4,0:0:0:0:
256,192,37915,1,8,0:0:0:0:
256,192,38158,1,8,0:0:0:0:
256,192,38280,1,0,0:0:0:0:
256,192,38402,1,8,0:0:0:0:
256,192,38524,1,0,0:0:0:0:
256,192,38646,1,8,0:0:0:0:
256,192,39622,1,4,0:0:0:0:
256,192,39866,1,8,0:0:0:0:
256,192,39988,1,8,0:0:0:0:
256,192,40110,1,0,0:0:0:0:
256,192,40354,1,8,0:0:0:0:
256,192,40597,1,8,0:0:0:0:
256,192,40719,1,0,0:0:0:0:
256,192,40780,1,0,0:0:0:0:
256,192,40841,1,0,0:0:0:0:
256,192,40963,1,8,0:0:0:0:
256,192,41085,1,0,0:0:0:0:
256,192,41329,1,8,0:0:0:0:
256,192,41451,1,8,0:0:0:0:
256,192,41573,1,0,0:0:0:0:
256,192,41817,1,8,0:0:0:0:
256,192,42061,1,0,0:0:0:0:
256,192,42183,1,0,0:0:0:0:
256,192,42305,1,8,0:0:0:0:
256,192,42549,1,0,0:0:0:0:
256,192,42793,1,8,0:0:0:0:
256,192,43037,1,8,0:0:0:0:
256,192,43158,1,0,0:0:0:0:
256,192,43219,1,0,0:0:0:0:
256,192,43280,1,0,0:0:0:0:
256,192,43402,1,8,0:0:0:0:
256,192,43524,1,0,0:0:0:0:
256,192,43768,1,8,0:0:0:0:
256,192,44256,1,8,0:0:0:0:
256,192,44378,1,8,0:0:0:0:
256,192,44500,1,0,0:0:0:0:
256,192,44744,1,8,0:0:0:0:
256,192,44988,1,0,0:0:0:0:
256,192,45110,1,8,0:0:0:0:
256,192,45171,1,8,0:0:0:0:
256,192,45232,1,8,0:0:0:0:
256,192,45354,1,0,0:0:0:0:
256,192,45476,1,8,0:0:0:0:
256,192,45719,1,8,0:0:0:0:
256,192,45963,1,0,0:0:0:0:
256,192,46085,1,0,0:0:0:0:
256,192,46207,1,8,0:0:0:0:
256,192,46451,1,0,0:0:0:0:
256,192,46695,1,8,0:0:0:0:
256,192,46939,1,8,0:0:0:0:
256,192,47061,1,0,0:0:0:0:
256,192,47183,1,8,0:0:0:0:
256,192,47427,1,4,0:0:0:0:
256,192,47671,1,8,0:0:0:0:
256,192,47793,1,8,0:0:0:0:
256,192,47915,1,0,0:0:0:0:
256,192,48158,1,8,0:0:0:0:
256,192,48402,1,0,0:0:0:0:
256,192,48524,1,8,0:0:0:0:
256,192,48585,1,8,0:0:0:0:
256,192,48646,1,8,0:0:0:0:
256,192,48768,1,0,0:0:0:0:
256,192,48890,1,8,0:0:0:0:
256,192,49134,1,8,0:0:0:0:
256,192,49256,1,8,0:0:0:0:
256,192,49378,1,0,0:0:0:0:
256,192,49622,1,8,0:0:0:0:
256,192,49866,1,8,0:0:0:0:
256,192,49988,1,0,0:0:0:0:
256,192,50110,1,8,0:0:0:0:
256,192,50354,1,0,0:0:0:0:
256,192,50597,1,8,0:0:0:0:
256,192,50841,1,8,0:0:0:0:
256,192,50963,1,0,0:0:0:0:
256,192,51024,1,0,0:0:0:0:
256,192,51085,1,0,0:0:0:0:
256,192,51207,1,8,0:0:0:0:
256,192,51329,1,0,0:0:0:0:
256,192,51573,1,8,0:0:0:0:
256,192,51817,1,0,0:0:0:0:
256,192,51939,1,0,0:0:0:0:
256,192,52061,1,8,0:0:0:0:
256,192,52183,1,8,0:0:0:0:
256,192,52305,1,0,0:0:0:0:
256,192,52549,1,8,0:0:0:0:
256,192,52793,1,0,0:0:0:0:
256,192,52915,1,0,0:0:0:0:
256,192,53037,1,8,0:0:0:0:
256,192,53280,1,0,0:0:0:0:
256,192,53524,1,8,0:0:0:0:
256,192,53768,1,8,0:0:0:0:
256,192,53890,1,0,0:0:0:0:
256,192,54012,1,8,0:0:0:0:
256,192,54134,1,8,0:0:0:0:
256,192,54256,1,0,0:0:0:0:
256,192,54500,1,8,0:0:0:0:
256,192,54622,1,8,0:0:0:0:
256,192,54744,1,0,0:0:0:0:
256,192,54866,1,0,0:0:0:0:
256,192,54988,1,8,0:0:0:0:
256,192,55110,1,0,0:0:0:0:
256,192,55232,1,12,0:0:0:0:
256,192,55597,1,0,0:0:0:0:
256,192,55719,1,8,0:0:0:0:
256,192,55963,1,8,0:0:0:0:
256,192,56085,1,0,0:0:0:0:
256,192,56329,1,8,0:0:0:0:
256,192,56573,1,0,0:0:0:0:
256,192,56695,1,8,0:0:0:0:
256,192,56939,1,8,0:0:0:0:
256,192,57183,1,0,0:0:0:0:
256,192,57549,1,0,0:0:0:0:
256,192,57671,1,8,0:0:0:0:
256,192,57915,1,8,0:0:0:0:
256,192,58037,1,0,0:0:0:0:
256,192,58402,1,0,0:0:0:0:
256,192,58646,1,12,0:0:0:0:
256,192,59134,1,0,0:0:0:0:
256,192,59256,1,8,0:0:0:0:
256,192,59378,1,8,0:0:0:0:
256,192,59500,1,8,0:0:0:0:
256,192,59622,1,0,0:0:0:0:
256,192,59744,1,0,0:0:0:0:
256,192,59866,1,8,0:0:0:0:
256,192,59988,1,0,0:0:0:0:
256,192,60110,1,8,0:0:0:0:
256,192,60476,1,0,0:0:0:0:
256,192,60597,1,8,0:0:0:0:
256,192,60719,1,0,0:0:0:0:
256,192,61085,1,12,0:0:0:0:
256,192,61329,1,0,0:0:0:0:
256,192,61573,1,8,0:0:0:0:
256,192,61817,1,8,0:0:0:0:
256,192,61939,1,0,0:0:0:0:
256,192,62000,1,0,0:0:0:0:
256,192,62061,1,0,0:0:0:0:
256,192,62183,1,0,0:0:0:0:
256,192,62305,1,8,0:0:0:0:
256,192,62549,1,0,0:0:0:0:
256,192,62793,1,8,0:0:0:0:
256,192,63037,1,0,0:0:0:0:
256,192,63158,1,8,0:0:0:0:
256,192,63280,1,0,0:0:0:0:
256,192,63402,1,8,0:0:0:0:
256,192,63524,1,0,0:0:0:0:
256,192,63646,1,8,0:0:0:0:
256,192,63890,1,0,0:0:0:0:
256,192,64134,1,0,0:0:0:0:
256,192,64256,1,8,0:0:0:0:
256,192,64500,1,8,0:0:0:0:
256,192,64622,1,0,0:0:0:0:
256,192,64744,1,8,0:0:0:0:
256,192,64988,1,0,0:0:0:0:
256,192,65232,1,8,0:0:0:0:
256,192,65476,1,0,0:0:0:0:
256,192,65719,1,8,0:0:0:0:
256,192,65841,1,0,0:0:0:0:
256,192,65902,1,0,0:0:0:0:
256,192,65963,1,0,0:0:0:0:
256,192,66085,1,0,0:0:0:0:
256,192,66207,1,8,0:0:0:0:
256,192,66451,1,0,0:0:0:0:
256,192,66695,1,8,0:0:0:0:
256,192,66939,1,0,0:0:0:0:
256,192,67061,1,0,0:0:0:0:
256,192,67183,1,8,0:0:0:0:
256,192,67427,1,8,0:0:0:0:
256,192,67549,1,0,0:0:0:0:
256,192,67671,1,0,0:0:0:0:
256,192,67793,1,8,0:0:0:0:
256,192,68037,1,0,0:0:0:0:
256,192,68158,1,8,0:0:0:0:
256,192,68402,1,8,0:0:0:0:
256,192,68524,1,0,0:0:0:0:
256,192,68646,1,8,0:0:0:0:
256,192,68890,1,4,0:0:0:0:
256,192,72793,1,0,0:0:0:0:
256,192,73037,1,0,0:0:0:0:
256,192,73280,1,0,0:0:0:0:
256,192,73524,1,0,0:0:0:0:
256,192,73768,1,0,0:0:0:0:
256,192,74012,1,0,0:0:0:0:
256,192,74256,1,0,0:0:0:0:
256,192,74500,1,0,0:0:0:0:
256,192,74744,1,0,0:0:0:0:
256,192,74988,1,0,0:0:0:0:
256,192,75232,1,0,0:0:0:0:
256,192,75476,1,0,0:0:0:0:
256,192,75597,1,8,0:0:0:0:
256,192,76695,1,4,0:0:0:0:
256,192,76939,1,8,0:0:0:0:
256,192,77183,1,0,0:0:0:0:
256,192,77427,1,8,0:0:0:0:
256,192,77549,1,8,0:0:0:0:
256,192,77793,1,0,0:0:0:0:
256,192,78037,1,8,0:0:0:0:
256,192,78158,1,0,0:0:0:0:
256,192,78402,1,8,0:0:0:0:
256,192,78646,1,0,0:0:0:0:
256,192,78890,1,8,0:0:0:0:
256,192,79378,1,0,0:0:0:0:
256,192,79500,1,8,0:0:0:0:
256,192,79744,1,8,0:0:0:0:
256,192,79988,1,8,0:0:0:0:
256,192,80232,1,8,0:0:0:0:
256,192,80354,1,8,0:0:0:0:
256,192,80476,1,8,0:0:0:0:
256,192,80597,1,0,0:0:0:0:
256,192,80841,1,8,0:0:0:0:
256,192,81085,1,0,0:0:0:0:
256,192,81329,1,8,0:0:0:0:
256,192,81451,1,0,0:0:0:0:
256,192,81695,1,8,0:0:0:0:
256,192,81939,1,0,0:0:0:0:
256,192,82061,1,8,0:0:0:0:
256,192,82305,1,8,0:0:0:0:
256,192,82549,1,0,0:0:0:0:
256,192,82793,1,8,0:0:0:0:
256,192,83037,1,0,0:0:0:0:
256,192,83280,1,8,0:0:0:0:
256,192,83402,1,8,0:0:0:0:
256,192,83646,1,0,0:0:0:0:
256,192,83768,1,8,0:0:0:0:
256,192,83890,1,8,0:0:0:0:
256,192,84012,1,0,0:0:0:0:
256,192,84134,1,0,0:0:0:0:
256,192,84256,1,8,0:0:0:0:
256,192,84500,1,12,0:0:0:0:
256,192,84744,1,0,0:0:0:0:
256,192,84866,1,8,0:0:0:0:
256,192,85232,1,8,0:0:0:0:
256,192,85476,1,0,0:0:0:0:
256,192,85719,1,0,0:0:0:0:
256,192,85841,1,8,0:0:0:0:
256,192,86207,1,8,0:0:0:0:
256,192,86451,1,0,0:0:0:0:
256,192,86695,1,8,0:0:0:0:
256,192,86817,1,8,0:0:0:0:
256,192,87183,1,8,0:0:0:0:
256,192,87427,1,0,0:0:0:0:
256,192,87671,1,0,0:0:0:0:
256,192,87793,1,8,0:0:0:0:
256,192,88158,1,8,0:0:0:0:
256,192,88402,1,12,0:0:0:0:
256,192,88646,1,0,0:0:0:0:
256,192,88768,1,8,0:0:0:0:
256,192,89134,1,8,0:0:0:0:
256,192,89378,1,0,0:0:0:0:
256,192,89622,1,8,0:0:0:0:
256,192,89744,1,8,0:0:0:0:
256,192,90110,1,12,0:0:0:0:
256,192,90354,1,4,0:0:0:0:
256,192,90597,1,8,0:0:0:0:
256,192,90841,1,8,0:0:0:0:
256,192,90963,1,0,0:0:0:0:
256,192,91085,1,8,0:0:0:0:
256,192,91207,1,0,0:0:0:0:
256,192,91329,1,8,0:0:0:0:
256,192,92305,1,4,0:0:0:0:
256,192,92549,1,8,0:0:0:0:
256,192,92671,1,8,0:0:0:0:
256,192,92793,1,0,0:0:0:0:
256,192,93037,1,8,0:0:0:0:
256,192,93280,1,8,0:0:0:0:
256,192,93402,1,0,0:0:0:0:
256,192,93463,1,0,0:0:0:0:
256,192,93524,1,0,0:0:0:0:
256,192,93646,1,8,0:0:0:0:
256,192,93768,1,0,0:0:0:0:
256,192,94012,1,8,0:0:0:0:
256,192,94134,1,8,0:0:0:0:
256,192,94256,1,0,0:0:0:0:
256,192,94500,1,8,0:0:0:0:
256,192,94744,1,0,0:0:0:0:
256,192,94866,1,0,0:0:0:0:
256,192,94988,1,8,0:0:0:0:
256,192,95232,1,0,0:0:0:0:
256,192,95476,1,8,0:0:0:0:
256,192,95719,1,8,0:0:0:0:
256,192,95841,1,0,0:0:0:0:
256,192,95902,1,0,0:0:0:0:
256,192,95963,1,0,0:0:0:0:
256,192,96085,1,8,0:0:0:0:
256,192,96207,1,0,0:0:0:0:
256,192,96451,1,8,0:0:0:0:
256,192,96939,1,8,0:0:0:0:
256,192,97061,1,8,0:0:0:0:
256,192,97183,1,0,0:0:0:0:
256,192,97427,1,8,0:0:0:0:
256,192,97671,1,8,0:0:0:0:
256,192,97793,1,0,0:0:0:0:
256,192,97915,1,8,0:0:0:0:
256,192,97976,1,8,0:0:0:0:
256,192,98037,1,8,0:0:0:0:
256,192,98158,1,0,0:0:0:0:
256,192,98402,1,8,0:0:0:0:
256,192,98646,1,0,0:0:0:0:
256,192,98768,1,0,0:0:0:0:
256,192,98890,1,8,0:0:0:0:
256,192,99134,1,0,0:0:0:0:
256,192,99378,1,8,0:0:0:0:
256,192,99622,1,8,0:0:0:0:
256,192,99744,1,0,0:0:0:0:
256,192,99866,1,8,0:0:0:0:
256,192,100110,1,4,0:0:0:0:
256,192,100354,1,8,0:0:0:0:
256,192,100476,1,8,0:0:0:0:
256,192,100597,1,0,0:0:0:0:
256,192,100841,1,8,0:0:0:0:
256,192,101085,1,8,0:0:0:0:
256,192,101207,1,0,0:0:0:0:
256,192,101268,1,0,0:0:0:0:
256,192,101329,1,0,0:0:0:0:
256,192,101451,1,8,0:0:0:0:
256,192,101573,1,0,0:0:0:0:
256,192,101817,1,8,0:0:0:0:
256,192,101939,1,8,0:0:0:0:
256,192,102061,1,0,0:0:0:0:
256,192,102305,1,8,0:0:0:0:
256,192,102549,1,8,0:0:0:0:
256,192,102671,1,0,0:0:0:0:
256,192,102793,1,8,0:0:0:0:
256,192,103037,1,0,0:0:0:0:
256,192,103280,1,8,0:0:0:0:
256,192,103524,1,8,0:0:0:0:
256,192,103646,1,0,0:0:0:0:
256,192,103707,1,0,0:0:0:0:
256,192,103768,1,0,0:0:0:0:
256,192,103890,1,8,0:0:0:0:
256,192,104012,1,0,0:0:0:0:
256,192,104256,1,8,0:0:0:0:
256,192,104500,1,0,0:0:0:0:
256,192,104622,1,0,0:0:0:0:
256,192,104744,1,8,0:0:0:0:
256,192,104866,1,8,0:0:0:0:
256,192,104988,1,0,0:0:0:0:
256,192,105232,1,8,0:0:0:0:
256,192,105354,1,8,0:0:0:0:
256,192,105476,1,0,0:0:0:0:
256,192,105719,1,8,0:0:0:0:
256,192,105963,1,0,0:0:0:0:
256,192,106207,1,8,0:0:0:0:
256,192,106451,1,8,0:0:0:0:
256,192,106573,1,0,0:0:0:0:
256,192,106695,1,8,0:0:0:0:
256,192,106817,1,8,0:0:0:0:
256,192,106939,1,0,0:0:0:0:
256,192,107183,1,8,0:0:0:0:
256,192,107305,1,8,0:0:0:0:
256,192,107427,1,0,0:0:0:0:
256,192,107549,1,0,0:0:0:0:
256,192,107671,1,8,0:0:0:0:
256,192,107793,1,0,0:0:0:0:
256,192,107915,1,12,0:0:0:0:
256,192,108280,1,0,0:0:0:0:
256,192,108402,1,8,0:0:0:0:
256,192,108646,1,8,0:0:0:0:
256,192,108768,1,0,0:0:0:0:
256,192,109012,1,8,0:0:0:0:
256,192,109256,1,0,0:0:0:0:
256,192,109378,1,8,0:0:0:0:
256,192,109622,1,8,0:0:0:0:
256,192,109866,1,0,0:0:0:0:
256,192,110232,1,0,0:0:0:0:
256,192,110354,1,8,0:0:0:0:
256,192,110597,1,8,0:0:0:0:
256,192,110719,1,0,0:0:0:0:
256,192,111085,1,0,0:0:0:0:
256,192,111329,1,12,0:0:0:0:
256,192,111817,1,0,0:0:0:0:
256,192,111939,1,8,0:0:0:0:
256,192,112061,1,8,0:0:0:0:
256,192,112183,1,8,0:0:0:0:
256,192,112305,1,0,0:0:0:0:
256,192,112427,1,0,0:0:0:0:
256,192,112549,1,8,0:0:0:0:
256,192,112671,1,0,0:0:0:0:
256,192,112793,1,8,0:0:0:0:
256,192,113118,1,0,0:0:0:0:
256,192,113280,1,8,0:0:0:0:
256,192,113768,1,4,0:0:0:0:
256,192,114256,1,8,0:0:0:0:
256,192,114500,1,0,0:0:0:0:
256,192,114744,1,0,0:0:0:0:
256,192,114866,1,8,0:0:0:0:
256,192,115110,1,0,0:0:0:0:
256,192,115232,1,8,0:0:0:0:
256,192,115476,1,8,0:0:0:0:
256,192,115597,1,0,0:0:0:0:
256,192,115719,1,0,0:0:0:0:
256,192,115841,1,8,0:0:0:0:
256,192,116085,1,0,0:0:0:0:
256,192,116207,1,8,0:0:0:0:
256,192,116451,1,8,0:0:0:0:
256,192,116695,1,0,0:0:0:0:
256,192,116817,1,8,0:0:0:0:
256,192,117061,1,0,0:0:0:0:
256,192,117183,1,8,0:0:0:0:
256,192,117305,1,0,0:0:0:0:
256,192,117671,1,4,0:0:0:0:
256,192,118037,1,0,0:0:0:0:
256,192,118158,1,8,0:0:0:0:
256,192,118402,1,8,0:0:0:0:
256,192,118646,1,0,0:0:0:0:
256,192,118768,1,8,0:0:0:0:
256,192,119012,1,0,0:0:0:0:
256,192,119134,1,8,0:0:0:0:
256,192,119256,1,0,0:0:0:0:
256,192,119500,1,8,0:0:0:0:
256,192,119622,1,0,0:0:0:0:
256,192,119866,1,0,0:0:0:0:
256,192,120110,1,12,0:0:0:0:
256,192,120354,1,8,0:0:0:0:
256,192,120476,1,0,0:0:0:0:
256,192,120719,1,8,0:0:0:0:
256,192,120963,1,0,0:0:0:0:
256,192,121085,1,8,0:0:0:0:
256,192,121329,1,8,0:0:0:0:
256,192,121451,1,8,0:0:0:0:
256,192,121573,1,4,0:0:0:0:
256,192,121939,1,0,0:0:0:0:
256,192,122061,1,8,0:0:0:0:
256,192,122305,1,8,0:0:0:0:
256,192,122427,1,0,0:0:0:0:
256,192,122671,1,8,0:0:0:0:
256,192,122915,1,0,0:0:0:0:
256,192,123037,1,8,0:0:0:0:
256,192,123280,1,8,0:0:0:0:
256,192,123524,1,0,0:0:0:0:
256,192,123646,1,8,0:0:0:0:
256,192,123768,1,0,0:0:0:0:
256,192,124012,1,8,0:0:0:0:
256,192,124256,1,8,0:0:0:0:
256,192,124378,1,0,0:0:0:0:
256,192,124622,1,8,0:0:0:0:
256,192,124744,1,0,0:0:0:0:
256,192,124866,1,0,0:0:0:0:
256,192,124988,1,8,0:0:0:0:
256,192,125110,1,0,0:0:0:0:
256,192,125232,1,8,0:0:0:0:
256,192,125476,1,4,0:0:0:0:
256,192,125841,1,0,0:0:0:0:
256,192,125963,1,8,0:0:0:0:
256,192,126329,1,0,0:0:0:0:
256,192,126573,1,8,0:0:0:0:
256,192,126817,1,0,0:0:0:0:
256,192,126939,1,12,0:0:0:0:
256,192,127183,1,0,0:0:0:0:
256,192,127427,1,8,0:0:0:0:
256,192,127589,1,8,0:0:0:0:
256,192,127752,1,0,0:0:0:0:
256,192,127915,1,8,0:0:0:0:
256,192,128077,1,0,0:0:0:0:
256,192,128402,1,8,0:0:0:0:
256,192,128728,1,0,0:0:0:0:
256,192,128890,1,8,0:0:0:0:
256,192,129053,1,0,0:0:0:0:
256,192,129378,1,12,0:0:0:0:
256,192,129703,1,0,0:0:0:0:
256,192,129866,1,8,0:0:0:0:
256,192,130028,1,0,0:0:0:0:
256,192,130191,1,8,0:0:0:0:
256,192,130354,1,8,0:0:0:0:
256,192,130679,1,0,0:0:0:0:
256,192,130841,1,8,0:0:0:0:
256,192,131004,1,8,0:0:0:0:
256,192,131167,1,8,0:0:0:0:
256,192,131329,1,0,0:0:0:0:
256,192,131654,1,8,0:0:0:0:
256,192,131817,1,8,0:0:0:0:
256,192,131980,1,0,0:0:0:0:
256,192,132142,1,8,0:0:0:0:
256,192,132305,1,0,0:0:0:0:
256,192,132630,1,8,0:0:0:0:
256,192,132793,1,8,0:0:0:0:
256,192,132955,1,0,0:0:0:0:
256,192,133280,1,0,0:0:0:0:
256,192,133443,1,0,0:0:0:0:
256,192,133606,1,8,0:0:0:0:
256,192,133768,1,0,0:0:0:0:
256,192,133931,1,0,0:0:0:0:
256,192,134093,1,8,0:0:0:0:
256,192,134256,1,8,0:0:0:0:
256,192,134419,1,0,0:0:0:0:
256,192,134581,1,8,0:0:0:0:
256,192,134744,1,8,0:0:0:0:
256,192,134906,1,0,0:0:0:0:
256,192,135069,1,8,0:0:0:0:
256,192,143768,5,8,0:0:0:0:
256,192,143890,1,8,0:0:0:0:
256,192,144012,1,4,0:0:0:0:
256,192,144256,1,8,0:0:0:0:
256,192,144378,1,8,0:0:0:0:
256,192,144500,1,0,0:0:0:0:
256,192,144622,1,0,0:0:0:0:
256,192,144744,1,8,0:0:0:0:
256,192,144988,1,12,0:0:0:0:
256,192,145232,1,8,0:0:0:0:
256,192,145354,1,0,0:0:0:0:
256,192,145476,1,8,0:0:0:0:
256,192,145597,1,8,0:0:0:0:
256,192,145719,1,0,0:0:0:0:
256,192,145963,1,4,0:0:0:0:
256,192,146207,1,8,0:0:0:0:
256,192,146329,1,0,0:0:0:0:
256,192,146451,1,12,0:0:0:0:
256,192,146695,1,8,0:0:0:0:
256,192,146817,1,8,0:0:0:0:
256,192,146939,1,4,0:0:0:0:
256,192,147183,1,8,0:0:0:0:
256,192,147305,1,0,0:0:0:0:
256,192,147427,1,12,0:0:0:0:
256,192,147671,1,8,0:0:0:0:
256,192,147915,1,4,0:0:0:0:
256,192,148158,1,8,0:0:0:0:
256,192,148280,1,0,0:0:0:0:
256,192,148402,1,8,0:0:0:0:
256,192,148524,1,0,0:0:0:0:
256,192,148646,1,8,0:0:0:0:
256,192,148890,1,4,0:0:0:0:
256,192,149866,1,4,0:0:0:0:
256,192,150110,1,8,0:0:0:0:
256,192,150232,1,0,0:0:0:0:
256,192,150354,1,8,0:0:0:0:
256,192,150415,1,8,0:0:0:0:
256,192,150476,1,8,0:0:0:0:
256,192,150597,1,0,0:0:0:0:
256,192,150719,1,8,0:0:0:0:
256,192,150841,1,0,0:0:0:0:
256,192,151085,1,0,0:0:0:0:
256,192,151329,1,8,0:0:0:0:
256,192,151451,1,0,0:0:0:0:
256,192,151573,1,8,0:0:0:0:
256,192,151817,1,4,0:0:0:0:
256,192,152061,1,8,0:0:0:0:
256,192,152183,1,8,0:0:0:0:
256,192,152305,1,0,0:0:0:0:
256,192,152549,1,8,0:0:0:0:
256,192,152793,1,8,0:0:0:0:
256,192,152915,1,0,0:0:0:0:
256,192,152976,1,0,0:0:0:0:
256,192,153037,1,0,0:0:0:0:
256,192,153158,1,8,0:0:0:0:
256,192,153280,1,0,0:0:0:0:
256,192,153524,1,8,0:0:0:0:
256,192,153646,1,8,0:0:0:0:
256,192,153768,1,0,0:0:0:0:
256,192,154012,1,8,0:0:0:0:
256,192,154256,1,0,0:0:0:0:
256,192,154378,1,0,0:0:0:0:
256,192,154500,1,8,0:0:0:0:
256,192,154744,1,0,0:0:0:0:
256,192,154988,1,8,0:0:0:0:
256,192,155232,1,8,0:0:0:0:
256,192,155354,1,0,0:0:0:0:
256,192,155415,1,0,0:0:0:0:
256,192,155476,1,0,0:0:0:0:
256,192,155597,1,8,0:0:0:0:
256,192,155719,1,0,0:0:0:0:
256,192,155963,1,8,0:0:0:0:
256,192,156451,1,8,0:0:0:0:
256,192,156573,1,8,0:0:0:0:
256,192,156695,1,0,0:0:0:0:
256,192,156939,1,8,0:0:0:0:
256,192,157183,1,0,0:0:0:0:
256,192,157305,1,8,0:0:0:0:
256,192,157366,1,8,0:0:0:0:
256,192,157427,1,8,0:0:0:0:
256,192,157549,1,0,0:0:0:0:
256,192,157671,1,8,0:0:0:0:
256,192,157915,1,8,0:0:0:0:
256,192,158158,1,0,0:0:0:0:
256,192,158280,1,0,0:0:0:0:
256,192,158402,1,8,0:0:0:0:
256,192,158646,1,0,0:0:0:0:
256,192,158890,1,8,0:0:0:0:
256,192,159134,1,8,0:0:0:0:
256,192,159256,1,0,0:0:0:0:
256,192,159378,1,8,0:0:0:0:
256,192,159622,1,4,0:0:0:0:
256,192,159866,1,8,0:0:0:0:
256,192,159988,1,8,0:0:0:0:
256,192,160110,1,0,0:0:0:0:
256,192,160354,1,8,0:0:0:0:
256,192,160597,1,0,0:0:0:0:
256,192,160719,1,8,0:0:0:0:
256,192,160780,1,8,0:0:0:0:
256,192,160841,1,8,0:0:0:0:
256,192,160963,1,0,0:0:0:0:
256,192,161085,1,8,0:0:0:0:
256,192,161329,1,8,0:0:0:0:
256,192,161451,1,8,0:0:0:0:
256,192,161573,1,0,0:0:0:0:
256,192,161817,1,8,0:0:0:0:
256,192,162061,1,8,0:0:0:0:
256,192,162183,1,0,0:0:0:0:
256,192,162305,1,8,0:0:0:0:
256,192,162549,1,0,0:0:0:0:
256,192,162793,1,8,0:0:0:0:
256,192,163037,1,8,0:0:0:0:
256,192,163158,1,0,0:0:0:0:
256,192,163219,1,0,0:0:0:0:
256,192,163280,1,0,0:0:0:0:
256,192,163402,1,8,0:0:0:0:
256,192,163524,1,0,0:0:0:0:
256,192,163768,1,8,0:0:0:0:
256,192,164012,1,0,0:0:0:0:
256,192,164134,1,0,0:0:0:0:
256,192,164256,1,8,0:0:0:0:
256,192,164378,1,8,0:0:0:0:
256,192,164500,1,0,0:0:0:0:
256,192,164744,1,8,0:0:0:0:
256,192,164988,1,0,0:0:0:0:
256,192,165110,1,0,0:0:0:0:
256,192,165232,1,8,0:0:0:0:
256,192,165476,1,0,0:0:0:0:
256,192,165719,1,8,0:0:0:0:
256,192,165963,1,8,0:0:0:0:
256,192,166085,1,0,0:0:0:0:
256,192,166207,1,8,0:0:0:0:
256,192,166329,1,8,0:0:0:0:
256,192,166451,1,0,0:0:0:0:
256,192,166695,1,8,0:0:0:0:
256,192,166817,1,8,0:0:0:0:
256,192,166939,1,0,0:0:0:0:
256,192,167061,1,0,0:0:0:0:
256,192,167183,1,8,0:0:0:0:
256,192,167305,1,0,0:0:0:0:
256,192,167427,1,12,0:0:0:0:
256,192,167793,1,0,0:0:0:0:
256,192,167915,1,8,0:0:0:0:
256,192,168158,1,8,0:0:0:0:
256,192,168280,1,0,0:0:0:0:
256,192,168524,1,8,0:0:0:0:
256,192,168768,1,0,0:0:0:0:
256,192,168890,1,8,0:0:0:0:
256,192,169134,1,8,0:0:0:0:
256,192,169378,1,0,0:0:0:0:
256,192,169744,1,0,0:0:0:0:
256,192,169866,1,8,0:0:0:0:
256,192,170110,1,8,0:0:0:0:
256,192,170232,1,0,0:0:0:0:
256,192,170597,1,0,0:0:0:0:
256,192,170841,1,12,0:0:0:0:
256,192,171329,1,4,0:0:0:0:
256,192,171695,1,0,0:0:0:0:
256,192,171817,1,8,0:0:0:0:
256,192,171939,1,0,0:0:0:0:
256,192,172061,1,0,0:0:0:0:
256,192,172183,1,8,0:0:0:0:
256,192,172305,1,0,0:0:0:0:
256,192,172793,1,12,0:0:0:0:
256,192,173037,1,8,0:0:0:0:
256,192,173158,1,8,0:0:0:0:
256,192,173280,1,4,0:0:0:0:
256,192,173646,1,0,0:0:0:0:
256,192,173768,1,8,0:0:0:0:
256,192,173890,1,0,0:0:0:0:
256,192,174012,1,8,0:0:0:0:
256,192,174134,1,8,0:0:0:0:
256,192,174256,1,0,0:0:0:0:
256,192,174744,1,12,0:0:0:0:
256,192,174988,1,8,0:0:0:0:
256,192,175110,1,8,0:0:0:0:
256,192,175232,1,4,0:0:0:0:
256,192,175476,1,8,0:0:0:0:
256,192,175597,1,8,0:0:0:0:
256,192,175719,1,0,0:0:0:0:
256,192,175841,1,8,0:0:0:0:
256,192,175902,1,8,0:0:0:0:
256,192,175963,1,8,0:0:0:0:
256,192,176085,1,0,0:0:0:0:
256,192,176207,1,8,0:0:0:0:
256,192,176573,1,0,0:0:0:0:
256,192,176695,1,8,0:0:0:0:
256,192,176817,1,0,0:0:0:0:
256,192,177183,1,12,0:0:0:0:
256,192,178158,1,8,0:0:0:0:
256,192,178280,1,0,0:0:0:0:
256,192,178524,1,0,0:0:0:0:
256,192,178646,1,8,0:0:0:0:
256,192,178768,1,0,0:0:0:0:
256,192,179134,1,12,0:0:0:0:
256,192,179622,1,8,0:0:0:0:
256,192,179744,1,0,0:0:0:0:
256,192,179988,1,0,0:0:0:0:
256,192,180110,1,8,0:0:0:0:
256,192,180232,1,8,0:0:0:0:
256,192,180354,1,0,0:0:0:0:
256,192,180597,1,12,0:0:0:0:
256,192,181085,1,0,0:0:0:0:
256,192,181329,1,12,0:0:0:0:
256,192,181573,1,12,0:0:0:0:
256,192,181939,1,12,0:0:0:0:
256,192,182183,1,12,0:0:0:0:
256,192,182427,1,0,0:0:0:0:
256,192,182549,1,8,0:0:0:0:
256,192,182793,1,0,0:0:0:0:
256,192,183037,1,12,0:0:0:0:
256,192,183768,1,0,0:0:0:0:
256,192,183890,1,8,0:0:0:0:
