osu file format v14

[General]
AudioFilename: audio.mp3
AudioLeadIn: 0
PreviewTime: 76805
Countdown: 0
SampleSet: Soft
StackLeniency: 0.6
Mode: 0
LetterboxInBreaks: 0
WidescreenStoryboard: 1

[Editor]
Bookmarks: 5430,21430,37430,53430,61430,77430,97430,113430,133430,153430,171430,187430,211430
DistanceSpacing: 1
BeatDivisor: 4
GridSize: 32
TimelineZoom: 2.3

[Metadata]
Title:Lil'b
TitleUnicode:リルビィ
Artist:Kuhaku Gokko
ArtistUnicode:空白ごっこ
Creator:Petal
Version:Normal
Source:
Tags:japanese jpop pop j-pop rock jrock j-rock rirubyi rirubii 1st ep セツコ setsuko matha A_little_bit Lil’b KuhakuGokko agatsu seros torriru koldnoodl koyori
BeatmapID:3448266
BeatmapSetID:1561567

[Difficulty]
HPDrainRate:4
CircleSize:3.5
OverallDifficulty:4
ApproachRate:5.2
SliderMultiplier:1.6
SliderTickRate:1

[Events]
//Background and Video events
0,0,"BG.png",0,0
//Break Periods
2,153617,167247
//Storyboard Layer 0 (Background)
//Storyboard Layer 1 (Fail)
//Storyboard Layer 2 (Pass)
//Storyboard Layer 3 (Foreground)
//Storyboard Layer 4 (Overlay)
//Storyboard Sound Samples

[TimingPoints]
-583,500,4,2,1,15,1,0
5417,-100,4,2,1,45,0,0
19417,-100,4,2,1,55,0,0
20417,-100,4,2,1,65,0,0
21417,-90.9090909090909,4,2,1,70,0,0
37417,-90.9090909090909,4,2,1,45,0,0
37917,-111.111111111111,4,2,1,45,0,0
51916,-111.111111111111,4,2,1,55,0,0
53417,-90.9090909090909,4,2,1,65,0,0
61417,-100,4,2,1,55,0,0
74417,-100,4,2,1,65,0,0
77417,-100,4,2,1,80,0,1
77542,-90.9090909090909,4,2,1,80,0,1
93417,-90.9090909090909,4,2,1,60,0,0
95417,-100,4,2,1,40,0,0
97417,-90.9090909090909,4,2,1,70,0,0
113917,-111.111111111111,4,2,1,45,0,0
133417,-111.111111111111,4,2,1,80,0,1
133542,-90.9090909090909,4,2,1,80,0,1
149417,-90.9090909090909,4,2,1,60,0,0
151417,-100,4,2,1,40,0,0
153417,-100,4,2,1,50,0,0
170417,-100,4,2,1,20,0,0
171417,-100,4,2,1,85,0,1
171542,-90.9090909090909,4,2,1,85,0,1
187417,-90.9090909090909,4,2,1,80,0,0
203417,-90.9090909090909,4,2,1,50,0,0
204292,-111.111111111111,4,2,1,50,0,0
211416,-111.111111111111,4,2,1,20,0,0

[Colours]
Combo1 : 255,128,64
Combo2 : 0,149,149
Combo3 : 128,128,192
Combo4 : 64,128,128

[HitObjects]
87,20,5417,6,0,L|-3:37,2,80,2|2|8,3:0|2:3|2:0,2:0:0:0:
160,51,6167,1,2,2:3:0:0:
170,52,6292,2,0,L|220:41,1,40,8|0,2:0|2:0,2:0:0:0:
280,80,6667,2,0,L|264:167,1,80,2|8,3:0|2:0,2:0:0:0:
322,215,7167,1,2,2:3:0:0:
269,275,7417,6,0,L|176:292,2,80,0|2|8,3:0|2:3|2:0,2:0:0:0:
317,338,8167,2,0,L|401:359,1,80,2|0,2:1|2:0,2:0:0:0:
471,333,8667,2,0,B|487:315|487:315|478:241,1,80,2|8,3:1|2:0,2:0:0:0:
429,197,9167,1,2,2:3:0:0:
434,117,9417,6,0,L|529:139,2,80,0|2|8,3:0|2:3|2:0,2:0:0:0:
378,59,10167,1,2,2:3:0:0:
368,58,10292,2,0,L|318:69,1,40,8|0,2:0|2:0,2:0:0:0:
266,116,10667,2,0,L|285:212,1,80,2|8,3:0|2:0,2:0:0:0:
229,255,11167,1,2,2:3:0:0:
158,217,11417,6,0,B|139:209|139:209|71:225,2,80,0|2|8,3:0|2:3|2:0,2:0:0:0:
229,255,12167,2,0,L|248:351,1,80,2|0,2:1|2:0,2:0:0:0:
311,377,12667,2,0,L|391:361,1,80,2|8,3:1|2:0,2:0:0:0:
467,379,13167,1,2,2:3:0:0:
449,300,13417,6,0,L|463:209,2,80,0|2|8,3:0|2:3|2:0,2:0:0:0:
371,280,14167,1,2,2:3:0:0:
366,269,14292,2,0,L|373:219,1,40,8|0,2:0|2:0,2:0:0:0:
331,159,14667,2,0,P|298:141|253:157,1,80,2|8,3:0|2:0,2:0:0:0:
194,199,15167,1,2,2:3:0:0:
124,159,15417,6,0,L|38:175,2,80,0|2|8,3:0|2:3|2:0,2:0:0:0:
158,86,16167,2,0,L|169:-7,1,80,2|0,2:1|2:0,2:0:0:0:
247,16,16667,2,0,L|325:1,1,80,2|8,3:1|2:0,2:0:0:0:
388,49,17167,1,2,2:3:0:0:
450,99,17417,6,0,B|471:86|471:86|479:19,2,80,0|2|8,3:0|2:3|2:0,2:0:0:0:
387,149,18167,1,2,2:3:0:0:
379,158,18292,2,0,L|389:206,1,40,8|0,2:0|2:0,2:0:0:0:
434,261,18667,2,0,P|413:279|360:271,1,80,2|8,3:0|2:0,2:0:0:0:
299,226,19167,1,2,2:3:0:0:
235,274,19417,6,0,L|226:327,2,40,0|0|0,3:0|1:0|1:0,2:0:0:0:
173,222,19917,1,0,1:0:0:0:
160,219,20042,1,0,3:0:0:0:
52,164,20417,2,0,L|44:118,1,40,0|0,1:0|3:0,2:0:0:0:
132,42,20917,1,0,1:0:0:0:
145,39,21042,1,0,3:0:0:0:
267,88,21417,6,0,L|370:107,2,88.000002685547,6|2|2,3:2|2:0|1:2,2:0:0:0:
196,140,22167,1,2,2:0:0:0:
190,150,22292,2,0,L|210:255,1,88.000002685547,0|0,3:0|1:0,2:0:0:0:
190,277,22667,1,2,3:2:0:0:
153,356,22917,1,0,1:0:0:0:
236,383,23167,1,2,2:0:0:0:
276,305,23417,6,0,L|365:338,1,88.000002685547,0|2,3:0|2:3,2:0:0:0:
440,292,23917,2,0,L|428:237,1,44.0000013427735,0|0,1:0|2:0,2:0:0:0:
445,207,24167,2,0,L|423:106,1,88.000002685547,2|0,2:1|2:0,2:0:0:0:
446,35,24667,2,0,P|404:26|368:58,1,88.000002685547,2|0,3:1|1:0,2:0:0:0:
284,31,25167,1,2,2:0:0:0:
233,103,25417,6,0,L|252:206,2,88.000002685547,2|2|2,3:2|2:0|1:2,2:0:0:0:
158,56,26167,1,2,2:0:0:0:
149,49,26292,2,0,L|63:64,1,88.000002685547,0|0,3:0|1:0,2:0:0:0:
30,95,26667,2,0,P|18:145|42:180,1,88.000002685547,2|0,3:2|1:0,2:0:0:0:
112,216,27167,1,2,2:0:0:0:
108,303,27417,6,0,B|138:294|138:294|240:339,1,132.00000402832,0|0,3:0|2:0,2:0:0:0:
268,311,27917,1,0,1:0:0:0:
333,370,28167,2,0,L|435:351,1,88.000002685547,2|0,2:1|2:0,2:0:0:0:
473,284,28667,2,0,P|479:247|432:204,1,88.000002685547,2|0,3:1|1:0,2:0:0:0:
368,173,29167,1,2,2:0:0:0:
413,97,29417,6,0,L|512:110,2,88.000002685547,2|2|2,3:2|2:0|1:2,2:0:0:0:
347,37,30167,1,2,2:0:0:0:
338,28,30292,2,0,L|235:14,1,88.000002685547,0|0,3:0|1:0,2:0:0:0:
214,41,30667,1,2,3:2:0:0:
235,126,30917,1,0,1:0:0:0:
167,182,31167,1,2,2:0:0:0:
187,267,31417,6,0,P|174:303|54:293,1,176.000005371094,0|0,3:0|1:0,2:0:0:0:
2,230,32167,2,0,L|14:136,1,88.000002685547,2|0,2:1|2:0,2:0:0:0:
1,55,32667,2,0,B|23:39|23:39|95:51,1,88.000002685547,2|0,3:1|1:0,2:0:0:0:
158,2,33167,1,2,2:0:0:0:
222,62,33417,6,0,L|208:156,2,88.000002685547,2|2|0,3:2|2:0|1:0,2:0:0:0:
292,9,34167,1,2,2:0:0:0:
300,19,34292,2,0,L|394:34,1,88.000002685547,0|0,3:0|1:0,2:0:0:0:
416,65,34667,2,0,P|425:113|401:149,1,88.000002685547,2|0,3:2|1:0,2:0:0:0:
325,180,35167,1,2,2:0:0:0:
379,248,35417,6,0,L|428:237,2,44.0000013427735,0|0|0,1:0|1:0|1:0,2:0:0:0:
326,318,35917,1,0,1:0:0:0:
315,320,36042,1,0,3:0:0:0:
210,239,36417,2,0,L|201:187,2,44.0000013427735,0|0|0,1:0|1:0|2:0,2:0:0:0:
174,319,36917,2,0,L|120:329,1,44.0000013427735,0|0,1:0|3:0,2:0:0:0:
87,338,37167,1,0,2:0:0:0:
21,279,37417,5,6,3:2:0:0:
131,165,37917,2,0,L|115:49,1,107.999996704102,2|2,1:2|3:2,2:0:0:0:
116,18,38417,2,0,L|38:29,2,71.9999978027344,2|2|2,2:0|3:2|1:2,2:0:0:0:
194,5,39167,1,2,2:0:0:0:
253,57,39417,2,0,L|336:44,1,71.9999978027344,0|0,3:0|2:0,2:0:0:0:
402,34,39917,1,0,1:0:0:0:
420,191,40417,6,0,L|404:272,2,71.9999978027344,2|2|2,2:0|3:2|1:2,2:0:0:0:
387,115,41167,1,2,2:0:0:0:
402,34,41417,1,0,3:0:0:0:
282,137,41917,6,0,L|197:153,1,71.9999978027344,2|2,1:2|2:0,2:0:0:0:
137,122,42417,2,0,P|92:167|122:234,1,143.999995605469,2|2,2:0|1:2,2:0:0:0:
139,309,43167,1,2,2:0:0:0:
79,361,43417,6,0,L|-2:377,2,71.9999978027344,0|0|0,3:0|2:0|1:0,2:0:0:0:
139,309,44167,1,2,2:0:0:0:
151,311,44292,2,0,L|230:326,1,71.9999978027344,0|2,3:0|2:0,2:0:0:0:
286,279,44792,1,2,2:0:0:0:
363,295,45042,2,0,L|409:304,1,35.9999989013672,2|2,2:0|2:0,2:0:0:0:
462,255,45417,1,0,3:0:0:0:
345,147,45917,6,0,L|261:135,1,71.9999978027344,2|2,1:2|2:0,2:0:0:0:
195,127,46417,2,0,L|186:90,2,35.9999989013672,2|2|2,2:0|2:0|3:2,2:0:0:0:
151,192,46917,1,2,1:2:0:0:
76,165,47167,2,0,B|55:150|55:150|63:97,1,71.9999978027344,2|0,2:0|3:0,2:0:0:0:
55,25,47667,2,0,L|139:38,1,71.9999978027344,2|0,2:0|1:0,2:0:0:0:
282,58,48417,6,0,B|302:76|302:76|423:43,1,143.999995605469,2|2,2:0|1:2,2:0:0:0:
477,93,49167,1,2,2:0:0:0:
434,159,49417,2,0,L|466:310,1,143.999995605469,0|2,3:0|1:2,2:0:0:0:
420,366,50167,1,2,2:0:0:0:
410,358,50292,2,0,L|329:376,1,71.9999978027344,0|0,3:0|2:0,2:0:0:0:
288,312,50792,2,0,L|236:303,1,35.9999989013672,2|2,2:0|1:2,2:0:0:0:
180,339,51167,1,2,2:0:0:0:
102,323,51417,6,0,B|25:309,2,71.9999978027344,0|0|6,3:0|2:0|1:2,2:0:0:0:
153,262,52167,2,0,L|171:182,1,71.9999978027344,2|0,2:1|1:0,2:0:0:0:
127,123,52667,2,0,L|88:132,2,35.9999989013672,2|0|0,2:1|3:0|1:0,2:0:0:0:
196,85,53167,1,2,2:1:0:0:
276,48,53417,6,0,L|368:66,2,88.000002685547,6|2|2,3:2|2:0|1:2,2:0:0:0:
271,136,54167,1,2,2:0:0:0:
264,145,54292,2,0,L|283:243,1,88.000002685547,0|0,3:0|2:0,2:0:0:0:
261,270,54667,2,0,P|231:292|175:277,1,88.000002685547,2|0,3:2|1:0,2:0:0:0:
133,210,55167,1,2,2:0:0:0:
45,221,55417,6,0,L|74:356,1,132.00000402832,0|0,3:0|2:0,2:0:0:0:
112,369,55917,1,0,1:0:0:0:
199,373,56167,2,0,L|287:384,1,88.000002685547,2|0,2:1|2:0,2:0:0:0:
370,357,56667,2,0,B|391:338|391:338|380:260,1,88.000002685547,2|0,3:1|1:0,2:0:0:0:
327,210,57167,1,2,2:0:0:0:
404,167,57417,6,0,L|498:185,2,88.000002685547,2|2|2,3:2|2:0|1:2,2:0:0:0:
339,106,58167,1,2,2:0:0:0:
333,98,58292,2,0,L|351:3,1,88.000002685547,0|0,3:0|2:0,2:0:0:0:
305,6,58667,2,0,L|204:23,1,88.000002685547,2|0,3:2|1:0,2:0:0:0:
131,2,59167,1,2,2:0:0:0:
62,57,59417,6,0,P|54:95|94:138,1,88.000002685547,0|0,3:0|2:0,2:0:0:0:
164,161,59917,1,0,1:0:0:0:
172,169,60042,2,0,L|155:273,1,88.000002685547,0|0,3:0|3:0,2:0:0:0:
126,287,60417,2,0,L|117:341,1,44.0000013427735,0|0,1:0|3:0,2:0:0:0:
233,384,60917,2,0,L|289:372,2,44.0000013427735,0|0|2,1:0|3:0|2:3,2:0:0:0:
227,304,61417,6,0,L|318:283,1,80,6|2,3:2|2:3,2:0:0:0:
370,240,61917,2,0,L|428:251,2,40,2|2|2,1:2|2:0|2:0,2:0:0:0:
341,211,62292,2,0,L|320:84,1,120,2|2,3:2|3:2,2:0:0:0:
305,13,62917,1,2,1:2:0:0:
225,24,63167,1,2,2:0:0:0:
145,35,63417,6,0,P|97:22|18:105,1,160,0|0,3:0|1:0,2:0:0:0:
99,226,64417,2,0,L|119:321,1,80,2|2,2:0|3:2,2:0:0:0:
178,353,64917,2,0,L|266:335,1,80,2|2,1:2|2:0,2:0:0:0:
288,263,65417,1,0,3:0:0:0:
449,246,65917,6,0,L|506:257,2,40,2|2|2,1:2|2:0|2:0,2:0:0:0:
404,178,66417,2,0,L|389:83,1,80,2|2,2:0|3:2,2:0:0:0:
325,53,66917,1,2,1:2:0:0:
268,110,67167,1,2,2:0:0:0:
212,167,67417,6,0,L|43:193,1,160,0|0,3:0|1:0,2:0:0:0:
29,115,68167,1,2,2:0:0:0:
35,105,68292,2,0,L|126:92,1,80,0|2,3:0|2:3,2:0:0:0:
169,35,68792,1,2,3:0:0:0:
175,25,68917,2,0,L|266:12,1,80,0|2,1:0|2:3,2:0:0:0:
325,53,69417,1,0,3:0:0:0:
478,7,69917,6,0,L|464:101,1,80,2|2,1:2|2:0,2:0:0:0:
411,144,70417,1,2,2:0:0:0:
396,222,70667,1,2,3:2:0:0:
458,272,70917,1,2,1:2:0:0:
409,335,71167,2,0,B|393:353|393:353|258:321,1,160,2|2,2:0|2:0,2:0:0:0:
233,246,71917,1,0,1:0:0:0:
156,270,72167,2,0,L|139:191,1,80,2|0,2:0|2:0,2:0:0:0:
112,116,72667,6,0,L|18:137,2,80,2|2|2,3:2|1:2|2:0,2:0:0:0:
162,54,73417,2,0,P|215:38|269:116,1,160,2|2,3:2|1:2,2:0:0:0:
300,186,74167,2,0,L|356:175,1,40,2|0,2:0|1:0,2:0:0:0:
365,147,74417,2,0,L|452:130,1,80,2|0,2:0|3:0,2:0:0:0:
508,178,74917,1,0,1:0:0:0:
456,239,75167,1,4,3:0:0:0:
491,310,75417,6,0,L|481:355,1,40,2|0,1:2|3:0,2:0:0:0:
404,331,75792,2,0,L|351:344,1,40,2|0,1:2|3:0,2:0:0:0:
332,267,76167,1,2,1:2:0:0:
253,252,76417,1,6,3:2:0:0:
35,49,77417,5,6,3:2:0:0:
44,55,77542,2,0,L|155:32,1,88.000002685547,2|0,2:0|2:0,2:0:0:0:
172,49,77917,2,0,P|194:89|169:137,1,88.000002685547,2|0,1:2|2:0,2:0:0:0:
114,184,78417,2,0,L|48:174,2,44.0000013427735,2|2|2,2:0|2:0|3:2,2:0:0:0:
164,256,78917,2,0,L|273:273,1,88.000002685547,2|0,1:2|2:0,2:0:0:0:
325,221,79417,6,0,L|355:318,1,88.000002685547,2|2,3:2|2:0,2:0:0:0:
430,343,79917,1,2,1:2:0:0:
493,281,80167,1,2,2:0:0:0:
426,223,80417,2,0,L|399:138,1,88.000002685547,2|0,2:0|3:0,2:0:0:0:
443,62,80917,2,0,L|486:71,2,44.0000013427735,2|2|2,1:2|2:0|2:0,2:0:0:0:
368,14,81417,6,0,B|347:1|347:1|263:20,1,88.000002685547,2|2,3:2|2:0,2:0:0:0:
206,54,81917,2,0,L|143:41,2,44.0000013427735,2|2|2,1:2|2:0|2:0,2:0:0:0:
232,89,82292,1,2,3:2:0:0:
130,172,82667,1,0,3:0:0:0:
187,238,82917,2,0,L|203:350,1,88.000002685547,0|2,1:0|2:0,2:0:0:0:
118,360,83417,1,2,3:2:0:0:
112,370,83542,6,0,P|60:378|34:331,1,88.000002685547,2|2,2:0|2:0,2:0:0:0:
32,311,83917,1,0,1:0:0:0:
45,179,84292,2,0,L|22:24,1,132.00000402832,2|0,3:2|1:0,2:0:0:0:
104,8,84917,1,0,1:0:0:0:
161,74,85167,1,2,2:0:0:0:
240,36,85417,5,6,3:2:0:0:
249,29,85542,2,0,L|353:43,1,88.000002685547,2|2,2:0|2:0,2:0:0:0:
370,68,85917,2,0,P|381:119|353:150,1,88.000002685547,2|0,1:2|2:0,2:0:0:0:
288,194,86417,2,0,L|236:186,2,44.0000013427735,2|2|2,2:0|1:2|3:2,2:0:0:0:
340,264,86917,2,0,L|461:285,1,88.000002685547,2|0,1:2|2:0,2:0:0:0:
407,365,87417,6,0,L|311:348,1,88.000002685547,2|2,3:2|2:0,2:0:0:0:
253,291,87917,1,2,1:2:0:0:
202,363,88167,1,2,2:0:0:0:
121,326,88417,2,0,L|102:227,1,88.000002685547,2|0,2:0|3:0,2:0:0:0:
70,157,88917,1,2,1:2:0:0:
77,148,89042,2,0,L|176:168,1,88.000002685547,2|2,2:0|2:0,2:0:0:0:
197,137,89417,6,0,L|298:161,1,88.000002685547,2|2,3:2|2:0,2:0:0:0:
370,168,89917,2,0,L|386:230,2,44.0000013427735,2|2|2,1:2|2:0|2:0,2:0:0:0:
396,132,90292,1,2,3:2:0:0:
360,13,90667,1,2,3:2:0:0:
273,27,90917,2,0,L|172:44,1,88.000002685547,2|2,1:2|2:0,2:0:0:0:
100,20,91417,6,0,B|89:39|89:39|116:168,1,132.00000402832,2|0,1:2|3:0,2:0:0:0:
90,185,91917,1,2,1:2:0:0:
159,239,92167,2,0,L|277:259,1,88.000002685547,2|0,2:0|1:0,2:0:0:0:
315,199,92667,1,2,2:0:0:0:
377,260,92917,2,0,L|359:356,1,88.000002685547,2|0,1:2|2:0,2:0:0:0:
281,383,93417,5,2,2:0:0:0:
27,53,95417,6,0,L|151:73,1,120,2|2,2:3|2:3,2:0:0:0:
179,51,95917,1,2,3:0:0:0:
300,154,96417,1,2,2:0:0:0:
233,197,96667,2,2,B|213:209|213:209|61:185,1,160,2|0,3:2|1:0,2:0:0:0:
15,249,97417,6,0,L|28:346,2,88.000002685547,6|2|2,3:2|2:0|1:2,2:0:0:0:
77,187,98167,1,0,1:0:0:0:
82,176,98292,2,0,L|70:88,1,88.000002685547,0|0,3:0|1:0,2:0:0:0:
97,53,98667,1,2,3:2:0:0:
184,41,98917,1,0,1:0:0:0:
249,99,99167,1,2,2:0:0:0:
336,89,99417,6,0,B|365:65|365:65|336:225,1,176.000005371094,2|0,3:0|1:0,2:0:0:0:
260,237,100167,2,0,L|276:335,1,88.000002685547,2|0,1:0|2:0,2:0:0:0:
357,354,100667,2,0,B|374:367|374:367|461:346,1,88.000002685547,2|0,3:1|1:0,2:0:0:0:
480,274,101167,1,2,1:2:0:0:
449,191,101417,6,0,L|465:92,2,88.000002685547,2|2|2,3:2|2:0|1:2,2:0:0:0:
367,225,102167,1,0,1:0:0:0:
360,233,102292,2,0,L|270:215,1,88.000002685547,0|0,3:0|1:0,2:0:0:0:
246,181,102667,1,2,3:2:0:0:
175,233,102917,1,0,1:0:0:0:
111,171,103167,1,2,2:0:0:0:
35,216,103417,6,0,L|10:32,1,176.000005371094,2|2,3:0|1:3,2:0:0:0:
90,1,104167,1,2,1:0:0:0:
97,11,104292,2,0,L|199:32,1,88.000002685547,0|0,3:0|3:0,2:0:0:0:
213,60,104667,2,0,L|315:81,1,88.000002685547,2|0,3:1|1:0,2:0:0:0:
368,23,105167,1,2,1:2:0:0:
435,79,105417,6,0,B|460:72|460:72|499:3,2,88.000002685547,2|2|2,3:2|2:0|1:2,2:0:0:0:
370,139,106167,2,0,L|388:253,1,88.000002685547,0|0,1:0|2:0,2:0:0:0:
456,275,106667,2,0,L|471:374,1,88.000002685547,2|0,3:2|1:0,2:0:0:0:
382,376,107167,1,2,2:0:0:0:
314,319,107417,5,2,3:0:0:0:
305,311,107542,2,0,L|184:326,1,88.000002685547,0|0,2:0|2:0,2:0:0:0:
187,354,107917,1,2,1:3:0:0:
123,292,108167,2,0,L|142:193,1,88.000002685547,2|0,1:0|2:0,2:0:0:0:
102,125,108667,2,0,B|88:113|88:113|106:31,1,88.000002685547,2|0,3:1|1:0,2:0:0:0:
180,2,109167,1,2,1:2:0:0:
254,49,109417,6,0,L|355:30,2,88.000002685547,2|2|2,3:2|2:0|1:2,2:0:0:0:
221,131,110167,1,0,1:0:0:0:
215,142,110292,2,0,L|240:257,1,88.000002685547,0|0,3:0|1:0,2:0:0:0:
266,257,110667,1,2,3:2:0:0:
233,338,110917,1,0,1:0:0:0:
316,365,111167,1,2,2:0:0:0:
385,311,111417,6,0,B|416:284|416:284|385:122,1,176.000005371094,2|0,3:0|1:0,2:0:0:0:
325,92,112167,1,0,1:0:0:0:
329,77,112292,1,4,3:2:0:0:
265,16,112542,2,0,L|202:26,1,44.0000013427735,0|0,1:0|3:0,2:0:0:0:
160,86,112917,2,0,L|104:95,2,44.0000013427735,0|0|0,1:0|3:0|1:0,2:0:0:0:
214,144,113417,5,6,3:2:0:0:
75,220,113917,2,0,L|57:335,1,107.999996704102,2|2,1:2|3:2,2:0:0:0:
70,364,114417,2,0,L|-1:374,2,71.9999978027344,2|2|2,2:0|3:2|1:2,2:0:0:0:
138,324,115167,1,2,2:0:0:0:
215,342,115417,2,0,L|315:363,1,71.9999978027344,0|0,3:0|2:0,2:0:0:0:
351,313,115917,1,0,1:0:0:0:
259,183,116417,6,0,L|271:253,2,71.9999978027344,2|2|2,2:0|3:2|1:2,2:0:0:0:
315,127,117167,1,2,2:0:0:0:
245,88,117417,1,0,3:0:0:0:
95,140,117917,6,0,P|33:139|8:85,1,107.999996704102,2|2,1:2|3:2,2:0:0:0:
26,69,118417,2,0,L|9:-16,2,71.9999978027344,2|2|2,2:0|3:2|1:2,2:0:0:0:
102,64,119167,2,0,L|262:90,1,143.999995605469,2|0,2:0|3:0,2:0:0:0:
309,42,119917,1,0,1:0:0:0:
375,85,120167,1,2,2:0:0:0:
382,94,120292,2,0,L|366:189,1,71.9999978027344,0|2,3:0|1:2,2:0:0:0:
305,209,120792,1,2,2:0:0:0:
352,272,121042,2,0,L|403:261,1,35.9999989013672,2|2,2:0|2:0,2:0:0:0:
447,315,121417,5,0,3:0:0:0:
298,370,121917,2,0,L|168:352,1,107.999996704102,2|2,1:2|3:2,2:0:0:0:
168,322,122417,2,0,L|147:235,2,71.9999978027344,2|2|2,2:0|3:2|1:2,2:0:0:0:
95,353,123167,2,0,L|62:210,1,143.999995605469,2|0,2:0|3:2,2:0:0:0:
111,150,123917,1,0,1:0:0:0:
62,87,124167,2,0,L|51:45,1,35.9999989013672,0|0,3:0|3:0,2:0:0:0:
85,28,124417,6,0,L|183:44,1,71.9999978027344,2|2,2:0|3:2,2:0:0:0:
230,14,124917,2,0,L|328:30,1,71.9999978027344,2|2,1:2|2:0,2:0:0:0:
350,87,125417,5,0,3:0:0:0:
503,48,125917,2,0,L|512:9,2,35.9999989013672,2|2|2,1:2|2:0|2:0,2:0:0:0:
438,93,126417,2,0,L|420:172,1,71.9999978027344,2|2,2:0|3:2,2:0:0:0:
402,240,126917,1,2,1:2:0:0:
454,299,127167,1,2,2:0:0:0:
401,358,127417,6,0,B|371:373|371:373|244:343,1,143.999995605469,0|0,3:0|1:0,2:0:0:0:
209,289,128167,1,2,2:0:0:0:
199,297,128292,2,0,L|101:313,1,71.9999978027344,0|2,3:0|3:2,2:0:0:0:
64,261,128792,1,2,2:0:0:0:
103,192,129042,2,0,L|91:137,1,35.9999989013672,2|2,2:0|2:0,2:0:0:0:
32,108,129417,5,0,3:0:0:0:
161,16,129917,2,0,L|288:35,1,107.999996704102,2|2,1:2|3:2,2:0:0:0:
296,59,130417,2,0,L|392:76,2,71.9999978027344,2|2|2,2:0|3:2|1:2,2:0:0:0:
243,118,131167,1,2,2:0:0:0:
257,195,131417,5,0,3:0:0:0:
452,321,133417,5,6,3:2:0:0:
444,332,133542,2,0,L|338:347,1,88.000002685547,2|2,2:0|2:0,2:0:0:0:
319,320,133917,2,0,P|300:274|323:227,1,88.000002685547,2|0,1:2|2:0,2:0:0:0:
371,174,134417,2,0,L|431:165,2,44.0000013427735,2|2|2,2:0|1:2|3:2,2:0:0:0:
297,124,134917,2,0,L|201:138,1,88.000002685547,2|0,1:2|2:0,2:0:0:0:
135,89,135417,6,0,B|111:97|111:97|90:176,1,88.000002685547,0|2,3:0|2:0,2:0:0:0:
29,216,135917,1,2,1:2:0:0:
88,281,136167,1,2,2:0:0:0:
50,360,136417,2,0,L|156:377,1,88.000002685547,2|0,2:0|3:0,2:0:0:0:
203,316,136917,2,0,L|191:245,2,44.0000013427735,2|2|2,1:2|2:0|2:0,2:0:0:0:
284,350,137417,6,0,P|335:347|363:258,1,132.00000402832,2|0,3:2|2:0,2:0:0:0:
396,245,137917,2,0,L|384:174,1,44.0000013427735,2|2,1:2|2:0,2:0:0:0:
317,150,138292,1,2,3:2:0:0:
360,73,138542,1,0,1:0:0:0:
370,66,138667,2,0,L|478:85,1,88.000002685547,0|0,3:0|1:0,2:0:0:0:
501,157,139167,1,2,2:0:0:0:
484,243,139417,5,2,3:2:0:0:
481,254,139542,2,0,B|459:265|459:265|390:250,1,88.000002685547,2|0,2:0|2:0,2:0:0:0:
358,273,139917,2,0,L|243:246,1,88.000002685547,2|2,1:2|2:0,2:0:0:0:
246,217,140292,1,2,3:2:0:0:
182,278,140542,2,0,L|113:289,1,44.0000013427735,0|0,1:0|3:0,2:0:0:0:
51,298,140917,1,2,1:2:0:0:
29,212,141167,1,2,2:0:0:0:
95,154,141417,5,6,3:2:0:0:
106,148,141542,2,0,L|87:47,1,88.000002685547,2|2,2:0|2:0,2:0:0:0:
118,28,141917,2,0,B|139:9|139:9|223:19,1,88.000002685547,2|2,1:2|2:0,2:0:0:0:
275,58,142417,2,0,L|342:44,2,44.0000013427735,2|2|2,2:0|2:0|3:2,2:0:0:0:
229,133,142917,2,0,L|255:238,1,88.000002685547,2|0,1:2|2:0,2:0:0:0:
335,241,143417,6,0,P|403:245|441:305,1,132.00000402832,2|2,3:2|2:0,2:0:0:0:
437,336,143917,1,2,1:2:0:0:
351,357,144167,1,2,2:0:0:0:
264,375,144417,2,0,L|155:354,1,88.000002685547,2|0,2:0|3:0,2:0:0:0:
121,290,144917,2,0,L|58:303,1,44.0000013427735,2|2,1:2|2:0,2:0:0:0:
26,226,145292,1,2,2:0:0:0:
19,215,145417,6,0,L|32:115,1,88.000002685547,2|2,3:2|2:0,2:0:0:0:
102,77,145917,2,0,L|167:89,1,44.0000013427735,2|0,1:2|2:0,2:0:0:0:
175,117,146167,1,2,2:0:0:0:
184,126,146292,2,0,L|289:142,1,88.000002685547,2|2,3:2|1:2,2:0:0:0:
302,108,146667,1,2,3:2:0:0:
338,188,146917,1,0,1:0:0:0:
419,155,147167,1,2,2:0:0:0:
450,237,147417,6,0,L|431:332,1,88.000002685547,2|2,1:2|2:0,2:0:0:0:
358,369,147917,1,2,1:2:0:0:
295,307,148167,1,2,2:0:0:0:
232,362,148417,2,0,L|173:371,1,44.0000013427735,0|0,1:0|3:0,2:0:0:0:
110,327,148792,1,0,3:0:0:0:
100,317,148917,2,0,L|85:217,1,88.000002685547,0|2,1:0|2:0,2:0:0:0:
151,169,149417,5,2,2:0:0:0:
502,75,151417,6,0,L|361:49,1,120,2|2,3:2|3:2,2:0:0:0:
349,72,151917,1,2,1:2:0:0:
192,39,152417,1,2,2:0:0:0:
136,96,152667,1,0,3:0:0:0:
132,107,152792,2,0,L|145:156,2,40,0|0|0,1:0|1:0|1:0,2:0:0:0:
60,71,153292,1,0,1:0:0:0:
46,76,153417,5,2,3:2:0:0:
256,192,168417,12,0,170417,2:0:0:0:
471,34,171417,5,6,3:2:0:0:
463,45,171542,2,0,L|357:30,1,88.000002685547,2|2,2:0|2:0,2:0:0:0:
341,59,171917,2,0,P|320:98|350:144,1,88.000002685547,2|0,1:2|2:0,2:0:0:0:
406,187,172417,2,0,L|394:260,1,44.0000013427735,2|2,2:0|2:0,2:0:0:0:
389,273,172667,1,2,3:2:0:0:
420,355,172917,2,0,L|309:373,1,88.000002685547,2|0,1:2|2:0,2:0:0:0:
245,382,173417,6,0,B|222:370|222:370|212:286,1,88.000002685547,2|2,3:2|2:0,2:0:0:0:
159,239,173917,1,2,1:2:0:0:
99,304,174167,1,2,2:0:0:0:
28,250,174417,2,0,L|17:142,1,88.000002685547,2|0,2:0|3:0,2:0:0:0:
64,86,174917,2,0,L|56:25,2,44.0000013427735,2|2|2,1:2|2:0|2:0,2:0:0:0:
148,111,175417,6,0,L|248:130,1,88.000002685547,2|2,3:2|2:0,2:0:0:0:
313,88,175917,2,0,L|301:37,1,44.0000013427735,2|2,1:2|2:0,2:0:0:0:
339,20,176167,1,2,2:0:0:0:
350,24,176292,2,0,L|491:50,1,132.00000402832,2|0,3:2|3:0,2:0:0:0:
432,122,176917,1,0,1:0:0:0:
487,190,177167,1,2,2:0:0:0:
441,265,177417,5,2,3:2:0:0:
447,277,177542,2,0,L|343:257,1,88.000002685547,2|0,2:0|2:0,2:0:0:0:
319,278,177917,1,2,1:2:0:0:
250,223,178167,2,0,L|238:172,1,44.0000013427735,2|2,2:0|3:2,2:0:0:0:
293,109,178542,1,0,1:0:0:0:
300,98,178667,2,0,L|279:4,1,88.000002685547,0|0,3:0|1:0,2:0:0:0:
206,59,179167,1,2,2:0:0:0:
126,21,179417,5,6,3:2:0:0:
115,16,179542,2,0,L|16:28,1,88.000002685547,2|2,2:0|2:0,2:0:0:0:
3,63,179917,2,0,P|0:119|41:146,1,88.000002685547,2|0,1:2|1:0,2:0:0:0:
98,180,180417,2,0,L|159:170,1,44.0000013427735,2|2,2:0|1:2,2:0:0:0:
180,192,180667,1,2,3:2:0:0:
267,181,180917,2,0,L|251:281,1,88.000002685547,2|0,1:2|2:0,2:0:0:0:
292,346,181417,6,0,P|356:367|411:311,1,132.00000402832,6|2,3:2|3:2,2:0:0:0:
446,318,181917,1,2,1:2:0:0:
464,232,182167,1,2,2:0:0:0:
484,146,182417,2,0,L|467:46,1,88.000002685547,2|0,2:0|3:0,2:0:0:0:
387,27,182917,2,0,L|335:17,2,44.0000013427735,2|6|0,1:2|3:2|2:0,2:0:0:0:
342,103,183417,6,0,L|244:82,1,88.000002685547,6|2,3:2|2:0,2:0:0:0:
181,36,183917,2,0,L|111:50,1,44.0000013427735,2|2,1:2|2:0,2:0:0:0:
105,75,184167,1,2,2:0:0:0:
97,83,184292,2,0,L|118:180,1,88.000002685547,2|0,3:2|1:0,2:0:0:0:
154,190,184667,1,0,3:0:0:0:
99,259,184917,1,2,1:2:0:0:
171,309,185167,1,2,2:0:0:0:
236,367,185417,6,0,B|269:382|269:382|372:348,1,132.00000402832,2|0,1:2|3:0,2:0:0:0:
375,310,185917,1,2,1:2:0:0:
449,262,186167,2,0,L|434:155,1,88.000002685547,2|0,2:0|1:0,2:0:0:0:
494,107,186667,1,2,2:0:0:0:
440,36,186917,2,0,L|334:23,1,88.000002685547,2|0,1:2|3:0,2:0:0:0:
283,79,187417,6,0,P|219:76|173:156,1,132.00000402832,6|2,3:2|2:0,2:0:0:0:
135,140,187917,1,0,1:0:0:0:
182,214,188167,1,2,2:0:0:0:
189,223,188292,2,0,L|168:326,1,88.000002685547,2|2,3:2|1:2,2:0:0:0:
112,375,188792,2,0,L|48:387,1,44.0000013427735,2|2,2:0|1:2,2:0:0:0:
12,315,189167,1,0,2:0:0:0:
65,245,189417,6,0,L|95:88,1,132.00000402832,2|2,3:2|2:0,2:0:0:0:
63,79,189917,1,0,1:0:0:0:
134,27,190167,1,2,2:0:0:0:
143,36,190292,2,0,L|260:22,1,88.000002685547,2|2,3:2|3:2,2:0:0:0:
263,55,190667,1,0,3:0:0:0:
349,40,190917,2,0,L|333:141,1,88.000002685547,2|0,1:2|2:0,2:0:0:0:
253,161,191417,6,0,B|235:177|235:177|213:294,1,132.00000402832,2|2,3:2|2:0,2:0:0:0:
237,320,191917,1,0,1:0:0:0:
311,367,192167,1,2,2:0:0:0:
319,358,192292,2,0,L|460:385,1,132.00000402832,2|0,3:2|3:0,2:0:0:0:
504,314,192917,1,2,1:2:0:0:
433,261,193167,1,2,2:0:0:0:
492,196,193417,6,0,L|472:93,1,88.000002685547,2|2,3:2|2:0,2:0:0:0:
491,68,193792,1,2,2:0:0:0:
406,42,194042,2,0,L|396:-11,2,44.0000013427735,2|2|2,2:0|2:0|3:2,2:0:0:0:
347,107,194542,2,0,L|239:129,1,88.000002685547,2|2,1:2|3:2,2:0:0:0:
222,101,194917,1,2,1:2:0:0:
166,169,195167,1,2,3:2:0:0:
93,118,195417,6,0,P|64:82|79:32,1,88.000002685547,6|0,3:2|2:0,2:0:0:0:
103,13,195792,1,2,2:0:0:0:
113,19,195917,2,0,L|199:1,1,88.000002685547,2|0,1:2|2:0,2:0:0:0:
281,34,196417,2,0,L|337:22,2,44.0000013427735,2|2|2,2:0|2:0|3:2,2:0:0:0:
222,101,196917,2,0,L|249:205,1,88.000002685547,2|0,1:2|2:0,2:0:0:0:
320,230,197417,6,0,P|262:225|209:295,1,132.00000402832,2|2,3:2|2:0,2:0:0:0:
178,301,197917,1,2,1:2:0:0:
234,368,198167,1,2,2:0:0:0:
245,361,198292,2,0,L|385:380,1,132.00000402832,2|0,3:2|3:0,2:0:0:0:
450,331,198917,2,0,L|436:265,1,44.0000013427735,0|2,1:0|2:0,2:0:0:0:
467,252,199167,1,2,2:0:0:0:
446,166,199417,6,0,L|423:56,1,88.000002685547,2|2,3:2|2:0,2:0:0:0:
358,26,199917,2,0,P|309:18|281:45,1,88.000002685547,2|2,1:2|2:0,2:0:0:0:
206,86,200417,2,0,L|138:70,1,44.0000013427735,2|2,2:0|2:0,2:0:0:0:
120,63,200667,1,2,3:2:0:0:
90,145,200917,1,2,1:2:0:0:
147,211,201167,1,2,2:0:0:0:
68,251,201417,6,0,B|106:269|106:269|261:224,1,176.000005371094,2|2,1:2|1:2,2:0:0:0:
269,258,202042,1,0,3:0:0:0:
349,153,202417,2,0,L|442:174,1,88.000002685547,0|0,1:0|3:0,2:0:0:0:
487,242,202917,2,0,P|510:300|456:365,1,132.00000402832,0|0,1:0|2:0,2:0:0:0:
434,369,203417,5,2,2:0:0:0:
319,259,203917,1,8,2:0:0:0:
263,315,204167,1,2,2:0:0:0:
256,323,204292,2,0,L|178:336,1,71.9999978027344,2|2,2:0|2:0,2:0:0:0:
137,271,204792,2,0,L|81:265,1,35.9999989013672,2|10,2:0|2:0,2:0:0:0:
13,135,205417,6,0,P|15:80|69:48,1,107.999996704102,2|2,2:0|2:0,2:0:0:0:
90,67,205917,1,8,2:0:0:0:
160,31,206167,2,0,L|214:42,1,35.9999989013672,2|2,2:0|2:0,2:0:0:0:
250,95,206542,1,10,2:0:0:0:
344,23,206917,1,8,2:0:0:0:
430,155,207417,6,0,L|264:178,1,143.999995605469,2|8,2:0|2:0,2:0:0:0:
234,233,208167,1,2,2:0:0:0:
230,242,208292,2,0,L|247:341,1,71.9999978027344,2|2,2:0|2:0,2:0:0:0:
338,382,208917,1,10,2:0:0:0:
358,305,209167,1,2,2:0:0:0:
428,341,209417,6,0,L|507:324,1,71.9999978027344,2|2,3:2|2:0,2:0:0:0:
508,287,209792,1,2,3:2:0:0:
475,214,210042,2,0,L|484:177,2,35.9999989013672,2|2|2,2:0|2:0|2:0,2:0:0:0:
395,218,210542,1,2,2:0:0:0:
322,123,210917,1,8,2:0:0:0:
316,133,211042,6,2,L|189:148,1,107.999996704102,0|0,3:0|2:0,2:0:0:0:
