osu file format v14

[General]
AudioFilename: audio.mp3
AudioLeadIn: 0
PreviewTime: 76805
Countdown: 0
SampleSet: Soft
StackLeniency: 0.7
Mode: 0
LetterboxInBreaks: 0
WidescreenStoryboard: 1

[Editor]
Bookmarks: 5430,21430,36430,37430,53430,61492,97430,113430,133430,149430,171430,187430,195430,203367
DistanceSpacing: 0.2
BeatDivisor: 4
GridSize: 32
TimelineZoom: 1.6

[Metadata]
Title:Lil'b
TitleUnicode:リルビィ
Artist:Kuhaku Gokko
ArtistUnicode:空白ごっこ
Creator:Petal
Version:KoldNoodl's Hard
Source:
Tags:japanese jpop pop j-pop rock jrock j-rock rirubyi rirubii 1st ep セツコ setsuko matha A_little_bit Lil’b KuhakuGokko agatsu seros torriru koldnoodl koyori
BeatmapID:3546709
BeatmapSetID:1561567

[Difficulty]
HPDrainRate:4
CircleSize:3.8
OverallDifficulty:7
ApproachRate:8
SliderMultiplier:1.7
SliderTickRate:1

[Events]
//Background and Video events
0,0,"BG.png",0,0
//Break Periods
2,93617,96667
2,153617,167667
//Storyboard Layer 0 (Background)
//Storyboard Layer 1 (Fail)
//Storyboard Layer 2 (Pass)
//Storyboard Layer 3 (Foreground)
//Storyboard Layer 4 (Overlay)
//Storyboard Sound Samples

[TimingPoints]
-583,500,4,2,1,15,1,0
5417,-100,4,2,1,45,0,0
19417,-100,4,2,1,55,0,0
20292,-100,4,2,1,65,0,0
21417,-90.9090909090909,4,2,1,70,0,0
37417,-90.9090909090909,4,2,1,45,0,0
37917,-111.111111111111,4,2,1,45,0,0
51917,-90.9090909090909,4,2,1,55,0,0
53417,-90.9090909090909,4,2,1,65,0,0
61417,-90.9090909090909,4,2,1,55,0,0
61917,-100,4,2,1,55,0,0
74417,-100,4,2,1,65,0,0
76917,-100,4,2,1,45,0,0
77417,-90.9090909090909,4,2,1,80,0,0
93417,-90.9090909090909,4,2,1,60,0,0
97417,-90.9090909090909,4,2,1,70,0,0
113917,-111.111111111111,4,2,1,45,0,0
133417,-111.111111111111,4,2,1,80,0,0
133542,-90.9090909090909,4,2,1,80,0,0
150667,-111.111111111111,4,2,1,40,0,0
153417,-111.111111111111,4,2,1,50,0,0
170917,-111.111111111111,4,2,1,45,0,0
171417,-111.111111111111,4,2,1,85,0,0
171542,-90.9090909090909,4,2,1,85,0,0
187417,-90.9090909090909,4,2,1,80,0,0
203417,-90.9090909090909,4,2,1,50,0,0

[Colours]
Combo1 : 255,128,64
Combo2 : 0,149,149
Combo3 : 128,128,192
Combo4 : 64,128,128

[HitObjects]
106,76,5417,6,0,P|52:71|19:45,2,85,2|2|8,3:0|2:3|2:0,2:0:0:0:
214,26,6167,1,2,2:3:0:0:
204,35,6292,2,0,P|180:100|181:151,1,85,8|8,2:0|2:0,2:0:0:0:
181,192,6667,1,2,3:0:0:0:
274,267,6917,2,0,P|301:257|345:247,2,42.5,8|0|2,2:0|3:0|2:3,2:0:0:0:
146,288,7417,6,0,P|136:338|122:379,2,85,0|2|8,3:0|2:3|2:0,2:0:0:0:
231,346,8167,1,2,2:1:0:0:
241,353,8292,2,0,B|313:342|278:314|369:304,1,127.5,2|2,2:3|3:1,2:0:0:0:
451,374,8917,2,0,P|460:339|462:319,1,42.5,8|0,2:0|2:0,2:0:0:0:
494,265,9167,1,2,2:3:0:0:
425,153,9417,6,0,P|473:152|508:131,2,85,0|2|8,3:0|2:3|2:0,2:0:0:0:
318,184,10167,1,2,2:3:0:0:
313,177,10292,2,0,P|328:135|331:91,1,85,8|8,2:0|2:0,2:0:0:0:
296,26,10667,1,2,3:0:0:0:
201,72,10917,2,0,P|196:48|189:23,2,42.5,8|0|2,2:0|3:0|2:3,2:0:0:0:
142,127,11417,6,0,P|90:113|43:115,2,85,0|2|8,3:0|2:3|2:0,2:0:0:0:
89,208,12167,1,2,2:1:0:0:
82,214,12292,2,0,P|67:269|87:346,1,127.5,2|2,2:3|3:1,2:0:0:0:
192,381,12917,2,0,P|217:371|251:362,1,42.5,8|0,2:0|2:0,2:0:0:0:
283,311,13167,1,2,2:3:0:0:
422,306,13417,6,0,P|445:349|444:388,2,85,0|2|8,3:0|2:3|2:0,2:0:0:0:
347,223,14167,1,2,2:3:0:0:
340,219,14292,2,0,P|290:217|231:205,1,85,8|8,2:0|2:0,2:0:0:0:
198,164,14667,1,2,3:0:0:0:
136,258,14917,2,0,P|147:294|157:319,2,42.5,8|0|2,2:0|3:0|2:3,2:0:0:0:
72,146,15417,6,0,P|33:177|-17:177,2,85,0|2|8,3:0|2:3|2:0,2:0:0:0:
34,35,16167,1,2,2:1:0:0:
41,42,16292,2,0,P|92:52|179:62,1,127.5,2|2,2:3|3:1,2:0:0:0:
269,0,16917,2,0,P|278:33|284:61,1,42.5,8|0,2:0|2:0,2:0:0:0:
296,119,17167,1,2,2:3:0:0:
406,191,17417,6,0,P|451:171|501:172,2,85,0|2|8,3:0|2:3|2:0,2:0:0:0:
327,265,18167,1,2,2:3:0:0:
319,270,18292,2,0,P|267:253|226:246,1,85,8|8,2:0|2:0,2:0:0:0:
186,192,18667,1,2,3:0:0:0:
125,285,18917,2,0,P|132:311|140:349,2,42.5,8|0|2,2:0|3:0|2:3,2:0:0:0:
38,196,19417,5,0,3:0:0:0:
38,196,19542,1,0,1:0:0:0:
38,196,19667,2,0,P|47:159|51:137,1,42.5,0|0,1:0|1:0,2:0:0:0:
21,74,19917,1,0,1:0:0:0:
26,82,20042,2,0,P|79:104|130:95,1,85,0|0,3:0|1:0,2:0:0:0:
165,156,20417,1,0,1:0:0:0:
171,163,20542,2,0,P|225:145|259:106,1,85,0|0,3:0|2:0,2:0:0:0:
292,58,20917,2,0,P|287:23|286:0,2,42.5,0|0|0,1:0|3:0|2:0,2:0:0:0:
383,152,21417,6,0,P|439:139|471:104,2,93.5,6|2|2,3:2|2:0|1:2,2:0:0:0:
343,248,22167,1,2,2:0:0:0:
335,257,22292,2,0,P|277:245|220:236,1,93.5,0|0,3:0|1:0,2:0:0:0:
180,278,22667,1,2,3:2:0:0:
95,366,22917,2,0,P|87:330|84:295,1,46.75,0|0,1:0|2:0,2:0:0:0:
73,247,23167,1,2,2:0:0:0:
9,146,23417,6,0,P|65:126|123:150,1,93.5,0|2,3:0|2:3,2:0:0:0:
188,70,23917,2,0,P|196:106|208:143,1,46.75,0|0,1:0|2:0,2:0:0:0:
231,192,24167,1,2,2:1:0:0:
237,184,24292,2,0,B|311:169|278:134|367:122,1,140.25,0|2,3:0|3:1,2:0:0:0:
475,39,24917,2,0,P|464:79|457:121,1,46.75,0|0,1:0|2:0,2:0:0:0:
448,159,25167,1,2,2:0:0:0:
484,258,25417,6,0,P|499:306|484:360,2,93.5,2|2|2,3:2|2:0|1:2,2:0:0:0:
377,206,26167,1,2,2:0:0:0:
371,211,26292,2,0,P|305:227|262:234,1,93.5,0|0,3:0|1:0,2:0:0:0:
219,189,26667,1,2,3:2:0:0:
128,250,26917,2,0,P|142:295|146:332,1,46.75,0|0,1:0|2:0,2:0:0:0:
152,367,27167,1,2,2:0:0:0:
32,274,27417,6,0,P|9:223|33:180,1,93.5,0|2,3:0|2:3,2:0:0:0:
98,77,27917,2,0,P|109:111|114:142,1,46.75,0|0,1:0|2:0,2:0:0:0:
154,187,28167,1,2,2:1:0:0:
163,182,28292,2,0,P|223:189|288:208,1,93.5,0|0,3:0|1:0,2:0:0:0:
314,249,28667,1,2,3:1:0:0:
407,325,28917,2,0,P|425:280|428:260,1,46.75,0|0,1:0|2:0,2:0:0:0:
408,204,29167,1,2,2:0:0:0:
427,79,29417,6,0,P|484:90|521:123,2,93.5,2|2|2,3:2|2:0|1:2,2:0:0:0:
333,8,30167,1,2,2:0:0:0:
328,16,30292,2,0,P|264:40|221:47,1,93.5,0|0,3:0|1:0,2:0:0:0:
172,7,30667,1,2,3:2:0:0:
103,78,30917,2,0,P|113:112|121:152,1,46.75,0|0,1:0|2:0,2:0:0:0:
139,194,31167,1,2,2:0:0:0:
46,271,31417,6,0,P|27:324|44:377,1,93.5,0|2,3:0|2:3,2:0:0:0:
186,384,31917,2,0,P|178:355|173:325,1,46.75,0|0,1:0|2:0,2:0:0:0:
207,268,32167,1,2,2:1:0:0:
215,263,32292,2,0,P|272:276|358:287,1,140.25,0|2,3:0|3:1,2:0:0:0:
455,365,32917,2,0,P|463:337|467:297,1,46.75,0|0,1:0|2:0,2:0:0:0:
435,248,33167,1,2,2:0:0:0:
427,125,33417,6,0,P|467:150|513:148,2,93.5,2|2|0,3:2|2:0|1:0,2:0:0:0:
333,47,34167,1,2,2:0:0:0:
338,57,34292,2,0,P|331:110|317:170,1,93.5,0|0,3:0|1:0,2:0:0:0:
277,212,34667,1,2,3:2:0:0:
170,152,34917,2,0,P|144:147|114:135,2,46.75,0|0|2,1:0|2:0|2:0,2:0:0:0:
199,267,35417,5,0,1:0:0:0:
199,267,35542,1,0,1:0:0:0:
199,267,35667,2,0,P|194:289|190:325,1,46.75,0|0,1:0|1:0,2:0:0:0:
131,363,35917,1,0,1:0:0:0:
123,365,36042,2,0,P|87:328|87:267,1,93.5,0|0,3:0|3:0,2:0:0:0:
33,219,36417,1,0,1:0:0:0:
41,221,36542,2,0,P|77:184|77:123,1,93.5,0|0,1:0|3:0,2:0:0:0:
28,71,36917,1,0,1:0:0:0:
37,77,37042,2,0,P|92:66|142:56,1,93.5,0|0,3:0|2:0,2:0:0:0:
206,43,37417,1,6,3:2:0:0:
389,93,37917,6,0,P|396:63|410:27,2,38.25,2|2|2,1:2|2:0|2:0,2:0:0:0:
330,147,38292,1,2,3:2:0:0:
335,154,38417,2,0,P|347:200|349:245,2,76.5000000000001,2|2|2,2:0|3:2|1:2,2:0:0:0:
243,92,39167,1,2,2:0:0:0:
127,133,39417,6,0,P|115:179|113:224,1,76.5000000000001,0|0,3:0|2:0,2:0:0:0:
212,268,39917,2,0,P|224:314|226:359,1,76.5000000000001,0|0,1:0|2:0,2:0:0:0:
294,384,40292,1,0,3:0:0:0:
301,376,40417,2,0,P|348:352|399:353,1,76.5000000000001,2|2,2:0|3:2,2:0:0:0:
442,271,40917,2,0,P|493:282|531:316,1,76.5000000000001,2|2,1:2|2:0,2:0:0:0:
345,231,41417,1,0,3:0:0:0:
446,57,41917,6,0,P|384:74|352:73,1,76.5000000000001,2|2,1:2|2:0,2:0:0:0:
297,41,42292,1,0,3:0:0:0:
305,32,42417,2,0,P|313:8|317:-18,2,38.25,2|2|2,2:0|2:0|3:2,2:0:0:0:
228,109,42917,2,0,P|184:98|128:63,1,76.5000000000001,2|2,1:2|2:0,2:0:0:0:
59,14,43417,6,0,P|39:64|31:115,1,76.5000000000001,0|0,3:0|2:0,2:0:0:0:
110,168,43917,2,0,P|130:218|138:269,1,76.5000000000001,0|0,1:0|2:0,2:0:0:0:
97,307,44292,1,0,3:0:0:0:
204,362,44542,1,0,2:0:0:0:
209,355,44667,2,0,P|246:341|278:336,2,38.25,0|0|0,3:0|2:0|1:0,2:0:0:0:
258,248,45167,1,0,2:0:0:0:
358,311,45417,1,0,3:0:0:0:
452,151,45917,6,0,P|459:115|463:80,2,38.25,2|2|2,1:2|2:0|2:0,2:0:0:0:
391,201,46292,1,2,3:2:0:0:
391,201,46417,1,2,2:0:0:0:
295,130,46667,1,2,3:2:0:0:
216,213,46917,2,0,P|164:202|117:195,1,76.5000000000001,2|2,1:2|2:0,2:0:0:0:
32,244,47417,6,0,P|18:191|31:148,1,76.5000000000001,0|2,3:0|2:0,2:0:0:0:
110,95,47917,2,0,P|124:42|111:-1,1,76.5000000000001,0|0,1:0|2:0,2:0:0:0:
50,0,48292,1,0,3:0:0:0:
202,80,48542,1,2,0:3:0:0:
208,84,48667,2,0,P|258:68|306:62,1,76.5000000000001,0|2,3:0|1:2,2:0:0:0:
363,124,49167,1,2,2:0:0:0:
266,194,49417,6,0,P|248:236|267:316,1,114.75,0|0,3:0|2:0,2:0:0:0:
314,354,49917,1,2,1:2:0:0:
178,314,50167,1,2,2:0:0:0:
170,307,50292,2,0,P|113:291|67:289,1,76.5000000000001,0|0,3:0|2:0,2:0:0:0:
31,329,50667,2,0,P|26:357|23:374,2,38.25,0|0|2,3:0|2:0|1:2,2:0:0:0:
0,218,51167,1,2,2:0:0:0:
92,144,51417,6,0,P|149:160|195:162,1,76.5000000000001,0|0,3:0|2:0,2:0:0:0:
286,118,51917,2,0,P|273:62|272:17,1,93.5,6|2,1:2|2:1,2:0:0:0:
341,2,52292,2,0,P|374:16|400:20,1,46.75,0|0,3:0|1:0,2:0:0:0:
444,68,52542,1,0,3:0:0:0:
512,164,52792,2,0,P|479:178|453:182,1,46.75,0|0,3:0|1:0,2:0:0:0:
409,230,53042,1,0,3:0:0:0:
242,188,53417,6,0,P|224:250|224:312,2,93.5,6|2|2,3:2|2:0|1:2,2:0:0:0:
160,113,54167,1,2,2:0:0:0:
155,122,54292,2,0,P|105:141|52:146,1,93.5,0|0,3:0|2:0,2:0:0:0:
0,110,54667,1,2,3:2:0:0:
42,227,54917,2,0,P|34:249|28:271,1,46.75,0|0,1:0|2:0,2:0:0:0:
41,349,55167,1,2,2:0:0:0:
155,295,55417,6,0,P|207:317|269:314,1,93.5,0|0,3:0|2:0,2:0:0:0:
374,381,55917,2,0,P|366:351|362:319,1,46.75,0|0,1:0|2:0,2:0:0:0:
328,267,56167,1,2,2:1:0:0:
333,259,56292,2,0,B|369:183|313:195|345:109,1,140.25,0|2,3:0|3:1,2:0:0:0:
397,11,56917,2,0,P|375:21|352:26,1,46.75,0|0,1:0|2:0,2:0:0:0:
282,3,57167,1,2,2:0:0:0:
190,117,57417,6,0,P|175:61|174:17,2,93.5,2|2|2,3:2|2:0|1:2,2:0:0:0:
160,226,58167,1,2,2:0:0:0:
151,232,58292,2,0,P|103:227|45:206,1,93.5,0|0,3:0|2:0,2:0:0:0:
0,258,58667,1,2,3:2:0:0:
92,354,58917,2,0,P|127:338|153:331,1,46.75,0|0,1:0|2:0,2:0:0:0:
207,361,59167,1,2,2:0:0:0:
297,273,59417,6,0,P|308:227|264:119,1,140.25,0|0,3:0|3:0,2:0:0:0:
224,91,59917,1,0,1:0:0:0:
218,98,60042,2,0,P|172:89|140:82,2,46.75,0|0|0,3:0|2:0|3:0,2:0:0:0:
276,30,60417,1,0,1:0:0:0:
282,39,60542,2,0,P|328:30|360:23,2,46.75,0|0|0,3:0|2:0|3:0,2:0:0:0:
358,106,60917,1,0,1:0:0:0:
365,116,61042,2,0,P|416:143|478:124,1,93.5,0|2,3:0|2:3,2:0:0:0:
503,84,61417,1,6,3:2:0:0:
446,264,61917,6,0,P|454:293|465:328,1,42.5,2|2,1:2|2:0,2:0:0:0:
403,362,62167,1,2,2:0:0:0:
398,367,62292,2,0,P|344:366|289:311,1,127.5,2|2,3:2|3:2,2:0:0:0:
197,272,62917,1,2,1:2:0:0:
116,348,63167,1,2,2:0:0:0:
21,282,63417,6,0,P|9:237|14:189,1,85,0|2,3:0|2:3,2:0:0:0:
85,106,63917,2,0,P|122:122|188:129,1,85,0|2,1:0|2:3,2:0:0:0:
233,87,64292,1,0,1:0:0:0:
238,78,64417,2,0,P|227:38|220:9,2,42.5,2|0|2,2:0|1:0|3:2,2:0:0:0:
322,168,64917,2,0,P|335:118|339:72,1,85,2|2,1:2|2:0,2:0:0:0:
424,24,65417,1,0,3:0:0:0:
470,167,65917,6,0,P|502:175|520:177,2,42.5,2|2|2,1:2|2:0|2:0,2:0:0:0:
406,212,66292,1,2,3:2:0:0:
401,218,66417,2,0,P|390:265|385:320,1,85,2|2,2:0|3:2,2:0:0:0:
285,263,66917,1,2,1:2:0:0:
218,347,67167,1,2,2:0:0:0:
118,280,67417,6,0,P|105:233|106:188,1,85,0|2,3:0|2:3,2:0:0:0:
173,121,67917,1,0,1:0:0:0:
106,23,68167,1,2,2:0:0:0:
115,29,68292,2,0,P|170:41|220:44,1,85,0|2,3:0|2:3,2:0:0:0:
263,2,68667,1,0,3:0:0:0:
357,93,68917,2,0,P|363:66|374:34,2,42.5,0|0|2,1:0|2:0|2:3,2:0:0:0:
272,173,69417,1,0,3:0:0:0:
363,325,69917,6,0,P|342:331|322:336,2,42.5,2|2|2,1:2|2:0|2:0,2:0:0:0:
416,269,70292,1,2,3:2:0:0:
420,262,70417,2,0,P|403:209|400:164,1,85,2|2,2:0|3:2,2:0:0:0:
457,94,70917,1,2,1:2:0:0:
373,24,71167,1,2,2:0:0:0:
285,96,71417,6,0,P|226:92|196:71,1,85,0|2,3:0|2:0,2:0:0:0:
171,12,71792,1,0,2:0:0:0:
171,12,71917,1,0,1:0:0:0:
71,83,72167,1,2,2:0:0:0:
80,90,72292,2,0,P|99:147|107:195,1,85,0|2,3:0|2:3,2:0:0:0:
58,235,72667,1,2,3:2:0:0:
139,323,72917,2,0,P|191:300|235:291,1,85,2|2,1:2|2:0,2:0:0:0:
332,351,73417,6,0,P|318:302|320:257,1,85,2|2,3:2|2:3,2:0:0:0:
269,212,73792,1,0,2:0:0:0:
269,212,73917,1,2,1:2:0:0:
193,75,74167,2,0,P|217:86|247:91,1,42.5,2|0,2:0|1:0,2:0:0:0:
302,132,74417,5,2,2:0:0:0:
309,137,74542,2,0,P|349:119|373:112,2,42.5,0|0|2,1:0|3:0|2:0,2:0:0:0:
254,197,74917,1,0,1:0:0:0:
151,149,75167,1,4,3:0:0:0:
56,227,75417,5,2,1:2:0:0:
51,235,75542,2,0,P|48:287|65:326,1,85,0|2,3:0|1:2,2:0:0:0:
127,354,75917,1,0,3:0:0:0:
233,301,76167,1,2,1:2:0:0:
326,384,76417,1,6,3:2:0:0:
326,384,76917,6,0,P|351:343|333:256,1,127.5,2|0,2:0|2:0,2:0:0:0:
280,217,77417,6,0,P|289:167|291:118,1,93.5,6|0,3:2|2:0,2:0:0:0:
345,67,77792,1,2,2:0:0:0:
345,67,77917,1,2,1:2:0:0:
451,78,78167,1,0,2:0:0:0:
469,182,78417,2,0,P|494:172|523:164,2,46.75,2|2|2,2:0|2:0|3:2,2:0:0:0:
415,240,78792,1,2,2:0:0:0:
411,247,78917,2,0,P|349:227|294:221,1,93.5,2|0,1:2|2:0,2:0:0:0:
213,294,79417,6,0,P|202:239|205:196,1,93.5,2|2,3:2|2:0,2:0:0:0:
256,146,79792,1,2,2:0:0:0:
256,146,79917,1,2,1:2:0:0:
151,74,80167,2,0,P|115:84|90:85,1,46.75,2|0,2:0|3:0,2:0:0:0:
36,52,80417,2,0,P|9:90|-10:110,1,46.75,2|0,2:0|2:0,2:0:0:0:
0,166,80667,1,0,3:0:0:0:
75,255,80917,2,0,P|84:219|90:182,2,46.75,2|2|2,1:2|2:0|2:0,2:0:0:0:
106,328,81292,1,2,2:0:0:0:
112,336,81417,6,0,P|163:355|208:351,1,93.5,2|2,3:2|2:0,2:0:0:0:
317,381,81917,2,0,P|325:346|332:301,1,46.75,2|2,1:2|2:0,2:0:0:0:
381,280,82167,1,2,2:0:0:0:
388,267,82292,2,0,P|379:212|367:170,1,93.5,2|0,3:2|1:0,2:0:0:0:
421,112,82667,2,0,P|428:79|435:59,1,46.75,0|0,3:0|2:0,2:0:0:0:
390,0,82917,1,0,1:0:0:0:
311,90,83167,1,2,2:0:0:0:
213,27,83417,5,2,3:2:0:0:
220,39,83542,2,0,P|213:87|195:161,1,93.5,2|2,2:0|2:0,2:0:0:0:
178,204,83917,1,0,1:0:0:0:
58,157,84167,1,2,2:0:0:0:
52,164,84292,2,0,P|38:222|31:290,1,93.5,2|2,3:2|2:3,2:0:0:0:
73,319,84667,2,0,P|111:306|150:299,1,46.75,0|0,1:0|2:0,2:0:0:0:
182,345,84917,1,0,1:0:0:0:
273,262,85167,1,2,2:0:0:0:
362,345,85417,5,6,3:2:0:0:
371,340,85542,2,0,P|395:284|388:236,1,93.5,2|2,2:0|2:0,2:0:0:0:
429,184,85917,2,0,P|419:129|412:83,1,93.5,2|0,1:2|2:0,2:0:0:0:
444,20,86292,1,2,3:2:0:0:
444,20,86417,1,2,2:0:0:0:
321,90,86667,1,2,3:2:0:0:
215,4,86917,1,2,1:2:0:0:
129,82,87167,2,0,P|92:75|59:67,1,46.75,0|2,2:0|2:0,2:0:0:0:
27,127,87417,6,0,P|42:185|50:231,1,93.5,2|2,3:2|2:0,2:0:0:0:
13,292,87792,1,2,2:0:0:0:
13,292,87917,1,2,1:2:0:0:
123,377,88167,2,0,P|132:344|137:313,1,46.75,2|0,2:0|1:0,2:0:0:0:
226,284,88417,2,0,P|215:327|213:346,1,46.75,2|0,2:0|2:0,2:0:0:0:
273,383,88667,1,0,3:0:0:0:
386,309,88917,2,0,P|419:301|451:294,2,46.75,2|2|2,1:2|2:0|2:0,2:0:0:0:
323,267,89292,5,2,2:0:0:0:
316,261,89417,2,0,P|297:209|301:165,1,93.5,2|2,3:2|2:0,2:0:0:0:
410,21,89917,2,0,P|400:67|394:89,1,46.75,2|2,1:2|2:0,2:0:0:0:
330,95,90167,1,2,2:0:0:0:
323,100,90292,2,0,P|271:88|225:84,1,93.5,2|2,3:2|3:2,2:0:0:0:
167,132,90667,1,2,3:2:0:0:
70,58,90917,2,0,P|53:137|54:183,1,93.5,2|2,1:2|2:0,2:0:0:0:
96,221,91292,5,0,2:0:0:0:
101,228,91417,2,0,P|94:260|88:297,2,46.75,2|0|0,1:2|3:0|3:0,2:0:0:0:
211,312,91917,1,2,1:2:0:0:
211,312,92042,1,0,3:0:0:0:
211,312,92167,2,0,P|248:301|274:296,1,46.75,2|0,2:0|3:0,2:0:0:0:
311,240,92417,2,0,P|300:202|295:175,1,46.75,0|0,1:0|3:0,2:0:0:0:
275,122,92667,1,2,2:0:0:0:
371,57,92917,1,2,1:2:0:0:
378,53,93042,2,0,P|430:55|448:150,1,140.25,0|2,3:0|2:0,2:0:0:0:
446,110,97417,6,0,P|456:64|477:21,2,93.5,6|2|2,3:2|2:0|1:2,2:0:0:0:
510,217,98167,1,0,1:0:0:0:
503,208,98292,2,0,P|445:220|388:229,1,93.5,0|0,3:0|1:0,2:0:0:0:
342,192,98667,1,2,3:2:0:0:
254,316,98917,2,0,P|246:280|243:245,1,46.75,0|0,1:0|3:0,2:0:0:0:
238,192,99167,1,2,2:0:0:0:
300,80,99417,6,0,P|254:85|212:66,1,93.5,2|0,3:0|2:0,2:0:0:0:
80,24,99917,2,0,P|88:60|100:97,1,46.75,0|0,1:0|2:0,2:0:0:0:
146,128,100167,1,2,1:0:0:0:
151,136,100292,2,0,P|139:195|128:286,1,140.25,0|2,3:0|3:1,2:0:0:0:
199,372,100917,2,0,P|221:366|244:359,1,46.75,0|0,1:0|2:0,2:0:0:0:
296,301,101167,1,2,1:2:0:0:
428,348,101417,6,0,P|443:300|428:246,2,93.5,2|2|2,3:2|2:0|1:2,2:0:0:0:
357,235,102167,1,0,1:0:0:0:
352,229,102292,2,0,P|336:163|329:120,1,93.5,0|0,3:0|1:0,2:0:0:0:
365,71,102667,1,2,3:2:0:0:
247,6,102917,2,0,P|202:20|165:24,1,46.75,0|0,1:0|3:0,2:0:0:0:
146,75,103167,1,2,2:0:0:0:
24,31,103417,6,0,P|11:74|34:114,1,93.5,2|0,3:0|2:0,2:0:0:0:
99,156,103917,2,0,P|110:190|115:221,1,46.75,2|0,1:3|2:0,2:0:0:0:
47,292,104167,1,2,1:0:0:0:
59,286,104292,2,0,P|119:293|184:312,1,93.5,0|0,3:0|3:0,2:0:0:0:
219,262,104667,1,2,3:1:0:0:
326,384,104917,2,0,P|319:353|314:312,1,46.75,0|0,1:0|2:0,2:0:0:0:
336,260,105167,1,2,1:2:0:0:
280,163,105417,6,0,P|337:149|375:132,2,93.5,2|2|2,3:2|2:0|1:2,2:0:0:0:
209,140,106167,1,0,1:0:0:0:
201,136,106292,2,0,P|189:83|208:44,1,93.5,0|0,3:0|1:0,2:0:0:0:
269,7,106667,1,2,3:2:0:0:
412,30,106917,2,0,P|422:64|430:104,1,46.75,0|0,1:0|2:0,2:0:0:0:
445,150,107167,1,2,2:0:0:0:
506,268,107417,6,0,P|453:249|400:266,1,93.5,2|0,3:0|2:0,2:0:0:0:
296,230,107917,2,0,P|300:252|307:275,1,46.75,2|0,1:3|2:0,2:0:0:0:
359,347,108167,1,2,1:0:0:0:
351,342,108292,2,0,P|282:357|212:365,1,140.25,0|2,3:0|3:1,2:0:0:0:
100,316,108917,2,0,P|108:288|112:248,1,46.75,0|0,1:0|2:0,2:0:0:0:
130,199,109167,1,2,1:2:0:0:
196,111,109417,6,0,P|138:99|89:83,2,93.5,2|2|2,3:2|2:0|1:2,2:0:0:0:
309,40,110167,1,0,1:0:0:0:
317,45,110292,2,0,P|339:97|332:143,1,93.5,0|0,3:0|1:0,2:0:0:0:
283,188,110667,1,2,3:2:0:0:
376,272,110917,2,0,P|402:267|432:255,2,46.75,0|0|2,1:0|3:0|2:0,2:0:0:0:
249,354,111417,5,2,3:0:0:0:
249,354,111542,1,0,1:0:0:0:
249,354,111667,2,0,P|227:349|191:345,1,46.75,0|0,3:0|1:0,2:0:0:0:
116,368,111917,2,0,P|128:317|136:258,1,93.5,0|0,1:0|1:0,2:0:0:0:
91,215,112292,1,4,3:2:0:0:
85,208,112417,2,0,P|77:182|69:146,2,46.75,0|0|0,2:0|1:0|3:0,2:0:0:0:
218,256,112917,1,0,1:0:0:0:
251,264,113042,1,0,3:0:0:0:
286,258,113167,1,0,1:0:0:0:
315,239,113292,1,0,3:0:0:0:
334,210,113417,1,6,3:2:0:0:
441,64,113917,6,0,P|430:29|427:12,2,38.25,2|2|2,1:2|2:0|2:0,2:0:0:0:
385,119,114292,1,2,3:2:0:0:
379,125,114417,2,0,P|319:109|282:106,2,76.5000000000001,2|2|2,2:0|3:2|1:2,2:0:0:0:
450,203,115167,1,2,2:0:0:0:
381,291,115417,6,0,P|321:307|284:310,1,76.5000000000001,0|0,3:0|2:0,2:0:0:0:
203,354,115917,2,0,P|199:316|189:280,1,76.5000000000001,0|0,1:0|3:0,2:0:0:0:
151,207,116292,1,0,3:0:0:0:
144,217,116417,2,0,P|106:223|69:234,1,76.5000000000001,2|2,2:0|3:2,2:0:0:0:
0,99,116917,2,0,P|37:105|74:116,1,76.5000000000001,2|2,1:2|2:0,2:0:0:0:
185,48,117417,1,0,3:0:0:0:
385,146,117917,6,0,P|392:109|400:82,2,38.25,2|2|2,1:2|2:0|3:2,2:0:0:0:
326,204,118292,1,2,3:2:0:0:
335,212,118417,2,0,P|349:259|358:306,1,76.5000000000001,2|2,2:0|3:2,2:0:0:0:
266,374,118917,2,0,P|194:359|160:357,1,76.5000000000001,2|2,1:2|2:0,2:0:0:0:
57,369,119417,6,0,P|71:318|72:264,1,76.5000000000001,0|0,3:0|3:0,2:0:0:0:
17,160,119917,2,0,P|63:177|114:183,1,76.5000000000001,0|2,1:0|2:0,2:0:0:0:
161,146,120292,1,0,3:0:0:0:
234,234,120542,1,0,1:0:0:0:
238,242,120667,2,0,P|231:272|228:298,2,38.25,0|0|0,3:0|2:0|1:0,2:0:0:0:
344,188,121167,1,2,2:3:0:0:
318,80,121417,1,0,3:0:0:0:
497,40,121917,6,0,P|504:4|515:-26,2,38.25,2|2|2,1:2|2:0|2:0,2:0:0:0:
484,122,122292,1,2,3:2:0:0:
484,122,122417,1,2,2:0:0:0:
397,43,122667,1,2,3:2:0:0:
293,102,122917,2,0,P|241:91|194:84,1,76.5000000000001,2|2,1:2|2:0,2:0:0:0:
80,47,123417,6,0,P|77:84|90:120,1,76.5000000000001,0|0,3:0|3:2,2:0:0:0:
180,206,123917,2,0,P|182:243|169:279,1,76.5000000000001,0|0,1:0|3:0,2:0:0:0:
111,327,124292,1,0,3:0:0:0:
213,380,124542,1,0,1:0:0:0:
219,384,124667,2,0,P|269:368|317:362,1,76.5000000000001,2|2,3:2|1:2,2:0:0:0:
372,271,125167,1,2,2:0:0:0:
464,358,125417,6,0,P|473:307|485:261,1,76.5000000000001,0|0,3:0|3:0,2:0:0:0:
396,184,125917,2,0,P|355:177|326:171,2,38.25,2|2|2,1:2|2:0|2:0,2:0:0:0:
464,140,126292,1,2,3:2:0:0:
473,133,126417,2,0,P|474:65|450:36,1,76.5000000000001,2|2,2:0|3:2,2:0:0:0:
353,8,126917,2,0,P|296:21|252:29,1,76.5000000000001,2|2,1:2|2:0,2:0:0:0:
205,109,127417,5,0,3:0:0:0:
298,169,127667,1,0,2:0:0:0:
216,246,127917,1,0,1:0:0:0:
303,322,128167,1,0,2:0:0:0:
299,331,128292,2,0,P|240:345|199:359,1,76.5000000000001,0|0,3:0|3:0,2:0:0:0:
155,317,128667,1,0,3:0:0:0:
45,378,128917,2,0,P|35:329|36:280,1,76.5000000000001,0|0,1:0|2:0,2:0:0:0:
103,207,129417,1,0,3:0:0:0:
27,55,129917,6,0,P|17:22|12:7,2,38.25,2|2|2,1:2|2:0|2:0,2:0:0:0:
99,106,130292,1,2,3:2:0:0:
107,112,130417,2,0,P|162:108|205:74,1,76.5000000000001,2|2,2:0|3:2,2:0:0:0:
277,0,130917,2,0,P|314:0|350:13,1,76.5000000000001,2|2,1:2|2:0,2:0:0:0:
287,137,131417,1,0,3:0:0:0:
287,137,132917,6,0,P|309:192|301:267,1,114.75,2|0,2:0|2:0,2:0:0:0:
272,328,133417,5,6,3:2:0:0:
281,337,133542,2,0,P|338:322|381:309,1,93.5,2|2,2:0|2:0,2:0:0:0:
442,337,133917,1,2,1:2:0:0:
502,246,134167,1,0,2:0:0:0:
443,148,134417,2,0,P|450:127|455:97,2,46.75,2|2|2,2:0|1:2|3:2,2:0:0:0:
377,191,134792,1,2,2:0:0:0:
370,196,134917,2,0,P|321:177|259:170,1,93.5,2|0,1:2|2:0,2:0:0:0:
202,90,135417,6,0,P|192:153|180:204,1,93.5,0|2,3:0|2:0,2:0:0:0:
123,227,135792,1,2,2:0:0:0:
123,227,135917,1,2,1:2:0:0:
190,351,136167,2,0,P|223:340|265:333,1,46.75,2|0,2:0|3:0,2:0:0:0:
292,282,136417,2,0,P|325:293|367:300,1,46.75,2|0,2:0|2:0,2:0:0:0:
385,360,136667,1,0,3:0:0:0:
483,246,136917,2,0,P|492:210|498:173,2,46.75,2|2|2,1:2|2:0|2:0,2:0:0:0:
408,260,137292,1,2,2:0:0:0:
399,253,137417,6,0,P|376:195|395:148,1,93.5,2|2,3:2|2:0,2:0:0:0:
478,77,137917,2,0,P|448:69|398:53,1,46.75,2|2,1:2|2:0,2:0:0:0:
373,15,138167,1,2,2:0:0:0:
363,26,138292,2,0,P|305:46|253:55,1,93.5,2|0,3:2|1:0,2:0:0:0:
205,9,138667,2,0,P|198:31|193:54,1,46.75,0|0,3:0|2:0,2:0:0:0:
237,126,138917,1,0,1:0:0:0:
124,176,139167,1,2,2:0:0:0:
228,271,139417,5,2,3:2:0:0:
236,279,139542,2,0,P|284:286|358:304,1,93.5,2|0,2:0|2:0,2:0:0:0:
402,312,139917,1,2,1:2:0:0:
274,373,140167,1,2,2:0:0:0:
267,379,140292,2,0,P|209:365|141:358,1,93.5,2|0,3:2|1:0,2:0:0:0:
99,384,140667,2,0,P|86:346|79:307,1,46.75,0|0,3:0|3:0,2:0:0:0:
122,268,140917,1,2,1:2:0:0:
39,190,141167,1,2,2:0:0:0:
138,113,141417,5,6,3:2:0:0:
146,121,141542,2,0,P|202:145|250:138,1,93.5,2|2,2:0|2:0,2:0:0:0:
313,161,141917,2,0,P|303:106|296:60,1,93.5,2|2,1:2|2:0,2:0:0:0:
345,6,142292,1,2,3:2:0:0:
345,6,142417,1,2,2:0:0:0:
450,52,142667,1,2,3:2:0:0:
395,144,142917,1,2,1:2:0:0:
486,244,143167,2,0,P|449:237|416:229,1,46.75,0|2,2:0|2:0,2:0:0:0:
354,234,143417,6,0,P|371:306|377:351,1,93.5,2|2,3:2|2:0,2:0:0:0:
326,384,143792,1,2,2:0:0:0:
326,384,143917,1,2,1:2:0:0:
230,312,144167,2,0,P|201:306|159:295,1,46.75,2|0,2:0|3:0,2:0:0:0:
118,343,144417,2,0,P|89:337|47:326,1,46.75,2|0,2:0|3:0,2:0:0:0:
23,272,144667,1,0,3:0:0:0:
114,206,144917,1,2,1:2:0:0:
122,199,145042,2,0,P|134:149|116:87,1,93.5,2|2,2:0|2:0,2:0:0:0:
80,39,145417,6,0,P|123:29|151:23,1,46.75,2|2,3:2|2:0,2:0:0:0:
201,13,145667,1,2,2:0:0:0:
313,84,145917,2,0,P|303:130|297:152,1,46.75,2|0,1:2|2:0,2:0:0:0:
244,180,146167,1,2,2:0:0:0:
235,187,146292,2,0,P|227:234|259:293,1,93.5,2|2,3:2|1:2,2:0:0:0:
303,320,146667,1,2,3:2:0:0:
419,261,146917,2,0,P|424:214|437:170,1,93.5,0|2,1:0|2:0,2:0:0:0:
458,91,147292,5,0,2:0:0:0:
467,101,147417,2,0,P|499:108|536:114,2,46.75,2|0|2,1:2|3:0|2:0,2:0:0:0:
349,24,147917,1,2,1:2:0:0:
349,24,148042,1,0,3:0:0:0:
349,24,148167,2,0,P|360:61|365:87,1,46.75,2|0,2:0|3:0,2:0:0:0:
289,130,148417,2,0,P|278:92|273:65,2,46.75,0|0|2,1:0|3:0|2:0,2:0:0:0:
239,194,148792,1,0,3:0:0:0:
231,203,148917,2,0,P|169:188|123:187,1,93.5,0|2,1:0|2:0,2:0:0:0:
147,177,150667,6,0,P|141:142|137:110,2,38.25,2|2|2,3:2|2:0|1:2,2:0:0:0:
96,236,151042,1,2,2:0:0:0:
103,246,151167,2,0,P|95:299|83:338,1,76.5000000000001,2|2,2:0|3:2,2:0:0:0:
225,225,151792,1,2,3:2:0:0:
220,239,151917,2,0,P|228:292|250:362,1,114.75,2|2,1:2|2:0,2:0:0:0:
314,384,152417,1,2,2:0:0:0:
395,300,152667,2,0,P|433:311|460:318,3,38.25,0|0|0|0,3:0|1:0|1:0|1:0,2:0:0:0:
336,174,153292,1,0,1:0:0:0:
336,174,153417,1,2,3:2:0:0:
256,192,168417,12,2,170917,2:0:0:0:
336,317,171417,5,6,3:2:0:0:
328,325,171542,2,0,P|273:323|219:284,1,93.5,2|2,2:0|2:0,2:0:0:0:
202,239,171917,1,2,1:2:0:0:
99,298,172167,1,0,2:0:0:0:
33,182,172417,2,0,P|40:161|47:124,2,46.75,2|2|2,2:0|2:0|3:2,2:0:0:0:
110,207,172792,1,2,2:0:0:0:
118,197,172917,2,0,P|129:143|147:95,1,93.5,2|0,1:2|2:0,2:0:0:0:
237,11,173417,6,0,P|282:34|337:40,1,93.5,2|2,3:2|2:0,2:0:0:0:
398,14,173792,1,2,2:0:0:0:
398,14,173917,1,2,1:2:0:0:
473,94,174167,2,0,P|463:121|454:163,1,46.75,2|0,2:0|3:0,2:0:0:0:
405,194,174417,2,0,P|411:216|419:238,1,46.75,2|0,2:0|2:0,2:0:0:0:
487,282,174667,1,0,3:0:0:0:
371,335,174917,2,0,P|367:357|361:402,2,46.75,2|2|2,1:2|2:0|2:0,2:0:0:0:
310,285,175292,1,2,2:0:0:0:
303,296,175417,6,0,P|255:331|197:318,1,93.5,2|2,3:2|2:0,2:0:0:0:
96,352,175917,2,0,P|102:329|108:306,1,46.75,2|2,1:2|2:0,2:0:0:0:
166,254,176167,1,2,2:0:0:0:
170,246,176292,2,0,P|150:188|141:136,1,93.5,2|2,3:2|2:0,2:0:0:0:
95,94,176667,2,0,P|142:81|164:75,1,46.75,0|0,3:0|2:0,2:0:0:0:
192,25,176917,1,0,1:0:0:0:
276,128,177167,1,2,2:0:0:0:
399,65,177417,5,2,3:2:0:0:
406,72,177542,2,0,P|409:129|382:181,1,93.5,2|0,2:0|2:0,2:0:0:0:
414,235,177917,1,2,1:2:0:0:
306,310,178167,1,2,2:0:0:0:
299,317,178292,2,0,P|241:303|173:296,1,93.5,2|0,3:2|1:0,2:0:0:0:
141,340,178667,2,0,P|131:303|124:264,1,46.75,0|2,3:0|2:0,2:0:0:0:
117,219,178917,1,0,1:0:0:0:
19,158,179167,1,2,2:0:0:0:
104,54,179417,5,6,3:2:0:0:
114,64,179542,2,0,P|170:88|218:81,1,93.5,2|2,2:0|2:0,2:0:0:0:
300,2,179917,2,0,P|307:48|315:94,1,93.5,2|0,1:2|1:0,2:0:0:0:
329,175,180292,1,0,3:0:0:0:
329,175,180417,1,2,2:0:0:0:
446,246,180667,1,2,3:2:0:0:
353,354,180917,2,0,P|360:317|368:284,2,46.75,2|0|0,1:2|3:0|2:0,2:0:0:0:
276,318,181292,1,2,2:0:0:0:
273,326,181417,6,0,P|203:352|164:350,1,93.5,6|2,3:2|2:0,2:0:0:0:
128,303,181792,1,2,3:2:0:0:
128,303,181917,1,2,1:2:0:0:
202,217,182167,2,0,P|212:182|216:156,1,46.75,2|0,2:0|3:0,2:0:0:0:
269,113,182417,2,0,P|264:90|257:67,1,46.75,2|0,2:0|2:0,2:0:0:0:
201,16,182667,1,0,3:0:0:0:
88,84,182917,1,2,1:2:0:0:
82,91,183042,2,0,P|67:150|86:199,1,93.5,6|2,3:2|2:0,2:0:0:0:
66,288,183417,6,0,P|109:278|137:272,1,46.75,6|0,3:2|2:0,2:0:0:0:
165,221,183667,1,2,2:0:0:0:
286,262,183917,2,0,P|276:308|270:330,1,46.75,2|2,1:2|2:0,2:0:0:0:
321,372,184167,1,2,2:0:0:0:
329,379,184292,2,0,P|376:378|429:336,1,93.5,2|0,3:2|1:0,2:0:0:0:
368,243,184667,1,0,3:0:0:0:
467,178,184917,2,0,P|472:131|485:87,1,93.5,2|2,1:2|2:0,2:0:0:0:
441,14,185292,5,0,2:0:0:0:
435,24,185417,2,0,P|398:33|358:39,1,46.75,2|0,1:2|3:0,2:0:0:0:
333,92,185667,2,0,P|296:83|256:77,1,46.75,0|0,3:0|3:0,2:0:0:0:
203,87,185917,2,0,P|214:44|219:15,2,46.75,2|0|2,1:2|3:0|2:0,2:0:0:0:
143,135,186292,1,0,1:0:0:0:
138,145,186417,2,0,P|147:179|154:218,1,46.75,0|0,1:0|3:0,2:0:0:0:
217,239,186667,1,2,2:0:0:0:
134,355,186917,1,2,1:2:0:0:
128,360,187042,2,0,P|65:357|43:302,1,93.5,0|0,3:0|3:0,2:0:0:0:
3,244,187417,6,0,P|72:259|115:264,1,93.5,6|2,3:2|2:0,2:0:0:0:
164,222,187792,1,2,2:0:0:0:
164,222,187917,1,0,1:0:0:0:
251,323,188167,1,2,2:0:0:0:
256,331,188292,2,0,P|308:330|342:291,1,93.5,2|2,3:2|1:2,2:0:0:0:
378,237,188667,1,0,3:0:0:0:
298,143,188917,2,0,P|372:125|411:115,1,93.5,2|0,1:2|2:0,2:0:0:0:
376,36,189292,5,0,2:0:0:0:
372,45,189417,2,0,P|298:63|259:73,1,93.5,2|2,3:2|2:0,2:0:0:0:
145,9,189917,2,0,P|155:40|164:79,1,46.75,0|0,1:0|2:0,2:0:0:0:
136,129,190167,1,2,2:0:0:0:
130,137,190292,2,0,P|67:139|35:103,1,93.5,2|2,3:2|3:2,2:0:0:0:
9,53,190667,1,0,3:0:0:0:
0,196,190917,2,0,P|12:250|30:308,1,93.5,2|0,1:2|2:0,2:0:0:0:
145,228,191417,6,0,P|206:232|238:269,1,93.5,2|2,3:2|2:0,2:0:0:0:
247,324,191792,1,2,2:0:0:0:
252,333,191917,2,0,P|308:343|359:350,1,93.5,0|2,1:0|2:0,2:0:0:0:
410,308,192292,1,2,3:2:0:0:
358,212,192542,1,2,2:0:0:0:
352,207,192667,2,0,P|344:170|340:138,1,46.75,0|2,3:0|2:0,2:0:0:0:
356,82,192917,2,0,P|306:118|244:119,1,93.5,2|2,1:2|2:0,2:0:0:0:
169,33,193417,6,0,P|165:84|154:146,1,93.5,2|2,3:2|2:0,2:0:0:0:
111,187,193792,1,2,2:0:0:0:
105,195,193917,2,0,P|65:206|29:215,2,46.75,0|2|2,1:0|2:0|2:0,2:0:0:0:
178,233,194292,2,0,P|202:292|190:341,1,93.5,2|2,3:2|1:2,2:0:0:0:
153,381,194667,1,2,3:2:0:0:
297,329,194917,2,0,P|358:343|403:350,1,93.5,2|2,1:2|3:2,2:0:0:0:
489,270,195417,5,6,3:2:0:0:
493,263,195542,2,0,P|491:199|454:169,1,93.5,2|2,2:0|2:0,2:0:0:0:
426,122,195917,2,0,P|362:150|310:158,1,93.5,2|0,1:2|2:0,2:0:0:0:
270,115,196292,1,0,3:0:0:0:
264,111,196417,2,0,P|272:77|278:55,2,46.75,2|2|2,2:0|2:0|3:2,2:0:0:0:
165,189,196917,2,0,P|154:130|151:82,1,93.5,2|0,1:2|2:0,2:0:0:0:
68,235,197417,6,0,P|39:229|5:219,2,46.75,2|2|2,3:2|2:0|2:0,2:0:0:0:
117,295,197792,2,0,P|180:299|205:354,1,93.5,2|0,2:0|2:0,2:0:0:0:
264,368,198167,1,2,2:0:0:0:
264,368,198292,1,2,3:2:0:0:
369,304,198542,2,0,P|360:275|356:240,1,46.75,2|0,2:0|3:0,2:0:0:0:
391,189,198792,1,2,2:0:0:0:
391,189,198917,1,0,1:0:0:0:
416,62,199167,2,0,P|366:79|343:83,1,46.75,2|2,2:0|2:0,2:0:0:0:
312,135,199417,6,0,P|265:120|198:111,1,93.5,2|2,3:2|2:0,2:0:0:0:
164,58,199792,1,2,2:0:0:0:
153,55,199917,2,0,P|108:86|91:147,1,93.5,2|2,1:2|2:0,2:0:0:0:
52,188,200292,1,2,3:2:0:0:
45,193,200417,2,0,P|8:184|-32:177,2,46.75,2|2|2,2:0|2:0|3:2,2:0:0:0:
122,289,200917,2,0,P|175:271|214:264,1,93.5,2|2,1:2|2:0,2:0:0:0:
326,333,201417,5,2,1:2:0:0:
319,327,201542,2,0,P|308:277|321:226,1,93.5,0|0,3:0|3:0,2:0:0:0:
389,189,201917,1,2,1:2:0:0:
395,183,202042,2,0,P|405:137|397:92,1,93.5,0|0,3:0|3:0,2:0:0:0:
334,45,202417,2,0,P|341:11|344:-11,2,46.75,0|0|0,1:0|3:0|3:0,2:0:0:0:
242,125,202917,2,0,P|164:99|48:86,1,187,0|2,1:0|2:0,2:0:0:0:
