osu file format v14

[General]
AudioFilename: audio.mp3
AudioLeadIn: 0
PreviewTime: 76805
Countdown: 0
SampleSet: Soft
StackLeniency: 0.2
Mode: 0
LetterboxInBreaks: 0
WidescreenStoryboard: 1

[Editor]
Bookmarks: 5430,21430,37430,53430,61492,97430,113430,133430,149430,171430,187430,195430,203367
DistanceSpacing: 0.2
BeatDivisor: 16
GridSize: 32
TimelineZoom: 2.3

[Metadata]
Title:Lil'b
TitleUnicode:リルビィ
Artist:Kuhaku Gokko
ArtistUnicode:空白ごっこ
Creator:Petal
Version:Inexplicable
Source:
Tags:japanese jpop pop j-pop rock jrock j-rock rirubyi rirubii 1st ep セツコ setsuko matha A_little_bit Lil’b KuhakuGokko agatsu seros torriru koldnoodl koyori
BeatmapID:3189187
BeatmapSetID:1561567

[Difficulty]
HPDrainRate:5.2
CircleSize:4
OverallDifficulty:9
ApproachRate:9
SliderMultiplier:2
SliderTickRate:1

[Events]
//Background and Video events
0,0,"BG.png",0,0
//Break Periods
//Storyboard Layer 0 (Background)
//Storyboard Layer 1 (Fail)
//Storyboard Layer 2 (Pass)
//Storyboard Layer 3 (Foreground)
//Storyboard Layer 4 (Overlay)
//Storyboard Sound Samples

[TimingPoints]
-583,500,4,2,1,15,1,0
917,-166.666666666667,4,2,1,15,0,0
1667,-50,4,2,1,15,0,0
2667,-100,4,2,1,15,0,0
2917,-12.5,4,2,1,25,0,0
2948,-12.5,4,2,1,15,0,0
3417,-100,4,2,1,20,0,0
3917,-100,4,2,1,20,0,0
4167,-100,4,2,1,30,0,0
5417,-76.9230769230769,4,2,1,45,0,0
6667,-100,4,2,1,45,0,0
8167,-38.4615384615385,4,2,1,45,0,0
8292,-166.666666666667,4,2,1,45,0,0
8917,-76.9230769230769,4,2,1,45,0,0
10667,-100,4,2,1,45,0,0
12167,-38.4615384615385,4,2,1,45,0,0
12292,-166.666666666667,4,2,1,45,0,0
12917,-76.9230769230769,4,2,1,45,0,0
14667,-100,4,2,1,45,0,0
16167,-38.4615384615385,4,2,1,45,0,0
16292,-166.666666666667,4,2,1,45,0,0
16917,-76.9230769230769,4,2,1,45,0,0
18667,-100,4,2,1,45,0,0
18917,-76.9230769230769,4,2,1,45,0,0
19417,-76.9230769230769,4,2,1,55,0,0
20167,-38.4615384615385,4,2,1,65,0,0
20542,-100,4,2,1,65,0,0
20917,-76.9230769230769,4,2,1,65,0,0
21042,-50,4,2,1,65,0,0
21417,-58.8235294117647,4,2,1,70,0,0
22292,-66.6666666666667,4,2,1,70,0,0
23354,-66.6666666666667,4,2,1,5,0,0
23417,-66.6666666666667,4,2,1,70,0,0
23917,-50,4,2,1,70,0,0
24104,-50,4,2,1,5,0,0
24167,-50,4,2,1,70,0,0
24292,-66.6666666666667,4,2,1,70,0,0
24542,-50,4,2,1,70,0,0
24667,-50,4,2,1,70,0,0
24917,-66.6666666666667,4,2,1,70,0,0
25417,-58.8235294117647,4,2,1,70,0,0
26292,-66.6666666666667,4,2,1,70,0,0
27354,-66.6666666666667,4,2,1,5,0,0
27417,-66.6666666666667,4,2,1,70,0,0
27917,-50,4,2,1,70,0,0
28104,-50,4,2,1,5,0,0
28167,-50,4,2,1,70,0,0
28292,-66.6666666666667,4,2,1,70,0,0
28542,-50,4,2,1,70,0,0
28667,-50,4,2,1,70,0,0
28917,-66.6666666666667,4,2,1,70,0,0
29417,-58.8235294117647,4,2,1,70,0,0
30292,-66.6666666666667,4,2,1,70,0,0
31354,-66.6666666666667,4,2,1,5,0,0
31417,-66.6666666666667,4,2,1,70,0,0
31917,-50,4,2,1,70,0,0
32104,-50,4,2,1,5,0,0
32167,-50,4,2,1,70,0,0
32292,-66.6666666666667,4,2,1,70,0,0
32542,-50,4,2,1,70,0,0
32667,-50,4,2,1,70,0,0
32917,-66.6666666666667,4,2,1,70,0,0
33417,-58.8235294117647,4,2,1,70,0,0
34292,-66.6666666666667,4,2,1,70,0,0
35354,-66.6666666666667,4,2,1,5,0,0
35417,-66.6666666666667,4,2,1,70,0,0
36542,-58.8235294117647,4,2,1,70,0,0
37417,-90.9090909090909,4,2,1,45,0,0
39167,-66.6666666666667,4,2,1,45,0,0
39354,-66.6666666666667,4,2,1,5,0,0
39417,-90.9090909090909,4,2,1,45,0,0
43354,-90.9090909090909,4,2,1,5,0,0
43417,-90.9090909090909,4,2,1,45,0,0
47167,-66.6666666666667,4,2,1,45,0,0
47354,-66.6666666666667,4,2,1,5,0,0
47417,-90.9090909090909,4,2,1,45,0,0
51354,-90.9090909090909,4,2,1,5,0,0
51417,-90.9090909090909,4,2,1,45,0,0
51917,-66.6666666666667,4,2,1,55,0,0
52104,-66.6666666666667,4,2,1,5,0,0
52167,-66.6666666666667,4,2,1,55,0,0
53167,-166.666666666667,4,2,1,55,0,0
53354,-166.666666666667,4,2,1,5,0,0
53417,-58.8235294117647,4,2,1,65,0,0
54292,-66.6666666666667,4,2,1,65,0,0
54917,-58.8235294117647,4,2,1,65,0,0
55354,-58.8235294117647,4,2,1,5,0,0
55417,-58.8235294117647,4,2,1,65,0,0
56167,-50,4,2,1,65,0,0
56292,-66.6666666666667,4,2,1,65,0,0
56542,-50,4,2,1,65,0,0
56667,-66.6666666666667,4,2,1,65,0,0
56917,-66.6666666666667,4,2,1,65,0,0
57417,-58.8235294117647,4,2,1,65,0,0
58292,-66.6666666666667,4,2,1,65,0,0
58917,-58.8235294117647,4,2,1,65,0,0
59354,-58.8235294117647,4,2,1,5,0,0
59417,-58.8235294117647,4,2,1,65,0,0
61417,-66.6666666666667,4,2,1,55,0,0
63167,-58.8235294117647,4,2,1,55,0,0
63354,-58.8235294117647,4,2,1,5,0,0
63417,-66.6666666666667,4,2,1,55,0,0
63917,-45.4545454545455,4,2,1,55,0,0
64417,-66.6666666666667,4,2,1,55,0,0
64667,-100,4,2,1,55,0,0
64917,-66.6666666666667,4,2,1,55,0,0
65167,-100,4,2,1,55,0,0
65417,-66.6666666666667,4,2,1,55,0,0
67167,-58.8235294117647,4,2,1,55,0,0
67354,-58.8235294117647,4,2,1,5,0,0
67417,-66.6666666666667,4,2,1,55,0,0
67917,-45.4545454545455,4,2,1,55,0,0
68292,-66.6666666666667,4,2,1,55,0,0
68917,-45.4545454545455,4,2,1,55,0,0
69167,-58.8235294117647,4,2,1,55,0,0
69354,-58.8235294117647,4,2,1,5,0,0
69417,-66.6666666666667,4,2,1,55,0,0
71167,-58.8235294117647,4,2,1,55,0,0
71354,-58.8235294117647,4,2,1,5,0,0
71417,-66.6666666666667,4,2,1,55,0,0
71917,-45.4545454545455,4,2,1,55,0,0
72292,-66.6666666666667,4,2,1,55,0,0
72667,-58.8235294117647,4,2,1,55,0,0
73417,-66.6666666666667,4,2,1,55,0,0
73917,-45.4545454545455,4,2,1,55,0,0
74417,-62.5,4,2,1,65,0,0
76417,-33.3333333333333,4,2,1,65,0,0
76604,-33.3333333333333,4,2,1,5,0,0
76917,-250,4,2,1,45,0,0
77417,-58.8235294117647,4,2,1,80,0,1
81417,-50,4,2,1,80,0,1
81604,-50,4,2,1,5,0,1
81667,-58.8235294117647,4,2,1,80,0,1
83917,-45.4545454545455,4,2,1,80,0,1
84292,-58.8235294117647,4,2,1,80,0,1
84667,-41.6666666666667,4,2,1,80,0,1
84854,-41.6666666666667,4,2,1,5,0,1
84917,-45.4545454545455,4,2,1,80,0,1
85167,-58.8235294117647,4,2,1,80,0,0
85417,-58.8235294117647,4,2,1,80,0,1
89417,-45.4545454545455,4,2,1,80,0,1
89604,-45.4545454545455,4,2,1,5,0,1
89667,-58.8235294117647,4,2,1,80,0,1
93417,-58.8235294117647,4,2,1,60,0,0
94667,-100,4,2,1,40,0,0
96667,-250,4,2,1,40,0,0
97417,-58.8235294117647,4,2,1,70,0,0
98292,-62.5,4,2,1,70,0,0
98917,-40,4,2,1,70,0,0
99354,-40,4,2,1,5,0,0
99417,-62.5,4,2,1,70,0,0
100667,-31.25,4,2,1,70,0,0
100917,-45.4545454545455,4,2,1,70,0,0
101167,-62.5,4,2,1,70,0,0
101417,-58.8235294117647,4,2,1,70,0,0
102292,-62.5,4,2,1,70,0,0
102917,-40,4,2,1,70,0,0
103354,-40,4,2,1,5,0,0
103417,-62.5,4,2,1,70,0,0
104667,-31.25,4,2,1,70,0,0
104917,-45.4545454545455,4,2,1,70,0,0
105167,-62.5,4,2,1,70,0,0
105417,-58.8235294117647,4,2,1,70,0,0
106292,-62.5,4,2,1,70,0,0
106917,-40,4,2,1,70,0,0
107354,-40,4,2,1,5,0,0
107417,-62.5,4,2,1,70,0,0
108667,-31.25,4,2,1,70,0,0
108917,-45.4545454545455,4,2,1,70,0,0
109167,-62.5,4,2,1,70,0,0
109417,-58.8235294117647,4,2,1,70,0,0
110292,-62.5,4,2,1,70,0,0
110917,-40,4,2,1,70,0,0
111354,-40,4,2,1,5,0,0
111417,-62.5,4,2,1,70,0,0
112292,-38.4615384615385,4,2,1,70,0,0
112667,-62.5,4,2,1,70,0,0
113917,-90.9090909090909,4,2,1,45,0,0
115167,-66.6666666666667,4,2,1,45,0,0
115354,-66.6666666666667,4,2,1,5,0,0
115417,-90.9090909090909,4,2,1,45,0,0
116917,-45.4545454545455,4,2,1,45,0,0
117167,-90.9090909090909,4,2,1,45,0,0
117417,-166.666666666667,4,2,1,45,0,0
118417,-90.9090909090909,4,2,1,45,0,0
119167,-66.6666666666667,4,2,1,45,0,0
119354,-66.6666666666667,4,2,1,5,0,0
119417,-90.9090909090909,4,2,1,45,0,0
119917,-66.6666666666667,4,2,1,45,0,0
120104,-66.6666666666667,4,2,1,5,0,0
120167,-66.6666666666667,4,2,1,45,0,0
120292,-90.9090909090909,4,2,1,45,0,0
121167,-66.6666666666667,4,2,1,45,0,0
121354,-66.6666666666667,4,2,1,5,0,0
121417,-166.666666666667,4,2,1,45,0,0
122417,-90.9090909090909,4,2,1,45,0,0
123167,-66.6666666666667,4,2,1,45,0,0
123354,-66.6666666666667,4,2,1,5,0,0
123417,-90.9090909090909,4,2,1,45,0,0
124917,-45.4545454545455,4,2,1,45,0,0
125167,-90.9090909090909,4,2,1,45,0,0
125417,-166.666666666667,4,2,1,45,0,0
126417,-90.9090909090909,4,2,1,45,0,0
126667,-166.666666666667,4,2,1,45,0,0
126917,-45.4545454545455,4,2,1,45,0,0
127167,-90.9090909090909,4,2,1,45,0,0
129417,-166.666666666667,4,2,1,45,0,0
130417,-90.9090909090909,4,2,1,45,0,0
131167,-66.6666666666667,4,2,1,45,0,0
131354,-66.6666666666667,4,2,1,5,0,0
131417,-66.6666666666667,4,2,1,45,0,0
132917,-250,4,2,1,45,0,0
133417,-58.8235294117647,4,2,1,80,0,1
137417,-50,4,2,1,80,0,1
137604,-50,4,2,1,5,0,1
137667,-45.4545454545455,4,2,1,80,0,1
138292,-58.8235294117647,4,2,1,80,0,1
138667,-45.4545454545455,4,2,1,80,0,1
138854,-45.4545454545455,4,2,1,5,0,1
138917,-45.4545454545455,4,2,1,80,0,1
139104,-45.4545454545455,4,2,1,5,0,1
139167,-58.8235294117647,4,2,1,80,0,1
139917,-45.4545454545455,4,2,1,80,0,1
140292,-58.8235294117647,4,2,1,80,0,1
140917,-45.4545454545455,4,2,1,80,0,1
141104,-45.4545454545455,4,2,1,5,0,1
141167,-58.8235294117647,4,2,1,80,0,0
141417,-58.8235294117647,4,2,1,80,0,1
145917,-45.4545454545455,4,2,1,80,0,1
146292,-58.8235294117647,4,2,1,80,0,1
146667,-50,4,2,1,80,0,1
146854,-58.8235294117647,4,2,1,5,0,1
146917,-45.4545454545455,4,2,1,80,0,1
147167,-58.8235294117647,4,2,1,80,0,1
149417,-58.8235294117647,4,2,1,60,0,0
150667,-100,4,2,1,40,0,0
151417,-82.3155227439974,4,2,1,40,0,0
151917,-58.8235294117647,4,2,1,40,0,0
153417,-58.8235294117647,4,2,1,50,0,0
157417,-90.9090909090909,4,2,1,40,0,0
161417,-90.9090909090909,4,2,1,50,0,0
165417,-90.9090909090909,4,2,1,40,0,0
166417,-90.9090909090909,4,2,1,50,0,0
167417,-90.9090909090909,4,2,1,35,0,0
168167,-250,4,2,1,20,0,0
168417,-90.8643284558025,4,2,1,20,0,0
170917,-199.783477661421,4,2,1,45,0,0
171417,-55.5555555555556,4,2,1,85,0,1
175417,-50,4,2,1,85,0,1
175604,-50,4,2,1,5,0,1
175667,-45.4545454545455,4,2,1,85,0,1
176292,-55.5555555555556,4,2,1,85,0,1
176667,-45.4545454545455,4,2,1,85,0,1
176854,-45.4545454545455,4,2,1,5,0,1
176917,-45.4545454545455,4,2,1,85,0,1
177104,-45.4545454545455,4,2,1,5,0,1
177167,-55.5555555555556,4,2,1,85,0,1
177917,-45.4545454545455,4,2,1,85,0,1
178292,-55.5555555555556,4,2,1,85,0,1
178917,-45.4545454545455,4,2,1,85,0,1
179104,-45.4545454545455,4,2,1,5,0,1
179167,-55.5555555555556,4,2,1,85,0,0
179417,-55.5555555555556,4,2,1,85,0,1
187417,-55.5555555555556,4,2,1,80,0,0
193167,-45.4545454545455,4,2,1,80,0,0
193354,-45.4545454545455,4,2,1,5,0,0
193417,-55.5555555555556,4,2,1,80,0,0
203417,-200,4,2,1,50,0,0
204292,-100,4,2,1,50,0,0
209167,-50,4,2,1,50,0,0
209354,-50,4,2,1,5,0,0
209417,-100,4,2,1,50,0,0
211042,-62.5,4,2,1,50,0,0
211417,-62.5,4,2,1,20,0,0

[Colours]
Combo1 : 255,128,64
Combo2 : 0,149,149
Combo3 : 128,128,192
Combo4 : 64,128,128

[HitObjects]
0,6,917,6,0,L|34:-1,1,29.9999990844727,2|2,0:3|0:3,0:0:0:0:
201,96,1167,2,0,L|231:90,1,29.9999990844727,2|2,0:3|0:3,0:0:0:0:
307,75,1417,5,0,3:0:0:0:
53,177,1667,2,0,L|33:70,2,100,2|0|0,0:3|3:0|1:0,0:0:0:0:
87,357,2167,5,0,1:0:0:0:
134,295,2292,1,0,1:0:0:0:
68,254,2417,2,0,L|39:261,3,25,0|0|0|0,1:0|1:0|1:0|1:0,0:0:0:0:
204,336,2667,6,0,L|218:403,1,50,0|0,3:0|0:0,0:0:0:0:
364,134,2917,6,0,B|347:146|347:146|327:248,12,100,0|0|0|0|0|0|0|0|0|0|0|0|0,1:0|1:0|1:0|1:0|1:0|1:0|1:0|1:0|1:0|1:0|1:0|1:0|1:0,0:0:0:0:
417,195,3417,5,4,1:3:0:0:
430,189,3479,1,4,1:3:0:0:
420,201,3542,1,4,1:3:0:0:
433,195,3604,1,4,1:3:0:0:
424,206,3667,1,4,1:3:0:0:
437,200,3729,1,4,1:3:0:0:
427,212,3792,1,4,1:3:0:0:
440,206,3854,1,4,1:3:0:0:
439,216,3917,6,0,L|431:248,2,25,0|0|0,1:0|1:0|3:0,0:0:0:0:
327,316,4167,5,2,3:1:0:0:
350,305,4292,1,0,3:0:0:0:
373,294,4417,1,0,3:0:0:0:
436,346,4667,5,2,3:1:0:0:
350,305,4792,1,0,3:0:0:0:
267,264,4917,1,0,1:0:0:0:
119,384,5167,6,0,L|108:335,1,50,2|2,0:3|0:3,0:0:0:0:
97,328,5417,6,0,P|121:315|198:386,2,129.999994049073,2|2|8,3:0|0:3|0:0,0:0:0:0:
67,192,6167,5,2,0:3:0:0:
78,196,6292,1,8,0:0:0:0:
104,178,6542,5,8,0:0:0:0:
11,244,6667,2,0,L|27:318,1,50,2|0,3:0|0:0,0:0:0:0:
188,172,6917,2,0,P|181:104|231:21,1,150,8|0,0:0|0:0,0:0:0:0:
37,22,7417,6,0,P|73:68|131:45,2,100,0|2|8,3:0|0:3|0:0,0:0:0:0:
275,85,8167,6,0,P|257:116|274:167,1,64.9999970245363,2|0,0:1|0:0,0:0:0:0:
313,199,8292,2,0,L|346:191,1,29.9999990844727,2|0,0:3|0:0,0:0:0:0:
437,283,8542,5,2,0:3:0:0:
511,266,8667,1,2,3:1:0:0:
457,210,8792,1,2,0:3:0:0:
490,338,8917,2,0,P|415:347|371:407,1,129.999994049073,8|2,0:0|0:3,0:0:0:0:
194,247,9417,6,0,B|250:260|250:260|253:266|253:266|339:286,2,129.999994049073,0|2|8,3:0|0:3|0:0,0:0:0:0:
412,78,10167,5,2,0:3:0:0:
416,67,10292,1,8,0:0:0:0:
398,41,10542,5,8,0:0:0:0:
464,134,10667,2,0,L|538:118,1,50,2|0,3:0|0:0,0:0:0:0:
330,0,10917,2,0,P|282:7|224:98,1,150,8|0,0:0|0:0,0:0:0:0:
78,8,11417,6,0,P|114:54|172:31,2,100,0|2|8,3:0|0:3|0:0,0:0:0:0:
291,126,12167,6,0,P|276:151|229:156,1,64.9999970245363,2|0,0:1|0:0,0:0:0:0:
169,185,12292,2,0,P|154:181|145:160,1,29.9999990844727,2|0,0:3|0:0,0:0:0:0:
74,282,12542,5,2,0:3:0:0:
0,265,12667,1,2,3:1:0:0:
54,209,12792,1,2,0:3:0:0:
21,337,12917,2,0,P|96:346|140:406,1,129.999994049073,8|2,0:0|0:3,0:0:0:0:
376,237,13417,6,0,P|332:213|329:286,2,129.999994049073,0|2|8,3:0|0:3|0:0,0:0:0:0:
199,284,14167,5,2,0:3:0:0:
188,288,14292,1,8,0:0:0:0:
162,270,14542,5,8,0:0:0:0:
255,336,14667,2,0,L|239:410,1,50,2|0,3:0|0:0,0:0:0:0:
85,232,14917,2,0,P|148:233|199:154,1,150,8|0,0:0|0:0,0:0:0:0:
101,56,15417,6,0,L|121:170,2,100,0|2|8,3:0|0:3|0:0,0:0:0:0:
341,17,16167,6,0,P|312:18|288:55,1,64.9999970245363,2|0,0:1|0:0,0:0:0:0:
211,36,16292,2,0,P|206:49|220:67,1,29.9999990844727,2|0,0:3|0:0,0:0:0:0:
347,170,16542,5,2,0:3:0:0:
416,139,16667,1,2,3:1:0:0:
353,94,16792,1,2,0:3:0:0:
408,214,16917,2,0,P|335:235|302:302,1,129.999994049073,8|2,0:0|0:3,0:0:0:0:
59,374,17417,6,0,B|46:315|46:315|38:311|38:311|21:231,2,129.999994049073,0|2|8,3:0|0:3|0:0,0:0:0:0:
226,244,18167,5,2,0:3:0:0:
222,233,18292,1,8,0:0:0:0:
240,207,18542,5,8,0:0:0:0:
174,300,18667,2,0,L|100:284,1,50,2|0,3:0|0:0,0:0:0:0:
0,164,18917,2,0,P|60:168|145:52,1,194.999991073609,8|0,0:0|0:0,0:0:0:0:
209,27,19417,5,0,3:0:0:0:
394,124,19542,1,0,1:0:0:0:
393,106,19667,1,0,1:0:0:0:
379,115,19792,1,0,1:0:0:0:
341,181,19917,6,0,L|288:166,1,32.4999985122681,0|0,1:0|0:0,0:0:0:0:
240,101,20042,2,0,P|262:91|271:73,1,32.4999985122681,0|0,3:0|0:0,0:0:0:0:
455,4,20167,6,0,L|484:152,1,129.999994049073,2|0,0:1|1:0,0:0:0:0:
512,341,20417,5,0,1:0:0:0:
395,242,20542,2,0,L|509:267,1,100,0|0,3:0|0:0,0:0:0:0:
442,377,20917,6,0,L|392:389,1,32.4999985122681,0|0,1:0|0:0,0:0:0:0:
143,260,21042,2,0,L|341:304,1,200,0|0,3:0|0:0,0:0:0:0:
114,352,21417,6,0,L|84:164,2,170.000003242493,6|2|2,3:2|0:0|1:2,0:0:0:0:
87,184,22167,5,2,0:0:0:0:
13,152,22292,2,0,P|93:140|127:61,1,150.000005722046,0|0,3:0|1:0,0:0:0:0:
200,56,22667,2,0,B|280:74,1,75.0000028610231,2|0,3:2|0:0,0:0:0:0:
277,151,22917,1,0,1:0:0:0:
437,44,23042,1,0,0:0:0:0:
365,3,23167,2,0,B|343:133,1,112.500004291535,2|0,0:0|0:0,0:0:0:0:
277,151,23417,6,0,P|357:163|391:242,1,150.000005722046,0|2,3:0|0:3,0:0:0:0:
512,359,23917,6,0,L|341:389,1,150,0|0,1:0|0:0,0:0:0:0:
354,378,24167,6,0,L|368:311,1,50,2|0,0:1|0:0,0:0:0:0:
310,230,24292,2,0,L|224:247,1,75.0000028610231,0|0,3:0|0:0,0:0:0:0:
274,369,24542,6,0,L|288:307,1,50,0|0,1:0|0:0,0:0:0:0:
165,203,24667,2,0,L|46:225,1,100,2|0,3:1|0:0,0:0:0:0:
194,356,24917,6,0,B|188:379|188:379|91:361|91:361|97:323,1,150.000005722046,0|2,1:0|0:0,0:0:0:0:
258,152,25417,6,0,L|284:319,2,170.000003242493,2|2|2,3:2|0:0|1:2,0:0:0:0:
422,59,26167,5,2,0:0:0:0:
438,135,26292,2,0,P|410:96|304:105,1,150.000005722046,0|0,3:0|1:0,0:0:0:0:
258,152,26667,2,0,L|177:132,1,75.0000028610231,2|0,3:2|0:0,0:0:0:0:
145,67,26917,1,0,1:0:0:0:
40,225,27042,1,0,0:0:0:0:
123,241,27167,2,0,L|97:131,1,112.500004291535,2|0,0:0|0:0,0:0:0:0:
145,67,27417,6,0,P|73:78|22:27,1,150.000005722046,0|2,3:0|0:3,0:0:0:0:
282,4,27917,6,0,L|254:173,1,150,0|0,1:0|0:0,0:0:0:0:
267,158,28167,6,0,L|334:144,1,50,2|0,0:1|0:0,0:0:0:0:
472,66,28292,2,0,L|455:152,1,75.0000028610231,0|0,3:0|0:0,0:0:0:0:
315,226,28542,6,0,L|377:212,1,50,0|0,1:0|0:0,0:0:0:0:
506,204,28667,2,0,L|484:323,1,100,2|0,3:1|0:0,0:0:0:0:
271,292,28917,6,0,B|265:317|265:317|362:338|362:338|367:314,1,150.000005722046,0|2,1:0|0:0,0:0:0:0:
158,177,29417,6,0,B|78:197|78:197|73:208|73:208|-27:232,2,170.000003242493,2|2|2,3:2|0:0|1:2,0:0:0:0:
61,376,30167,5,2,0:0:0:0:
15,313,30292,2,0,P|66:298|138:370,1,150.000005722046,0|0,3:0|1:0,0:0:0:0:
209,381,30667,2,0,L|289:363,1,75.0000028610231,2|0,3:2|0:0,0:0:0:0:
317,294,30917,1,0,1:0:0:0:
464,367,31042,1,0,0:0:0:0:
379,384,31167,2,0,L|404:274,1,112.500004291535,2|0,0:0|0:0,0:0:0:0:
350,220,31417,6,0,P|429:236|475:166,1,150.000005722046,0|2,3:0|0:3,0:0:0:0:
444,0,31917,6,0,L|263:29,1,150,0|0,1:0|0:0,0:0:0:0:
289,31,32167,6,0,L|303:98,1,50,2|0,0:1|0:0,0:0:0:0:
245,179,32292,2,0,L|159:162,1,75.0000028610231,0|0,3:0|0:0,0:0:0:0:
209,40,32542,6,0,L|223:102,1,50,0|0,1:0|0:0,0:0:0:0:
100,206,32667,2,0,L|-19:184,1,100,2|0,3:1|0:0,0:0:0:0:
75,4,32917,6,0,B|112:18|112:18|125:91|125:91|89:133,1,150.000005722046,0|2,1:0|0:0,0:0:0:0:
175,248,33417,6,0,B|253:230|253:230|259:224|259:224|345:203,2,170.000003242493,2|2|0,3:2|0:0|1:0,0:0:0:0:
438,355,34167,5,2,0:0:0:0:
512,323,34292,2,0,P|432:311|398:232,1,150.000005722046,0|0,3:0|1:0,0:0:0:0:
338,204,34667,2,0,L|357:116,1,75.0000028610231,2|0,3:2|0:0,0:0:0:0:
422,93,34917,1,0,1:0:0:0:
265,1,35042,1,0,0:0:0:0:
300,73,35167,2,0,L|163:101,1,112.500004291535,2|0,0:0|0:0,0:0:0:0:
138,157,35417,5,0,1:0:0:0:
114,80,35542,1,0,1:0:0:0:
215,172,35666,1,0,1:0:0:0:
84,216,35792,1,0,1:0:0:0:
138,157,35917,5,0,1:0:0:0:
10,237,36042,1,0,3:0:0:0:
65,291,36167,1,0,0:0:0:0:
84,216,36292,1,0,3:0:0:0:
43,366,36417,5,0,1:0:0:0:
319,309,36542,2,0,P|265:284|259:246,2,85.0000016212464,0|0|0,1:0|0:0|3:0,0:0:0:0:
138,157,36917,5,0,1:0:0:0:
289,381,37042,2,0,P|356:305|350:232,1,170.000003242493,0|0,3:0|0:0,0:0:0:0:
290,192,37417,5,6,3:2:0:0:
501,93,37917,5,2,1:2:0:0:
509,76,38042,1,2,0:0:0:0:
446,33,38167,1,2,0:0:0:0:
351,141,38292,1,2,3:2:0:0:
309,77,38417,2,0,L|426:108,2,110.000003356934,2|2|2,0:0|3:2|1:2,0:0:0:0:
0,45,39167,6,0,P|27:-5|83:5,1,112.500004291535,2|0,0:0|0:0,0:0:0:0:
124,59,39417,2,0,L|99:166,2,110.000003356934,0|0|0,3:0|0:0|1:0,0:0:0:0:
278,258,40167,5,0,0:0:0:0:
282,240,40292,1,0,3:0:0:0:
223,186,40417,6,0,L|159:202,1,55.0000016784668,2|0,0:0|0:0,0:0:0:0:
130,266,40667,2,0,L|66:282,1,55.0000016784668,2|0,3:2|0:0,0:0:0:0:
227,173,40917,6,0,L|163:189,1,55.0000016784668,2|0,1:2|0:0,0:0:0:0:
250,371,41167,2,0,L|314:387,1,55.0000016784668,2|0,0:0|0:0,0:0:0:0:
207,300,41417,5,0,3:0:0:0:
391,383,41917,6,0,P|379:353|396:325,1,55.0000016784668,2|0,1:2|0:0,0:0:0:0:
459,304,42167,2,0,L|523:320,1,55.0000016784668,2|0,0:0|3:0,0:0:0:0:
314,170,42417,5,2,0:0:0:0:
309,186,42542,1,2,0:0:0:0:
339,271,42667,5,2,3:2:0:0:
321,196,42792,1,2,0:0:0:0:
440,213,42917,6,0,L|510:233,1,55.0000016784668,2|0,1:2|0:0,0:0:0:0:
325,62,43167,2,0,P|288:95|241:86,1,82.5000025177003,2|0,0:0|0:0,0:0:0:0:
207,35,43417,6,0,L|90:7,2,110.000003356934,0|0|0,3:0|0:0|1:0,0:0:0:0:
130,216,44167,5,0,0:0:0:0:
111,144,44292,2,0,L|93:75,1,55.0000016784668,0|0,3:0|0:0,0:0:0:0:
203,197,44542,2,0,L|272:179,1,55.0000016784668,0|0,0:0|3:0,0:0:0:0:
57,237,44792,2,0,L|-12:255,1,55.0000016784668,0|0,0:0|1:0,0:0:0:0:
130,216,45042,1,0,0:0:0:0:
150,287,45167,2,0,L|168:356,1,55.0000016784668
111,144,45417,5,0,3:0:0:0:
254,319,45917,5,2,1:2:0:0:
259,299,46042,1,2,0:0:0:0:
323,342,46167,1,2,0:0:0:0:
448,244,46292,1,2,3:2:0:0:
367,236,46417,2,0,L|380:290,2,55.0000016784668,2|2|2,0:0|0:0|3:2,0:0:0:0:
325,62,46917,5,2,1:2:0:0:
410,172,47167,2,0,P|428:124|488:89,1,112.500004291535,2|0,0:0|0:0,0:0:0:0:
405,40,47417,6,0,P|396:15|366:-1,1,55.0000016784668,0|0,3:0|0:0,0:0:0:0:
273,117,47667,2,0,P|221:119|169:165,1,110.000003356934,2|0,0:0|1:0,0:0:0:0:
33,81,48167,5,0,0:0:0:0:
150,39,48292,1,0,3:0:0:0:
76,11,48417,2,0,P|107:51|105:121,1,110.000003356934,2|0,0:0|3:0,0:0:0:0:
171,231,48917,6,0,P|145:229|119:206,1,55.0000016784668,2|0,1:2|0:0,0:0:0:0:
3,162,49167,2,0,P|29:164|55:187,1,55.0000016784668,2|0,0:0|0:0,0:0:0:0:
171,231,49417,2,0,B|177:276|131:298|131:298|85:320|91:384,1,165.000005035401,0|0,3:0|0:0,0:0:0:0:
23,280,49917,2,0,P|15:264|33:277,1,55.0000016784668,2|0,1:2|0:0,0:0:0:0:
253,236,50167,5,2,0:0:0:0:
201,349,50292,2,0,P|225:331|235:286,1,55.0000016784668,0|0,3:0|0:0,0:0:0:0:
250,222,50542,5,0,0:0:0:0:
367,293,50667,2,0,P|336:295|300:267,1,55.0000016784668,0|0,3:0|0:0,0:0:0:0:
212,96,50917,6,0,L|227:152,1,55.0000016784668,2|0,1:2|0:0,0:0:0:0:
419,235,51167,2,0,P|426:185|471:156,1,82.5000025177003,2|0,0:0|0:0,0:0:0:0:
512,124,51417,6,0,P|497:84|474:80,1,55.0000016784668,0|0,3:0|0:0,0:0:0:0:
358,147,51667,2,0,L|288:166,1,55.0000016784668
186,12,51917,6,0,P|209:42|291:40,1,112.500004291535,6|0,1:2|0:0,0:0:0:0:
374,30,52167,5,2,0:1:0:0:
359,17,52292,1,0,3:0:0:0:
356,35,52417,1,0,1:0:0:0:
226,149,52542,1,0,3:0:0:0:
165,103,52667,2,0,L|83:121,1,75.0000028610231,2|0,0:1|3:0,0:0:0:0:
25,274,52917,5,0,1:0:0:0:
156,186,53042,1,0,3:0:0:0:
66,209,53167,2,0,P|88:222|97:250,1,44.999998626709,2|0,0:1|0:0,0:0:0:0:
282,240,53417,6,0,P|227:279|201:397,2,170.000003242493,6|2|2,3:2|0:0|1:2,0:0:0:0:
503,240,54167,5,2,0:0:0:0:
505,162,54292,2,0,P|462:133|441:212,1,150.000005722046,0|0,3:0|0:0,0:0:0:0:
405,277,54667,2,0,P|383:291|372:252,1,75.0000028610231,2|0,3:2|0:0,0:0:0:0:
215,58,54917,2,0,P|198:19|161:0,1,85.0000016212464,0|0,1:0|0:0,0:0:0:0:
300,39,55167,2,0,P|260:66|242:151,1,127.50000243187,2|0,0:0|0:0,0:0:0:0:
81,77,55417,6,0,P|98:138|198:195,2,170.000003242493,0|0|0,3:0|0:0|1:0,0:0:0:0:
283,273,56167,6,0,P|258:280|245:304,1,50,2|0,0:1|0:0,0:0:0:0:
185,353,56292,2,0,P|138:340|114:295,1,75.0000028610231,0|0,3:0|0:0,0:0:0:0:
349,372,56542,6,0,P|324:365|311:341,1,50,0|0,1:0|0:0,0:0:0:0:
172,263,56667,2,0,P|170:214|204:178,1,75.0000028610231,2|0,3:1|0:0,0:0:0:0:
419,113,56917,6,0,B|379:118|359:77|359:77|340:36|287:38,1,150.000005722046,0|2,1:0|0:0,0:0:0:0:
440,202,57417,6,0,P|447:143|531:46,2,170.000003242493,2|2|2,3:2|0:0|1:2,0:0:0:0:
228,1,58167,5,2,0:0:0:0:
226,79,58292,2,0,P|269:108|290:29,1,150.000005722046,0|0,3:0|0:0,0:0:0:0:
378,17,58667,2,0,P|399:2|410:42,1,75.0000028610231,2|0,3:2|0:0,0:0:0:0:
183,211,58917,2,0,P|140:221|108:268,1,85.0000016212464,0|0,1:0|0:0,0:0:0:0:
261,186,59167,2,0,P|202:169|155:105,1,127.50000243187,2|0,0:0|0:0,0:0:0:0:
8,151,59417,6,0,P|5:74|62:-4,1,170.000003242493,0|0,3:0|0:0,0:0:0:0:
139,3,59792,1,0,3:0:0:0:
94,164,59917,5,0,1:0:0:0:
45,81,60042,1,0,3:0:0:0:
8,151,60292,5,0,3:0:0:0:
200,54,60417,1,0,1:0:0:0:
348,177,60542,2,0,P|347:219|318:259,1,85.0000016212464,0|0,3:0|0:0,0:0:0:0:
27,364,60792,5,0,3:0:0:0:
124,245,60917,1,0,1:0:0:0:
0,292,61042,1,0,3:0:0:0:
151,316,61167,5,2,0:3:0:0:
103,377,61292,1,2,0:3:0:0:
48,233,61417,6,0,P|108:221|167:128,1,150.000005722046,6|2,3:2|0:3,0:0:0:0:
124,90,61792,1,0,0:0:0:0:
351,76,61917,5,2,1:2:0:0:
277,45,62042,1,2,0:0:0:0:
340,0,62167,1,2,0:0:0:0:
289,123,62292,2,0,P|349:135|408:228,1,150.000005722046,2|2,3:2|0:3,0:0:0:0:
512,302,62667,6,0,L|492:379,1,75.0000028610231,2|0,3:2|0:0,0:0:0:0:
333,238,62917,2,0,P|312:207|276:201,1,75.0000028610231,2|0,1:2|0:0,0:0:0:0:
481,191,63167,2,0,B|480:226|442:237|442:237|405:247|404:282,1,127.50000243187,2|0,0:0|0:0,0:0:0:0:
407,357,63417,6,0,P|346:381|338:317,1,150.000005722046,0|2,3:0|0:3,0:0:0:0:
404,280,63792,1,0,0:0:0:0:
128,384,63917,2,0,B|95:374|112:362|81:345|81:345|110:332|131:365,1,110.000003356934,0|0,1:0|0:0,0:0:0:0:
202,356,64167,1,2,0:3:0:0:
206,367,64292,1,0,1:0:0:0:
25,241,64417,6,0,P|62:231|84:186,1,75.0000028610231,2|0,0:0|1:0,0:0:0:0:
109,88,64667,2,0,L|125:151,1,50,2|0,3:2|0:0,0:0:0:0:
260,187,64917,6,0,P|222:196|181:168,1,75.0000028610231,2|0,1:2|0:0,0:0:0:0:
115,78,65167,2,0,L|131:141,1,50,2|0,0:0|0:0,0:0:0:0:
163,287,65417,6,0,B|201:282|209:238|209:238|218:192|259:187,1,150.000005722046,0|2,3:0|0:3,0:0:0:0:
332,218,65792,1,0,0:0:0:0:
400,123,65917,5,2,1:2:0:0:
477,140,66042,1,2,0:0:0:0:
404,106,66167,1,2,0:0:0:0:
481,123,66292,1,2,3:2:0:0:
379,5,66417,6,0,P|349:32|297:17,1,75.0000028610231,2|0,0:0|1:0,0:0:0:0:
133,26,66667,2,0,P|133:15|142:35,1,75.0000028610231,2|0,3:2|0:0,0:0:0:0:
261,87,66917,2,0,P|224:87|198:112,1,75.0000028610231,2|0,1:2|0:0,0:0:0:0:
24,91,67167,6,0,B|28:123|65:130|65:130|104:137|108:172,1,127.50000243187,2|0,0:0|0:0,0:0:0:0:
97,248,67417,6,0,P|131:288|165:222,1,150.000005722046,0|2,3:0|0:3,0:0:0:0:
108,173,67792,1,0,0:0:0:0:
285,365,67917,2,0,B|318:355|301:343|332:326|332:326|303:313|282:346,1,110.000003356934,0|0,1:0|0:0,0:0:0:0:
209,340,68167,5,2,0:0:0:0:
302,240,68292,2,0,P|262:226|242:182,1,75.0000028610231,0|0,3:0|0:0,0:0:0:0:
167,225,68542,5,2,0:3:0:0:
368,196,68667,2,0,P|368:153|333:121,1,75.0000028610231,0|2,3:0|3:0,0:0:0:0:
150,32,68917,6,0,B|117:22|134:10|103:-7|103:-7|132:-20|153:13,1,110.000003356934,0|0,1:0|0:0,0:0:0:0:
243,12,69167,2,0,P|232:75|294:129,1,127.50000243187,2|0,0:3|0:0,0:0:0:0:
183,149,69417,6,0,P|128:183|112:121,1,150.000005722046,0|2,3:0|0:3,0:0:0:0:
61,62,69792,1,0,0:0:0:0:
4,214,69917,5,2,1:2:0:0:
87,199,70042,1,2,0:0:0:0:
34,137,70167,1,2,0:0:0:0:
59,273,70292,1,2,3:2:0:0:
78,352,70417,6,0,P|138:355|191:281,2,150.000005722046,2|2|2,0:0|3:2|1:2,0:0:0:0:
59,273,71042,1,0,0:0:0:0:
258,340,71167,6,0,P|318:337|371:411,1,127.50000243187,2|0,0:0|0:0,0:0:0:0:
415,319,71417,6,0,P|402:272|338:324,1,150.000005722046,0|2,3:0|0:0,0:0:0:0:
364,380,71792,1,0,0:0:0:0:
238,184,71917,2,0,B|214:158|235:156|216:126|216:126|248:129|250:169,1,110.000003356934,0|0,1:0|0:0,0:0:0:0:
314,201,72167,5,2,0:0:0:0:
427,120,72292,2,0,P|401:116|359:61,1,75.0000028610231,0|0,3:0|0:0,0:0:0:0:
503,149,72542,5,2,0:3:0:0:
447,207,72667,2,0,P|453:130|515:59,2,170.000003242493,2|2|2,3:2|1:2|0:0,0:0:0:0:
252,51,73417,6,0,P|246:104|178:64,1,150.000005722046,2|2,3:2|0:3,0:0:0:0:
191,3,73792,1,0,0:0:0:0:
48,134,73917,2,0,B|12:129|27:114|-6:103|-6:103|20:85|47:114,1,110.000003356934,2|0,1:2|0:0,0:0:0:0:
124,153,74167,1,2,0:0:0:0:
120,164,74292,1,0,1:0:0:0:
214,226,74417,6,0,P|156:239|142:275,2,80,2|0|0,0:0|1:0|3:0,0:0:0:0:
58,213,74792,1,2,0:0:0:0:
174,378,74917,5,0,1:0:0:0:
207,307,75042,1,8,3:0:0:0:
280,280,75167,1,4,3:0:0:0:
351,311,75292,1,0,3:0:0:0:
477,167,75417,5,2,1:2:0:0:
410,203,75542,2,0,P|363:211|338:249,1,80,0|0,3:0|0:0,0:0:0:0:
479,244,75792,5,2,1:2:0:0:
254,83,75917,2,0,P|207:74|182:37,1,80,0|0,3:0|0:0,0:0:0:0:
505,0,76167,6,0,P|468:30|465:75,1,80,2|0,1:2|0:0,0:0:0:0:
146,117,76417,2,0,B|147:78|185:67|185:67|222:57|240:6|165:-37|130:10|210:-4|183:60,1,225.000008583069,6|0,3:2|0:0,0:0:0:0:
4,210,76917,6,2,P|32:209|58:233,1,60,2|0,0:0|0:0,0:0:0:0:
204,167,77417,5,6,3:2:0:0:
271,208,77542,2,0,P|205:211|115:292,1,170.000003242493,2|0,0:0|0:0,0:0:0:0:
0,53,77917,2,0,P|62:108|146:117,1,170.000003242493,2|0,1:2|0:0,0:0:0:0:
204,167,78292,1,2,3:2:0:0:
351,78,78417,5,2,0:0:0:0:
258,22,78542,1,2,0:0:0:0:
332,4,78667,1,2,3:2:0:0:
277,97,78792,1,2,0:0:0:0:
473,98,78917,6,0,P|389:106|340:172,1,170.000003242493,2|0,1:2|0:0,0:0:0:0:
271,208,79292,1,2,0:0:0:0:
476,243,79417,6,0,P|430:238|404:203,2,85.0000016212464,2|2|2,3:2|0:0|0:0,0:0:0:0:
512,171,79792,1,2,0:0:0:0:
343,283,79917,6,0,P|296:283|267:316,1,85.0000016212464,2|0,1:2|0:0,0:0:0:0:
95,373,80167,2,0,P|117:332|103:291,1,85.0000016212464,2|0,0:0|3:0,0:0:0:0:
145,117,80417,2,0,P|168:156|211:165,1,85.0000016212464,2|0,0:0|0:0,0:0:0:0:
202,268,80667,5,0,3:0:0:0:
199,247,80792,1,0,3:0:0:0:
182,262,80917,5,2,1:2:0:0:
107,296,81042,1,2,0:0:0:0:
0,166,81167,1,2,0:0:0:0:
84,199,81292,1,2,0:0:0:0:
84,199,81354,1,2,0:0:0:0:
84,199,81417,6,0,B|85:160|43:145|43:145|-1:128|2:87,1,150.000005722046,2|0,3:2|0:0,0:0:0:0:
75,71,81667,2,0,B|74:48|99:39|99:39|124:29|123:5,1,85.0000016212464,2|0,0:0|0:0,0:0:0:0:
12,12,81917,5,2,1:2:0:0:
145,117,82042,1,2,0:0:0:0:
201,65,82167,1,2,0:0:0:0:
334,170,82292,2,0,L|427:149,1,85.0000016212464,2|0,3:2|0:0,0:0:0:0:
269,114,82542,5,0,1:0:0:0:
357,289,82667,2,0,P|368:264|431:250,1,85.0000016212464,0|0,3:0|0:0,0:0:0:0:
340,81,82917,2,0,P|316:129|191:157,1,170.000003242493,0|2,1:0|0:0,0:0:0:0:
145,117,83292,1,0,0:0:0:0:
281,241,83417,5,2,3:2:0:0:
214,292,83542,2,0,P|161:279|105:164,1,170.000003242493,2|2,0:0|0:0,0:0:0:0:
0,37,83917,2,0,B|10:4|22:21|39:-10|39:-10|52:19|19:40,1,110.000003356934,0|0,1:0|0:0,0:0:0:0:
17,111,84167,5,2,0:0:0:0:
264,23,84292,2,0,P|236:24|199:76,1,85.0000016212464,2|0,3:2|0:0,0:0:0:0:
103,185,84542,5,2,0:3:0:0:
127,39,84667,2,0,P|152:85|278:109,1,179.999994506836,0|0,1:0|0:0,0:0:0:0:
496,43,84917,2,0,B|486:10|474:27|457:-4|457:-4|444:25|477:46,1,110.000003356934,0|0,1:0|0:0,0:0:0:0:
437,109,85167,6,0,P|415:133|418:101,1,85.0000016212464,2|0,0:0|0:0,0:0:0:0:
256,206,85417,5,6,3:2:0:0:
331,164,85542,2,0,B|332:208|284:225|284:225|234:244|237:291,1,170.000003242493,2|2,0:0|0:0,0:0:0:0:
141,369,85917,2,0,B|142:324|94:307|94:307|44:288|47:241,1,170.000003242493,2|0,1:2|0:0,0:0:0:0:
103,185,86292,1,2,3:2:0:0:
58,0,86417,5,2,0:0:0:0:
0,48,86542,1,2,1:2:0:0:
72,83,86667,2,0,L|169:60,1,85.0000016212464,2|0,3:2|0:0,0:0:0:0:
162,70,86854,1,0,0:0:0:0:
162,70,86917,2,0,P|190:119|179:157,2,85.0000016212464,2|0|0,1:2|0:0|0:0,0:0:0:0:
227,13,87292,1,2,0:0:0:0:
349,118,87417,5,2,3:2:0:0:
426,147,87542,1,2,0:0:0:0:
484,92,87667,1,2,0:0:0:0:
409,66,87792,1,2,0:0:0:0:
296,64,87917,6,0,P|268:113|279:151,1,85.0000016212464,2|0,1:2|0:0,0:0:0:0:
451,293,88167,2,0,P|422:244|384:234,1,85.0000016212464,2|0,0:0|1:0,0:0:0:0:
173,305,88417,2,0,P|229:304|256:276,1,85.0000016212464,2|0,0:0|0:0,0:0:0:0:
322,220,88667,5,0,3:0:0:0:
304,209,88792,1,0,3:0:0:0:
304,231,88917,5,2,1:2:0:0:
228,212,89042,1,2,0:0:0:0:
82,83,89167,1,2,0:0:0:0:
6,102,89292,1,2,0:0:0:0:
67,158,89417,6,0,P|93:103|119:-6,1,165.000005035401,2|0,3:2|0:0,0:0:0:0:
190,63,89667,2,0,P|231:76|272:109,1,85.0000016212464,2|0,0:0|0:0,0:0:0:0:
40,243,89917,5,2,1:2:0:0:
116,224,90042,1,2,0:0:0:0:
173,278,90167,1,2,0:0:0:0:
289,384,90292,6,0,P|330:371|371:338,1,85.0000016212464,2|0,3:2|0:0,0:0:0:0:
98,302,90542,5,2,3:2:0:0:
249,302,90667,2,0,P|249:258|230:209,1,85.0000016212464,2|0,3:2|0:0,0:0:0:0:
98,302,90917,6,0,P|97:345|116:394,1,85.0000016212464,2|0,1:2|0:0,0:0:0:0:
335,265,91167,2,0,P|348:224|347:182,1,85.0000016212464,2|0,0:0|0:0,0:0:0:0:
308,17,91417,5,2,1:2:0:0:
266,149,91542,1,0,3:0:0:0:
408,117,91667,1,0,3:0:0:0:
326,95,91792,1,0,3:0:0:0:
171,166,91917,6,0,P|158:125|159:83,1,85.0000016212464,2|0,1:2|3:0,0:0:0:0:
232,50,92167,1,2,0:0:0:0:
59,115,92292,1,0,3:0:0:0:
92,45,92417,1,0,1:0:0:0:
151,242,92542,1,0,3:0:0:0:
222,276,92667,2,0,P|264:266|299:244,1,85.0000016212464,2|0,0:0|3:0,0:0:0:0:
158,83,92917,5,2,1:2:0:0:
44,237,93042,2,0,P|65:274|97:301,2,85.0000016212464,0|0|0,3:0|0:0|0:0,0:0:0:0:
151,242,93417,5,2,0:0:0:0:
470,55,94667,5,2,3:2:0:0:
460,31,94792,1,2,0:0:0:0:
449,7,94917,1,2,1:2:0:0:
473,13,95042,1,2,3:2:0:0:
446,49,95167,1,2,1:2:0:0:
277,40,95417,5,2,0:3:0:0:
231,106,95542,2,0,L|120:145,1,100,0|2,1:0|0:3,0:0:0:0:
324,223,95917,2,0,L|435:262,1,100,2|0,3:0|1:0,0:0:0:0:
250,249,96292,5,2,3:2:0:0:
60,171,96417,1,2,0:0:0:0:
301,146,96667,6,2,L|323:222,1,80,2|0,3:2|1:0,0:0:0:0:
335,384,97417,6,0,P|399:328|483:324,2,170.000003242493,6|2|2,3:2|0:0|1:2,0:0:0:0:
84,259,98167,5,0,1:0:0:0:
15,361,98292,2,0,P|11:319|91:342,1,160,0|0,3:0|1:0,0:0:0:0:
172,347,98667,2,0,P|170:368|210:356,1,80,2|0,3:2|0:0,0:0:0:0:
475,178,98917,6,0,B|452:154|452:154|395:171|395:171|382:227,1,125,0|0,1:0|3:0,0:0:0:0:
355,307,99167,2,2,B|353:255|297:239|297:239|243:225|242:173,1,187.5,2|0,0:0|0:0,0:0:0:0:
229,98,99417,6,0,P|241:43|284:133,1,240,2|0,3:0|0:0,0:0:0:0:
158,12,99917,2,0,P|153:-5|139:23,1,80,0|0,1:0|0:0,0:0:0:0:
89,127,100167,6,0,P|97:106|116:97,1,40,2|0,1:0|0:0,0:0:0:0:
173,148,100292,2,0,P|218:152|246:183,1,80,0|0,3:0|0:0,0:0:0:0:
337,340,100542,6,0,P|356:338|371:325,1,40,0|0,3:0|0:0,0:0:0:0:
386,203,100667,2,0,P|331:256|225:267,1,160,2|0,3:1|0:0,0:0:0:0:
78,383,100917,2,0,P|36:361|9:292,1,110.000003356934,0|0,1:0|0:0,0:0:0:0:
172,263,101167,6,0,P|140:294|138:336,1,80,2|0,1:2|0:0,0:0:0:0:
0,97,101417,6,0,P|73:138|107:215,2,170.000003242493,2|2|2,3:2|0:0|1:2,0:0:0:0:
241,174,102167,5,0,1:0:0:0:
305,75,102292,2,0,P|309:117|229:94,1,160,0|0,3:0|1:0,0:0:0:0:
159,60,102667,2,0,P|161:39|121:50,1,80,2|0,3:2|0:0,0:0:0:0:
350,257,102917,6,0,B|439:233|439:233|413:198|399:243,1,125,0|0,1:0|3:0,0:0:0:0:
324,155,103167,2,2,B|305:230|305:230|310:249|310:249|283:363,1,187.5,2|0,0:0|0:0,0:0:0:0:
211,370,103417,6,0,P|190:296|283:350,1,240,2|0,3:0|0:0,0:0:0:0:
439,232,103917,2,0,P|443:203|413:221,1,80,2|0,1:3|0:0,0:0:0:0:
288,336,104167,6,0,P|267:312|245:311,1,40,2|0,1:0|0:0,0:0:0:0:
220,245,104292,2,0,P|173:264|161:297,1,80,0|0,3:0|0:0,0:0:0:0:
27,384,104542,6,0,P|9:375|-1:358,1,40,0|0,3:0|0:0,0:0:0:0:
91,244,104667,2,0,P|189:204|214:134,1,160,2|0,3:1|0:0,0:0:0:0:
361,60,104917,2,0,P|296:33|280:-12,1,110.000003356934,0|0,1:0|0:0,0:0:0:0:
141,127,105167,6,0,P|113:164|62:159,1,80,2|0,1:2|0:0,0:0:0:0:
211,370,105417,6,0,P|252:296|332:270,2,170.000003242493,2|2|2,3:2|0:0|1:2,0:0:0:0:
428,247,106167,5,0,1:0:0:0:
364,148,106292,2,0,P|360:190|440:167,1,160,0|0,3:0|1:0,0:0:0:0:
512,74,106667,2,0,P|513:94|474:83,1,80,2|0,3:2|0:0,0:0:0:0:
224,48,106917,6,0,B|203:16|226:18|212:-18|212:-18|245:-8|239:34,1,125,0|0,1:0|0:0,0:0:0:0:
341,67,107167,2,2,B|289:69|273:125|273:125|259:179|207:180,1,187.5,2|0,0:0|0:0,0:0:0:0:
128,208,107417,6,0,P|106:148|207:186,1,240,2|0,3:0|0:0,0:0:0:0:
72,331,107917,2,0,P|64:351|99:338,1,80,2|0,1:3|0:0,0:0:0:0:
175,311,108167,6,0,P|167:290|148:281,1,40,2|0,1:0|0:0,0:0:0:0:
128,208,108292,2,0,P|83:212|55:243,1,80,0|0,3:0|0:0,0:0:0:0:
233,367,108542,6,0,P|250:352|253:332,1,40,0|0,3:0|0:0,0:0:0:0:
388,257,108667,2,0,P|356:182|288:152,1,160,2|0,3:1|0:0,0:0:0:0:
151,60,108917,2,0,P|216:33|232:-12,1,110.000003356934,0|0,1:0|0:0,0:0:0:0:
423,116,109167,6,0,P|377:135|365:166,1,80,2|0,1:2|0:0,0:0:0:0:
258,253,109417,6,0,P|290:328|372:366,2,170.000003242493,2|2|2,3:2|0:0|1:2,0:0:0:0:
28,366,110167,5,0,1:0:0:0:
92,267,110292,2,0,P|96:309|16:286,1,160,0|0,3:0|1:0,0:0:0:0:
150,181,110667,2,0,P|147:202|187:190,1,80,2|0,3:2|0:0,0:0:0:0:
69,43,110917,6,0,B|-20:19|-20:19|6:-16|20:29,1,125,0|0,1:0|3:0,0:0:0:0:
67,119,111167,2,2,B|118:126|144:73|144:73|167:22|218:30,1,187.5,2|0,0:0|0:0,0:0:0:0:
272,84,111417,5,2,3:0:0:0:
428,106,111542,1,0,1:0:0:0:
443,29,111667,1,0,3:0:0:0:
287,7,111792,1,0,1:0:0:0:
355,57,111917,5,0,1:0:0:0:
340,134,112042,1,0,3:0:0:0:
325,211,112167,1,0,1:0:0:0:
167,309,112292,6,0,P|96:296|16:391,1,194.999991073609,4|0,3:2|0:0,0:0:0:0:
0,301,112542,1,0,1:0:0:0:
73,264,112667,2,0,L|90:172,1,80,0|0,3:0|0:0,0:0:0:0:
25,137,112917,5,0,1:0:0:0:
208,72,113042,1,0,3:0:0:0:
142,30,113167,1,0,1:0:0:0:
161,225,113292,1,0,3:0:0:0:
136,106,113417,5,6,3:2:0:0:
239,198,113917,5,2,1:2:0:0:
256,188,114042,1,2,0:0:0:0:
314,237,114167,1,2,0:0:0:0:
405,142,114292,1,2,3:2:0:0:
459,198,114417,2,0,L|437:321,2,110.000003356934,2|2|2,0:0|3:2|1:2,0:0:0:0:
512,0,115167,6,0,P|480:41|407:12,1,112.500004291535,2|0,0:0|0:0,0:0:0:0:
354,0,115417,2,0,L|247:22,2,110.000003356934,0|0|0,3:0|0:0|1:0,0:0:0:0:
254,157,116167,5,0,3:0:0:0:
258,139,116292,1,0,3:0:0:0:
199,85,116417,6,0,L|135:101,1,55.0000016784668,2|0,0:0|0:0,0:0:0:0:
303,218,116667,2,0,L|367:234,1,55.0000016784668,2|0,3:2|0:0,0:0:0:0:
125,102,116917,6,0,B|106:73|126:74|114:41|114:41|144:50|139:89,1,110.000003356934,2|0,1:2|0:0,0:0:0:0:
200,212,117167,2,0,L|184:276,1,55.0000016784668,2|0,0:0|0:0,0:0:0:0:
95,318,117417,6,0,L|128:311,1,29.9999990844727,0|0,3:0|0:0,0:0:0:0:
89,329,117667,2,0,L|122:322,1,29.9999990844727,0|0,3:0|0:0,0:0:0:0:
294,373,117917,5,2,1:2:0:0:
300,354,118042,1,2,0:0:0:0:
262,289,118167,1,2,3:2:0:0:
356,231,118292,1,2,3:2:0:0:
399,296,118417,2,0,L|505:256,2,110.000003356934,2|2|2,0:0|3:2|1:2,0:0:0:0:
295,35,119167,6,0,P|354:38|386:-20,1,112.500004291535,2|0,0:0|0:0,0:0:0:0:
446,54,119417,6,0,P|475:52|491:81,1,55.0000016784668,0|0,3:0|0:0,0:0:0:0:
424,133,119667,2,0,P|434:159|412:184,1,55.0000016784668,0|0,3:0|0:0,0:0:0:0:
290,183,119917,2,0,P|231:186|199:128,1,112.500004291535,0|0,1:0|0:0,0:0:0:0:
126,130,120167,1,2,0:0:0:0:
179,71,120292,6,0,L|191:18,1,55.0000016784668,0|0,3:0|0:0,0:0:0:0:
144,206,120542,2,0,L|132:259,1,55.0000016784668,0|0,1:0|3:0,0:0:0:0:
199,307,120792,6,0,L|254:294,1,55.0000016784668,0|0,0:0|1:0,0:0:0:0:
31,342,121042,1,0,0:0:0:0:
107,369,121167,2,0,L|137:232,1,112.500004291535
290,183,121417,6,0,L|324:176,1,29.9999990844727,0|0,3:0|0:0,0:0:0:0:
301,191,121667,2,0,L|335:184,1,29.9999990844727,0|0,3:0|0:0,0:0:0:0:
371,87,121917,5,2,1:2:0:0:
379,70,122042,1,2,0:0:0:0:
316,27,122167,1,2,0:0:0:0:
221,135,122292,1,2,3:2:0:0:
179,71,122417,2,0,L|296:102,2,110.000003356934,2|2|2,0:0|3:2|1:2,0:0:0:0:
0,255,123167,6,0,P|52:261|84:325,1,112.500004291535,2|0,0:0|0:0,0:0:0:0:
122,375,123417,2,0,L|153:258,2,110.000003356934,0|0|0,3:0|3:2|1:0,0:0:0:0:
356,286,124167,5,0,3:0:0:0:
352,268,124292,1,0,3:0:0:0:
274,294,124417,6,0,L|211:309,1,55.0000016784668,2|0,0:0|1:0,0:0:0:0:
390,372,124667,2,0,L|453:387,1,55.0000016784668,2|0,3:2|0:0,0:0:0:0:
288,217,124917,6,0,B|269:188|289:189|277:156|277:156|307:165|302:204,1,110.000003356934,2|0,1:2|0:0,0:0:0:0:
431,303,125167,2,0,L|446:240,1,55.0000016784668,2|0,0:0|0:0,0:0:0:0:
350,84,125417,6,0,L|317:91,1,29.9999990844727,0|0,3:0|0:0,0:0:0:0:
338,75,125667,2,0,L|305:82,1,29.9999990844727,0|0,3:0|0:0,0:0:0:0:
117,139,125917,5,2,1:2:0:0:
195,160,126042,1,2,0:0:0:0:
118,155,126167,1,2,0:0:0:0:
196,176,126292,1,2,3:2:0:0:
231,70,126417,6,0,L|171:85,1,55.0000016784668,2|0,0:0|0:0,0:0:0:0:
60,232,126667,2,0,L|21:241,1,29.9999990844727,2|0,3:2|0:0,0:0:0:0:
111,43,126917,6,0,P|119:19|103:46,1,110.000003356934,2|0,1:2|0:0,0:0:0:0:
32,157,127167,2,0,L|18:103,1,55.0000016784668,2|0,0:0|0:0,0:0:0:0:
273,202,127417,6,0,P|218:214|185:269,2,110.000003356934,0|0|0,3:0|0:0|1:0,0:0:0:0:
320,264,128167,5,0,0:0:0:0:
253,223,128292,2,0,P|225:229|209:256,1,55.0000016784668,0|0,3:0|0:0,0:0:0:0:
301,371,128542,2,0,P|328:365|345:337,1,55.0000016784668,0|0,3:0|3:0,0:0:0:0:
494,289,128792,2,0,P|467:283|450:255,1,55.0000016784668,0|0,0:0|1:0,0:0:0:0:
478,186,129042,1,0,0:0:0:0:
385,215,129167,2,0,P|382:187|403:162,1,55.0000016784668
512,45,129417,6,0,L|477:53,1,29.9999990844727,0|0,3:0|0:0,0:0:0:0:
500,36,129667,2,0,L|465:44,1,29.9999990844727,0|0,3:0|0:0,0:0:0:0:
302,104,129917,5,2,1:2:0:0:
285,94,130042,1,2,0:0:0:0:
227,143,130167,1,2,0:0:0:0:
132,62,130292,1,2,3:2:0:0:
78,118,130417,2,0,L|100:241,2,110.000003356934,2|2|2,0:0|3:2|1:2,0:0:0:0:
169,272,131167,6,0,P|107:271|76:322,1,112.500004291535,2|0,0:0|0:0,0:0:0:0:
14,192,131417,5,0,3:0:0:0:
462,16,132917,6,2,P|464:1|450:19,1,60,2|0,0:0|0:0,0:0:0:0:
336,129,133417,5,6,3:2:0:0:
429,92,133542,2,0,P|391:73|372:20,1,85.0000016212464,2|2,0:0|0:0,0:0:0:0:
260,101,133792,5,2,0:0:0:0:
512,109,133917,2,0,P|438:130|387:220,1,170.000003242493,2|0,1:2|0:0,0:0:0:0:
318,243,134292,1,2,3:2:0:0:
458,382,134417,5,2,0:0:0:0:
510,320,134542,1,2,1:2:0:0:
433,303,134668,1,2,3:2:0:0:
379,361,134792,1,2,0:0:0:0:
318,243,134917,6,0,P|244:222|193:132,1,170.000003242493,2|0,1:2|0:0,0:0:0:0:
261,105,135292,1,2,0:0:0:0:
49,85,135417,5,0,3:0:0:0:
141,17,135542,1,2,0:0:0:0:
61,5,135667,1,2,0:0:0:0:
128,97,135792,1,2,0:0:0:0:
261,105,135917,6,0,P|208:124|192:160,1,85.0000016212464,2|0,1:2|0:0,0:0:0:0:
232,379,136167,2,0,P|241:322|218:290,1,85.0000016212464,2|0,0:0|3:0,0:0:0:0:
11,209,136417,2,0,P|54:244|93:240,1,85.0000016212464,2|0,0:0|0:0,0:0:0:0:
196,228,136667,5,0,3:0:0:0:
156,213,136792,1,0,3:0:0:0:
164,251,136917,5,2,1:2:0:0:
265,181,137042,1,2,0:0:0:0:
394,346,137167,1,2,0:0:0:0:
328,383,137292,1,2,0:0:0:0:
328,383,137354,1,2,0:0:0:0:
328,383,137417,6,0,B|327:344|369:329|369:329|413:312|410:271,1,150.000005722046,2|0,3:2|0:0,0:0:0:0:
356,214,137667,2,0,B|342:182|362:187|355:152|355:152|384:166|372:204,1,110.000003356934,2|0,0:0|0:0,0:0:0:0:
512,18,137917,5,2,1:2:0:0:
455,72,138042,1,2,0:0:0:0:
379,53,138167,1,2,0:0:0:0:
183,140,138292,2,0,B|161:147|145:126|145:126|127:105|105:114,1,85.0000016212464,2|0,3:2|0:0,0:0:0:0:
54,57,138542,5,0,1:0:0:0:
196,228,138667,2,0,P|213:179|292:76,1,165.000005035401,0|0,3:0|0:0,0:0:0:0:
260,11,138917,6,0,P|212:-17|227:72,1,165.000005035401,0|0,1:0|0:0,0:0:0:0:
309,170,139167,2,0,P|330:157|323:197,1,85.0000016212464,2|0,0:0|0:0,0:0:0:0:
115,223,139417,5,2,3:2:0:0:
277,259,139542,2,0,P|225:267|106:332,1,170.000003242493,2|0,0:0|0:0,0:0:0:0:
36,200,139917,2,0,B|16:170|37:172|24:139|24:139|55:147|50:187,1,110.000003356934,2|0,1:2|0:0,0:0:0:0:
115,223,140167,5,2,0:0:0:0:
78,384,140292,2,0,P|50:379|-11:345,1,85.0000016212464,2|0,3:2|0:0,0:0:0:0:
52,278,140542,5,0,1:0:0:0:
195,384,140667,1,0,3:0:0:0:
239,323,140792,1,0,3:0:0:0:
190,264,140917,2,0,P|263:306|346:324,1,165.000005035401,2|0,1:2|0:0,0:0:0:0:
501,384,141167,6,0,B|508:358|528:344|528:344|494:347|484:395,1,85.0000016212464,2|0,0:0|0:0,0:0:0:0:
339,245,141417,5,6,3:2:0:0:
409,363,141542,2,0,P|422:316|394:272,1,85.0000016212464,2|0,0:0|0:0,0:0:0:0:
481,130,141792,5,2,0:0:0:0:
289,139,141917,2,0,P|325:160|367:169,1,85.0000016212464,2|0,1:2|0:0,0:0:0:0:
467,52,142167,1,2,0:0:0:0:
408,101,142292,1,2,3:2:0:0:
216,104,142417,5,2,0:0:0:0:
194,29,142542,1,2,0:0:0:0:
118,7,142667,1,2,3:2:0:0:
163,167,142792,1,2,0:0:0:0:
163,167,142854,1,0,0:0:0:0:
163,167,142917,2,0,P|127:188|85:197,1,85.0000016212464,2|0,1:2|0:0,0:0:0:0:
39,37,143167,2,0,P|75:16|117:7,1,85.0000016212464,0|2,0:0|0:0,0:0:0:0:
105,100,143417,5,2,3:2:0:0:
25,127,143542,1,2,0:0:0:0:
173,249,143667,1,2,0:0:0:0:
260,278,143792,1,2,0:0:0:0:
260,278,143854,1,2,0:0:0:0:
260,278,143917,6,0,P|301:269|338:247,1,85.0000016212464,2|0,1:2|0:0,0:0:0:0:
134,384,144167,2,0,P|125:342|103:305,1,85.0000016212464,2|0,0:0|3:0,0:0:0:0:
304,109,144417,2,0,P|282:145|273:186,1,85.0000016212464,2|0,0:0|3:0,0:0:0:0:
103,306,144667,5,0,3:0:0:0:
173,249,144792,1,0,0:0:0:0:
260,278,144917,5,2,1:2:0:0:
163,167,145042,1,2,0:0:0:0:
206,343,145167,5,0,0:0:0:0:
345,255,145292,1,2,0:0:0:0:
345,255,145354,1,2,0:0:0:0:
345,255,145417,2,0,P|381:276|423:285,1,85.0000016212464,2|2,3:2|0:0,0:0:0:0:
274,381,145667,2,0,P|311:359|353:351,1,85.0000016212464,2|0,0:0|0:0,0:0:0:0:
489,227,145917,6,0,B|486:191|472:205|460:172|460:172|442:197|471:225,1,110.000003356934,2|0,1:2|0:0,0:0:0:0:
423,285,146167,1,2,0:0:0:0:
304,109,146292,2,0,P|345:117|381:138,1,85.0000016212464,2|0,3:2|0:0,0:0:0:0:
460,12,146542,5,2,1:2:0:0:
272,186,146667,2,0,P|255:104|213:33,1,150,2|0,3:2|0:0,0:0:0:0:
3,38,146917,6,0,B|6:2|20:16|32:-17|32:-17|50:8|21:36,1,110.000003356934,0|0,1:0|0:0,0:0:0:0:
167,114,147167,2,0,P|109:93|61:55,1,85.0000016212464,2|0,0:0|0:0,0:0:0:0:
0,334,147417,5,2,1:2:0:0:
76,315,147542,1,0,3:0:0:0:
133,369,147667,1,2,0:0:0:0:
274,275,147792,1,0,3:0:0:0:
170,206,147917,6,0,P|161:266|134:320,1,85.0000016212464,2|0,1:2|3:0,0:0:0:0:
22,120,148167,2,0,P|8:79|4:37,1,85.0000016212464,2|0,0:0|3:0,0:0:0:0:
84,197,148417,5,0,1:0:0:0:
245,154,148542,1,0,3:0:0:0:
377,246,148667,5,2,0:0:0:0:
223,46,148792,1,0,3:0:0:0:
274,275,148917,5,0,1:0:0:0:
296,383,149042,1,2,0:0:0:0:
230,339,149167,5,2,0:0:0:0:
373,364,149292,1,2,0:0:0:0:
494,275,149417,5,2,0:0:0:0:
224,32,150667,5,2,3:2:0:0:
251,40,150792,1,2,0:0:0:0:
278,48,150917,1,2,1:2:0:0:
273,1,151042,1,2,0:0:0:0:
206,42,151167,1,2,0:0:0:0:
375,134,151417,6,0,B|370:132|364:130|364:130|363:128|363:128|362:129|362:129|355:128|352:127|352:127|351:125|351:125|350:127|350:127|343:126|340:127|340:127|339:125|339:125|338:127|338:127|333:127|328:127|328:127|327:125|327:125|326:128|326:128|321:128|317:130|317:130|315:128|315:128|315:130|315:130|308:132|305:134|305:134|304:132|304:132|304:134|304:134|299:136|295:139|295:139|293:138|293:138|293:140|293:140|287:144|285:146|285:146|283:145|283:145|283:147|283:147|280:150|276:154|276:154|274:153|274:153|275:156|275:156|272:159|269:163|269:163|266:163|266:163|268:165|268:165|264:171|263:173|263:173|260:173|260:173|262:175|262:175|259:180|258:184|258:184|256:185|256:185|257:186|257:186|256:190|256:191,1,182.225654408467,2|2,3:2|3:2,0:0:0:0:
57,167,151917,2,0,P|43:124|130:136,1,170.000003242493,2|0,1:2|0:0,0:0:0:0:
124,207,152292,5,2,0:0:0:0:
36,21,152417,1,2,0:0:0:0:
124,207,152667,5,0,3:0:0:0:
67,265,152792,1,0,1:0:0:0:
67,265,152854,1,0,1:0:0:0:
67,265,152917,1,0,1:0:0:0:
155,384,153042,1,0,1:0:0:0:
217,336,153292,5,0,1:0:0:0:
256,192,153417,5,2,3:2:0:0:
256,192,153667,1,2,0:0:0:0:
256,192,153792,1,2,0:0:0:0:
256,192,153917,1,8,0:0:0:0:
256,192,154167,1,2,0:0:0:0:
256,192,154417,5,2,3:2:0:0:
256,192,154667,1,2,0:0:0:0:
256,192,154792,1,2,0:0:0:0:
256,192,154917,1,8,0:0:0:0:
256,192,155167,1,2,0:0:0:0:
256,192,155417,5,2,3:2:0:0:
326,159,155667,1,2,0:0:0:0:
145,56,155917,5,8,0:0:0:0:
75,23,156167,1,2,0:0:0:0:
199,0,156417,5,0,3:0:0:0:
256,192,156667,1,2,0:0:0:0:
256,192,156792,1,2,0:0:0:0:
256,192,156917,1,8,0:0:0:0:
256,192,157167,1,2,0:0:0:0:
313,384,157417,5,2,3:2:0:0:
374,338,157542,2,0,P|426:349|496:383,1,110.000003356934,2|0,0:0|0:0,0:0:0:0:
208,254,157917,2,0,P|156:243|86:209,1,110.000003356934,10|0,0:0|0:0,0:0:0:0:
86,147,158292,1,2,0:0:0:0:
17,274,158417,5,2,3:2:0:0:
22,242,158542,1,2,0:0:0:0:
4,255,158667,1,2,0:0:0:0:
34,260,158792,1,2,0:0:0:0:
171,162,158917,2,0,P|165:109|176:32,1,110.000003356934,10|0,0:0|0:0,0:0:0:0:
233,6,159292,1,2,0:0:0:0:
314,79,159417,5,2,3:2:0:0:
246,119,159542,1,2,0:0:0:0:
330,83,159667,5,2,0:0:0:0:
326,0,159792,1,2,0:0:0:0:
323,98,159917,6,0,P|351:115|376:137,1,55.0000016784668,10|0,0:0|0:0,0:0:0:0:
189,286,160167,2,0,P|161:269|136:247,1,55.0000016784668,2|2,0:0|0:0,0:0:0:0:
256,192,160417,5,2,3:2:0:0:
256,192,161417,5,2,3:2:0:0:
256,192,161667,1,2,0:0:0:0:
256,192,161792,1,2,0:0:0:0:
256,192,161917,1,8,0:0:0:0:
256,192,162167,1,2,0:0:0:0:
256,192,162417,5,2,3:2:0:0:
256,192,162667,1,2,0:0:0:0:
256,192,162792,1,2,0:0:0:0:
256,192,162917,1,8,0:0:0:0:
256,192,163167,1,2,0:0:0:0:
256,192,163417,5,2,3:2:0:0:
305,129,163667,1,2,0:0:0:0:
55,64,163917,5,8,0:0:0:0:
6,1,164167,1,2,0:0:0:0:
305,255,164417,5,2,3:2:0:0:
256,192,164667,1,2,0:0:0:0:
256,192,164792,1,2,0:0:0:0:
256,192,164917,1,8,0:0:0:0:
256,192,165167,1,2,0:0:0:0:
102,304,165417,5,2,3:2:0:0:
53,367,165542,2,0,L|-13:383,2,55.0000016784668,2|2|2,0:0|0:0|0:0,0:0:0:0:
177,331,165917,2,0,L|190:386,1,55.0000016784668,10|0,0:0|0:0,0:0:0:0:
28,270,166167,2,0,L|15:215,1,55.0000016784668,2|0,0:0|0:0,0:0:0:0:
256,192,166417,5,2,3:2:0:0:
256,192,166667,1,2,0:0:0:0:
256,192,166792,1,2,0:0:0:0:
256,192,166917,1,8,0:0:0:0:
256,192,167167,1,2,0:0:0:0:
256,192,167417,5,2,0:0:0:0:
479,232,167667,1,2,3:2:0:0:
410,271,168167,6,0,P|396:274|391:284,1,20,2|0,0:0|0:0,0:0:0:0:
77,18,168417,6,2,B|77:19|77:18|77:18|77:19|77:18|77:18|77:20|77:20|77:19|77:20|77:20|77:19|77:20|77:20|77:21|77:20|77:20|77:21|77:20|77:20|77:21|77:20|77:20|77:21|77:21|77:20|77:21|77:21|77:22|77:21|77:21|77:22|77:22|77:21|77:22|77:22|77:21|77:22|77:22|77:21|77:22|77:22|77:23|77:22|77:22|77:23|77:22|77:22|77:23|77:22|77:22|77:23|77:22|77:22|77:23|77:22|77:22|78:26|78:26|78:25|78:26|78:26|78:27|78:26|78:26|78:27|78:26|78:26|78:27|78:26|78:26|78:27|78:26|78:26|78:27|78:26|78:26|78:27|78:26|78:26|78:27|78:27|78:26|78:27|78:27|78:26|78:27|78:27|78:26|78:27|78:27|78:28|78:27|78:27|78:29|78:29|78:28|78:29|78:29|78:28|78:29|78:29|78:30|78:29|78:29|78:30|78:30|78:31|78:30|78:30|78:31|78:30|78:30|78:31|78:30|78:30|78:31|78:30|78:30|78:31|78:30|78:30|78:32|78:32|78:31|78:32|78:32|78:33|78:32|78:32|78:33|78:32|78:32|78:33|78:33|78:32|78:33|78:33|78:32|78:33|78:33|78:32|78:33|78:33|78:34|78:34|78:33|78:34|78:34|78:33|78:34|78:34|78:33|78:34|78:34|78:33|78:34|78:34|78:35|78:34|78:34|79:38|79:38|79:39|79:38|79:38|79:39|79:38|79:38|79:39|79:38|79:38|79:39|79:38|79:38|79:39|79:38|79:38|79:39|79:38|79:38|79:39|79:38|79:38|79:39|79:38|79:38|79:39|79:39|79:38|79:39|79:39|79:38|79:39|79:39|79:38|79:39|79:39|79:40|79:40|79:41|79:40|79:40|79:41|79:40|79:40|79:41|79:40|79:40|79:42|79:42|79:41|79:42|79:42|79:41|79:42|79:42|79:43|79:42|79:42|79:43|79:42|79:42|79:43|79:42|79:42|79:43|79:42|79:42|79:43|79:42|79:42|80:45|80:45|80:44|80:45|80:45|80:44|80:45|80:45|80:44|80:45|80:45|80:44|80:45|80:45|80:46|80:45|80:45|80:46|80:45|80:45|80:47|80:47|80:46|80:47|80:47|80:48|80:47|80:47|80:48|80:47|80:47|80:48|80:47|80:47|80:49|80:49|80:48|80:49|80:49|80:50|80:49|80:49|80:50|80:49|80:49|80:50|80:49|80:49|80:50|80:50|80:49|80:50|80:50|80:49|80:50|80:50|80:51|80:50|80:50|80:51|80:50|80:50|80:51|80:50|80:50|81:53|81:53|81:54|81:53|81:53|81:54|81:53|81:53|81:54|81:53|81:53|81:54|81:53|81:53|81:54|81:54|81:53|81:54|81:54|81:55|81:54|81:54|81:55|81:54|81:54|81:55|81:54|81:54|81:56|81:56|81:55|81:56|81:56|81:55|81:56|81:56|81:57|81:56|81:56|81:57|81:56|81:56|81:57|81:56|81:56|82:59|82:59|82:60|82:59|82:59|82:60|82:59|82:59|82:60|82:59|82:59|82:60|82:59|82:59|82:60|82:59|82:59|82:60|82:60|82:61|82:60|82:60|82:61|82:60|82:60|82:61|82:61|82:60|82:61|82:61|82:60|82:61|82:61|82:60|82:61|82:61|82:60|82:61|82:61|82:60|82:61|82:61|82:60|82:61|82:61|83:64|83:64|83:63|83:64|83:64|83:63|83:64|83:64|83:63|83:64|83:64|83:63|83:64|83:64|83:65|83:64|83:64|83:67|83:67|83:66|83:67|83:67|83:66|83:67|83:67|83:68|83:67|83:67|83:68|83:67|83:67|83:68|83:67|83:67|83:68|83:67|83:67|84:70|84:70|84:71|84:70|84:70|84:71|84:70|84:70|84:71|84:70|84:70|84:71|84:70|84:70|84:71|84:71|84:72|84:71|84:71|84:72|84:71|84:71|84:72|84:71|84:71|84:72|84:71|84:71|84:72|84:71|84:71|85:74|85:74|85:73|85:74|85:74|85:75|85:74|85:74|85:75|85:74|85:74|85:75|85:74|85:74|85:75|85:75|85:76|85:75|85:75|85:76|85:75|85:75|85:76|85:75|85:75|85:76|85:75|85:75|86:78|86:78|86:77|86:78|86:78|86:79|86:78|86:78|86:79|86:78|86:78|86:79|86:78|86:78|86:79|86:78|86:78|86:80|86:80|86:79|86:80|86:80|86:81|86:80|86:80|86:81|86:80|86:80|86:81|86:80|86:80|86:81|86:80|86:80|87:83|87:83|87:82|87:83|87:83|87:84|87:83|87:83|87:84|87:83|87:83|87:84|87:83|87:83|87:84|87:83|87:83|87:85|87:85|87:84|87:85|87:85|87:86|87:85|87:85|87:86|87:85|87:85|88:87|88:87|88:86|88:87|88:87|88:86|88:87|88:87|88:86|88:87|88:87|88:88|88:88|88:87|88:88|88:88|88:89|88:88|88:88|88:89|88:88|88:88|88:89|88:88|88:88|89:91|89:91|89:90|89:91|89:91|89:90|89:91|89:91|89:90|89:91|89:91|89:92|89:91|89:91|89:92|89:91|89:91|90:94|90:94|90:93|90:94|90:94|90:93|90:94|90:94|90:93|90:94|90:94|90:95|90:94|90:94|90:95|90:95|90:96|90:95|90:95|90:96|90:95|90:95|90:96|90:95|90:95|90:96|90:95|90:95|91:98|91:98|91:97|91:98|91:98|91:97|91:98|91:98|91:97|91:98|91:98|91:99|91:98|91:98|91:99|91:98|91:98|92:101|92:101|92:100|92:101|92:101|92:100|92:101|92:101|92:100|92:101|92:101|92:102|92:102|92:103|92:102|92:102|92:103|92:102|92:102|92:103|92:102|92:102|92:103|92:102|92:102|93:105|93:105|93:104|93:105|93:105|93:104|93:105|93:105|93:104|93:105|93:105|93:106|93:105|93:105|93:106|93:105|93:105|94:108|94:108|94:107|94:108|94:108|94:107|94:108|94:108|94:107|94:108|94:108|94:107|94:108|94:108|94:109|94:108|94:108|95:111|95:111|95:112|95:111|95:111|95:112|95:111|95:111|95:112|95:111|95:111|95:112|95:111|95:111|95:112|95:111|95:111|95:112|95:111|95:111|96:114|96:114|96:113|96:114|96:114|96:115|96:114|96:114|96:115|96:114|96:114|96:115|96:114|96:114|96:115|96:114|96:114|97:117|97:117|97:116|97:117|97:117|97:118|97:117|97:117|97:118|97:117|97:117|97:118|97:117|97:117|98:120|98:120|98:119|98:120|98:120|98:119|98:120|98:120|98:121|98:120|98:120|98:121|98:120|98:120|98:121|98:120|98:120|99:123|99:123|99:122|99:123|99:123|99:122|99:123|99:123|99:122|99:123|99:123|99:122|99:123|99:123|99:122|99:123|99:123|99:124|99:123|99:123|101:127|101:127|101:126|101:127|101:127|101:126|101:127|101:127|101:126|101:127|101:127|101:126|101:127|101:127|101:128|101:127|101:127|101:128|101:127|101:127|102:131|102:131|102:130|102:131|102:131|102:130|102:131|102:131|102:130|102:131|102:131|102:130|102:131|102:131|102:132|102:131|102:131|102:132|102:131|102:131|104:135|104:135|104:134|104:135|104:135|104:134|104:135|104:135|104:134|104:135|104:135|104:134|104:135|104:135|104:136|104:135|104:135|104:136|104:135|104:135|104:136|104:135|104:135|106:140|106:140|106:139|106:140|106:140|106:141|106:140|106:140|106:141|106:140|106:140|106:141|106:140|106:140|106:141|106:140|106:140|106:141|106:140|106:140|106:141|106:140|106:140|108:145|108:145|108:144|108:145|108:145|108:144|108:145|108:145|108:144|108:145|108:145|108:146|108:145|108:145|108:146|108:145|108:145|108:146|108:145|108:145|110:149|110:149|110:148|110:149|110:149|110:148|110:149|110:149|110:148|110:149|110:149|111:151|111:151|111:152|111:151|111:151|111:152|111:151|111:151|111:152|111:151|111:151|111:152|111:151|111:151|111:152|111:151|111:151|111:152|111:151|111:151|111:152|111:151|111:151|114:157|114:157|114:156|114:157|114:157|114:156|114:157|114:157|114:158|114:157|114:157|114:158|114:157|114:157|115:159|115:159|115:160|115:159|115:159|115:160|115:159|115:159|115:160|115:159|115:159|115:160|115:159|115:159|116:161|116:161|116:162|116:161|116:161|116:162|116:161|116:161|116:162|116:161|116:161|117:163|117:163|117:164|117:163|117:163|117:164|117:163|117:163|118:165|118:165|118:166|118:165|118:165|118:166|118:165|118:165|118:166|118:165|118:165|119:167|119:167|119:168|119:167|119:167|119:168|119:167|119:167|119:168|119:167|119:167|119:168|119:167|119:167|119:168|119:167|119:167|122:173|122:173|122:172|122:173|122:173|122:172|122:173|122:173|122:172|122:173|122:173|122:174|122:173|122:173|123:174|123:174|123:175|123:174|123:174|123:175|123:174|123:174|123:175|123:174|123:174|123:175|123:174|123:174|126:179|126:179|126:178|126:179|126:179|126:178|126:179|126:179|126:178|126:179|126:179|126:178|126:179|126:179|126:178|126:179|126:179|127:181|127:181|127:182|127:181|127:181|127:182|127:181|127:181|127:182|127:181|127:181|130:186|130:186|129:185|130:186|130:186|129:185|130:186|130:186|131:187|130:186|130:186|131:187|130:186|130:186|132:189|132:189|133:190|132:189|132:189|133:190|132:189|132:189|133:190|132:189|132:189|136:195|136:195|135:194|136:195|136:195|135:194|136:195|136:195|135:194|136:195|136:195|135:194|136:195|136:195|137:196|136:195|136:195|137:196|136:195|136:195|141:203|141:203|140:202|141:203|141:203|140:202|141:203|141:203|142:204|141:203|141:203|142:204|142:204|143:205|142:204|142:204|143:205|142:204|142:204|143:205|142:204|142:204|147:211|147:211|146:210|147:211|147:211|146:210|147:211|147:211|148:212|147:211|147:211|148:212|147:211|147:211|148:212|147:211|147:211|150:215|150:215|151:216|150:215|150:215|151:216|150:215|150:215|151:216|150:215|150:215|151:216|150:215|150:215|156:223|156:223|155:222|156:223|156:223|155:222|156:223|156:223|155:222|156:223|156:223|157:224|156:223|156:223|157:224|156:223|156:223|163:231|163:231|162:230|163:231|163:231|162:230|163:231|163:231|162:230|163:231|163:231|164:232|163:231|163:231|164:232|163:231|163:231|164:232|163:231|163:231|170:239|170:239|169:238|170:239|170:239|169:238|170:239|170:239|171:240|170:239|170:239|171:240|170:239|170:239|171:240|170:239|170:239|171:240|170:239|170:239|179:248|179:248|178:247|179:248|179:248|178:247|179:248|179:248|180:249|179:248|179:248|180:249|179:248|179:248|180:249|179:248|179:248|180:249|179:248|179:248|189:258|189:258|188:257|189:258|189:258|188:257|189:258|189:258|190:259|189:258|189:258|190:259|189:258|189:258|193:262|193:262|194:263|193:262|193:262|194:263|194:263|195:264|194:263|194:263|195:264|194:263|194:263|201:269|201:269|200:268|201:269|201:269|200:268|201:269|201:269|202:270|201:269|201:269|202:270|201:269|201:269|208:275|208:275|207:274|208:275|208:275|209:276|208:275|208:275|209:276|208:275|208:275|213:279|213:279|214:280|213:279|213:279|214:280|213:279|213:279|217:282|217:282|218:283|217:282|217:282|218:283|217:282|217:282|222:286|222:286|223:287|222:286|222:286|225:288|225:288|226:289|225:288|225:288|226:289|225:288|225:288|232:293|232:293|231:292|232:293|232:293|233:294|232:293|232:293|235:295|235:295|236:296|235:295|235:295|238:297|238:297|239:298|238:297|238:297|239:298|238:297|238:297|249:304|249:304|248:303|249:304|249:304|250:305|249:304|249:304|250:305|249:304|249:304|250:305|249:304|249:304|263:312|263:312|262:312|263:312|263:312|265:313|263:312|263:312|265:313|263:312|263:312|264:312|263:312|263:312|287:324|287:324|285:323|287:324|287:324|289:325|287:324|287:324|296:328|296:328|298:329|296:328|296:328|301:330|301:330|303:331|301:330|301:330|314:335|314:335|316:336|314:335|314:335|320:337|320:337|321:337|320:337|320:337|326:339|326:339|328:340|326:339|326:339|336:342|336:342|337:342|336:342|336:342|347:345|347:345|349:346|347:345|347:345|360:348|360:348|361:348|360:348|360:348|370:350|370:350|372:350|370:350|370:350|389:354|409:355|409:355|410:355|409:355|409:355|432:356|432:356|431:356|432:356,1,990.487673027763,2|0,0:3|0:0,0:0:0:0:
168,384,170917,6,0,P|168:354|189:375,1,75.0812838300742,2|0,0:0|0:0,0:0:0:0:
30,221,171417,5,6,3:2:0:0:
63,365,171542,2,0,P|89:307|71:268,1,89.9999972534181,2|0,0:0|0:0,0:0:0:0:
197,140,171792,5,2,0:0:0:0:
2,117,171917,2,0,P|65:192|164:192,1,179.999994506836,2|0,1:2|0:0,0:0:0:0:
269,90,172292,1,2,3:2:0:0:
197,140,172417,5,2,0:0:0:0:
216,15,172541,1,2,0:0:0:0:
341,35,172667,1,2,3:2:0:0:
321,159,172792,1,2,0:0:0:0:
365,231,172917,2,0,L|464:252,2,89.9999972534181,2|0|0,1:2|0:0|0:0,0:0:0:0:
306,287,173292,1,2,0:0:0:0:
306,287,173354,1,2,0:0:0:0:
306,287,173417,5,2,3:2:0:0:
251,213,173542,1,2,0:0:0:0:
224,384,173667,1,2,0:0:0:0:
174,314,173792,1,2,0:0:0:0:
422,332,173917,6,0,P|444:293|453:249,1,89.9999972534181,2|0,1:2|0:0,0:0:0:0:
251,213,174167,2,0,P|229:174|220:130,1,89.9999972534181,2|0,0:0|3:0,0:0:0:0:
502,130,174417,2,0,P|463:152|419:161,1,89.9999972534181,2|0,0:0|0:0,0:0:0:0:
272,74,174667,5,0,3:0:0:0:
297,0,174792,1,0,3:0:0:0:
415,79,174917,5,2,1:2:0:0:
216,15,175042,1,2,0:0:0:0:
73,131,175167,1,2,0:0:0:0:
0,105,175292,1,2,0:0:0:0:
0,105,175354,1,2,0:0:0:0:
0,105,175417,6,0,B|39:106|54:64|54:64|71:20|112:23,1,150.000005722046,2|0,3:2|0:0,0:0:0:0:
168,79,175667,2,0,B|182:111|162:106|169:141|169:141|140:127|152:89,1,110.000003356934,2|0,0:0|0:0,0:0:0:0:
0,236,175917,5,2,1:2:0:0:
74,211,176042,1,2,0:0:0:0:
136,260,176167,1,2,0:0:0:0:
211,384,176292,2,0,B|188:387|175:363|175:363|161:339|138:344,1,89.9999972534181,2|0,3:2|0:0,0:0:0:0:
211,232,176542,5,2,0:0:0:0:
315,384,176667,2,0,P|322:316|391:242,1,165.000005035401,0|0,3:0|0:0,0:0:0:0:
385,165,176917,6,0,P|342:129|341:219,1,165.000005035401,0|0,1:0|0:0,0:0:0:0:
443,353,177167,2,0,P|421:370|421:325,1,89.9999972534181,2|0,0:0|0:0,0:0:0:0:
383,245,177417,5,2,3:2:0:0:
212,153,177542,2,0,P|204:81|132:3,1,179.999994506836,2|0,0:0|0:0,0:0:0:0:
102,183,177917,2,0,P|54:172|-10:203,1,110.000003356934,2|0,1:2|0:0,0:0:0:0:
266,14,178167,5,2,0:0:0:0:
17,101,178292,2,0,P|21:56|66:8,1,89.9999972534181,2|0,3:2|0:0,0:0:0:0:
103,83,178542,5,0,1:0:0:0:
58,255,178667,1,0,3:0:0:0:
142,295,178792,1,2,0:0:0:0:
142,295,178854,1,2,0:0:0:0:
142,295,178917,6,0,B|184:293|201:339|201:339|219:388|265:388,1,165.000005035401,0|0,1:0|0:0,0:0:0:0:
458,285,179167,6,0,P|462:247|438:270,1,89.9999972534181,2|0,0:0|0:0,0:0:0:0:
277,313,179417,5,6,3:2:0:0:
469,365,179542,2,0,P|419:360|389:324,1,89.9999972534181,2|0,0:0|0:0,0:0:0:0:
320,92,179792,5,2,0:0:0:0:
217,227,179917,2,0,P|314:217|372:147,1,179.999994506836,2|0,1:2|0:0,0:0:0:0:
320,92,180292,1,0,3:0:0:0:
512,116,180417,5,2,0:0:0:0:
401,8,180542,1,2,1:2:0:0:
367,160,180667,1,2,3:2:0:0:
426,93,180792,1,0,3:0:0:0:
251,15,180917,6,0,P|205:29|146:38,1,89.9999972534181,2|0,1:2|3:0,0:0:0:0:
57,182,181167,1,0,0:0:0:0:
0,129,181292,1,2,0:0:0:0:
0,129,181354,1,2,0:0:0:0:
0,129,181417,5,6,3:2:0:0:
84,43,181542,1,2,0:0:0:0:
134,160,181667,5,2,0:0:0:0:
6,22,181792,1,2,3:2:0:0:
57,182,181917,6,0,P|72:232|80:280,1,89.9999972534181,2|0,1:2|0:0,0:0:0:0:
229,102,182167,2,0,P|237:57|250:14,1,89.9999972534181,2|0,0:0|3:0,0:0:0:0:
382,195,182417,2,0,P|390:240|403:283,1,89.9999972534181,2|0,0:0|0:0,0:0:0:0:
180,314,182667,1,0,3:0:0:0:
247,277,182792,1,0,0:0:0:0:
354,340,182917,5,2,1:2:0:0:
287,377,183042,1,6,3:2:0:0:
176,236,183167,1,0,0:0:0:0:
299,164,183292,1,2,0:0:0:0:
299,164,183354,1,2,0:0:0:0:
299,164,183417,6,0,P|356:191|409:194,1,89.9999972534181,6|0,3:2|0:0,0:0:0:0:
512,340,183667,2,0,P|468:349|428:370,1,89.9999972534181,2|0,0:0|0:0,0:0:0:0:
211,164,183917,5,2,1:2:0:0:
243,94,184042,1,2,0:0:0:0:
198,33,184167,1,2,0:0:0:0:
368,107,184292,6,0,P|424:78|459:38,1,89.9999972534181,2|0,3:2|0:0,0:0:0:0:
277,0,184542,5,0,1:0:0:0:
299,164,184667,2,0,P|356:191|409:194,1,89.9999972534181,0|0,3:0|0:0,0:0:0:0:
121,18,184917,6,0,P|77:27|37:48,1,89.9999972534181,2|0,1:2|0:0,0:0:0:0:
106,208,185167,2,0,P|84:168|75:124,1,89.9999972534181,2|0,0:0|0:0,0:0:0:0:
163,102,185417,5,2,1:2:0:0:
0,239,185542,1,0,3:0:0:0:
198,321,185667,1,0,3:0:0:0:
180,245,185792,1,0,3:0:0:0:
62,384,185917,5,2,1:2:0:0:
0,160,186042,1,0,3:0:0:0:
123,297,186167,5,2,0:0:0:0:
314,236,186292,1,0,1:0:0:0:
216,168,186417,5,0,1:0:0:0:
409,343,186542,1,0,3:0:0:0:
474,230,186667,2,0,P|425:249|364:279,1,89.9999972534181,2|0,0:0|3:0,0:0:0:0:
123,297,186917,5,2,1:2:0:0:
163,102,187042,1,0,3:0:0:0:
355,142,187167,1,0,3:0:0:0:
313,337,187292,1,0,3:0:0:0:
216,168,187417,5,6,3:2:0:0:
266,109,187542,1,2,0:0:0:0:
256,32,187667,1,2,0:0:0:0:
185,0,187792,1,2,0:0:0:0:
55,151,187917,6,0,P|116:169|152:202,1,89.9999972534181,0|0,1:0|0:0,0:0:0:0:
266,109,188167,1,2,0:0:0:0:
13,81,188292,6,0,P|37:43|46:0,1,89.9999972534181,2|0,3:2|0:0,0:0:0:0:
216,168,188542,2,0,P|225:211|249:249,1,89.9999972534181,2|0,1:2|3:0,0:0:0:0:
163,102,188792,5,2,0:0:0:0:
334,18,188917,2,0,P|433:47|492:101,1,179.999994506836,2|0,1:2|0:0,0:0:0:0:
510,0,189292,1,0,0:0:0:0:
365,104,189417,5,2,3:2:0:0:
338,176,189542,1,2,0:0:0:0:
373,245,189667,1,2,0:0:0:0:
451,251,189792,1,2,0:0:0:0:
339,382,189917,6,0,P|294:376|255:355,1,89.9999972534181,0|0,1:0|0:0,0:0:0:0:
373,245,190167,5,2,0:0:0:0:
486,384,190292,2,0,P|491:339|512:300,1,89.9999972534181,2|0,3:2|0:0,0:0:0:0:
255,198,190542,2,0,P|276:237|281:281,1,89.9999972534181,2|0,3:2|0:0,0:0:0:0:
202,292,190792,5,2,3:2:0:0:
447,166,190917,2,0,P|348:137|289:83,1,179.999994506836,2|0,1:2|0:0,0:0:0:0:
63,54,191292,1,0,0:0:0:0:
255,19,191417,5,2,3:2:0:0:
179,31,191542,1,2,0:0:0:0:
136,96,191667,1,2,0:0:0:0:
170,166,191792,1,2,0:0:0:0:
94,333,191917,6,0,P|49:327|10:306,1,89.9999972534181,0|0,1:0|0:0,0:0:0:0:
93,187,192167,5,2,0:0:0:0:
229,315,192292,2,0,P|201:350|163:374,1,89.9999972534181,2|0,3:2|0:0,0:0:0:0:
16,210,192542,5,2,0:0:0:0:
93,187,192667,1,0,3:0:0:0:
147,247,192792,1,2,0:0:0:0:
307,345,192917,5,2,1:2:0:0:
379,305,193042,1,2,0:0:0:0:
379,305,193104,1,2,0:0:0:0:
379,305,193167,2,0,P|357:226|296:139,1,165.000005035401,2|0,0:0|0:0,0:0:0:0:
430,193,193417,6,0,P|478:219|530:226,1,89.9999972534181,2|0,3:2|0:0,0:0:0:0:
297,35,193667,5,2,0:0:0:0:
386,111,193792,2,0,P|432:82|464:40,1,89.9999972534181,2|0,0:0|1:0,0:0:0:0:
226,0,194042,5,2,0:0:0:0:
70,154,194167,1,2,0:0:0:0:
238,158,194292,2,0,P|226:117|195:72,1,89.9999972534181,2|0,3:2|0:0,0:0:0:0:
32,73,194542,5,2,1:2:0:0:
127,97,194667,1,2,3:2:0:0:
136,204,194792,1,2,3:2:0:0:
225,334,194917,5,2,1:2:0:0:
211,369,195042,1,2,3:2:0:0:
171,374,195167,1,2,3:2:0:0:
94,303,195292,1,2,0:0:0:0:
94,303,195354,1,2,0:0:0:0:
94,303,195417,5,6,3:2:0:0:
210,240,195542,2,0,P|264:257|311:275,1,89.9999972534181,2|0,0:0|0:0,0:0:0:0:
420,171,195792,5,2,0:0:0:0:
349,356,195917,2,0,P|334:287|290:172,1,179.999994506836,2|0,1:2|0:0,0:0:0:0:
150,53,196292,1,0,3:0:0:0:
212,3,196417,5,2,0:0:0:0:
239,124,196542,1,2,0:0:0:0:
95,110,196667,2,0,P|30:85|-5:50,1,89.9999972534181,2|0,3:2|0:0,0:0:0:0:
299,12,196917,2,0,P|399:50|454:103,1,179.999994506836,2|0,1:2|0:0,0:0:0:0:
420,171,197292,1,0,0:0:0:0:
512,298,197417,5,2,3:2:0:0:
440,271,197542,1,2,0:0:0:0:
370,306,197667,1,2,0:0:0:0:
365,384,197792,1,2,0:0:0:0:
223,287,197917,6,0,P|200:221|204:171,1,89.9999972534181,2|0,1:2|0:0,0:0:0:0:
299,233,198167,1,2,0:0:0:0:
134,356,198292,6,0,P|202:369|242:397,1,89.9999972534181,2|0,3:2|0:0,0:0:0:0:
320,150,198542,2,0,P|251:136|211:108,1,89.9999972534181,2|0,0:0|3:0,0:0:0:0:
155,133,198792,1,2,0:0:0:0:
299,233,198917,5,0,1:0:0:0:
223,287,199042,1,2,0:0:0:0:
326,321,199167,5,2,0:0:0:0:
199,201,199292,1,2,0:0:0:0:
403,170,199417,6,0,P|421:129|426:84,1,89.9999972534181,2|0,3:2|0:0,0:0:0:0:
287,0,199667,1,2,0:0:0:0:
321,75,199792,1,2,0:0:0:0:
405,261,199917,6,0,P|449:256|490:237,1,89.9999972534181,2|0,1:2|0:0,0:0:0:0:
299,233,200167,1,2,0:0:0:0:
261,379,200292,1,2,3:2:0:0:
412,346,200417,5,2,0:0:0:0:
326,321,200542,1,2,0:0:0:0:
170,375,200667,1,2,3:2:0:0:
85,331,200792,1,2,0:0:0:0:
85,331,200854,1,2,0:0:0:0:
85,331,200917,6,0,P|97:275|107:218,1,89.9999972534181,2|0,1:2|0:0,0:0:0:0:
280,145,201167,2,0,P|288:189|298:232,1,89.9999972534181,2|0,0:0|0:0,0:0:0:0:
0,135,201417,5,2,1:2:0:0:
157,123,201542,1,0,3:0:0:0:
79,163,201667,1,0,3:0:0:0:
162,38,201792,1,0,3:0:0:0:
217,228,201917,5,2,1:2:0:0:
424,84,202042,2,0,P|361:68|253:13,1,179.999994506836,0|0,3:0|3:0,0:0:0:0:
231,92,202417,5,0,1:0:0:0:
363,26,202542,1,0,3:0:0:0:
428,160,202667,1,0,3:0:0:0:
299,224,202792,1,0,3:0:0:0:
331,130,202917,5,0,1:0:0:0:
509,268,203042,1,0,3:0:0:0:
433,297,203167,2,0,P|421:343|414:389,1,89.9999972534181,0|0,3:0|0:0,0:0:0:0:
217,228,203417,5,2,0:0:0:0:
219,232,203542,1,2,0:0:0:0:
221,236,203667,1,2,0:0:0:0:
223,240,203792,1,2,0:0:0:0:
195,316,203917,5,8,0:0:0:0:
195,316,204167,5,2,0:0:0:0:
47,347,204292,2,0,P|19:353|-3:362,1,50,2|0,0:0|0:0,0:0:0:0:
51,269,204542,2,0,P|27:260|5:248,1,50,2|0,0:0|3:0,0:0:0:0:
118,310,204792,5,2,0:0:0:0:
172,151,204917,2,0,P|245:123|313:86,1,150,10|0,0:0|0:0,0:0:0:0:
189,13,205417,5,2,0:0:0:0:
187,17,205542,1,2,0:0:0:0:
185,21,205667,1,2,0:0:0:0:
183,25,205792,1,2,0:0:0:0:
227,96,205917,5,8,0:0:0:0:
227,96,206167,5,2,0:0:0:0:
382,124,206292,2,0,P|410:130|432:139,1,50,2|0,0:0|0:0,0:0:0:0:
308,89,206542,5,10,0:0:0:0:
378,46,206667,2,0,P|402:37|424:25,1,50,2|0,0:0|3:0,0:0:0:0:
295,242,206917,5,8,0:0:0:0:
315,168,207042,1,0,3:0:0:0:
373,224,207167,1,0,3:0:0:0:
327,207,207292,1,0,3:0:0:0:
448,271,207417,5,2,0:0:0:0:
450,275,207542,1,2,0:0:0:0:
452,279,207667,1,2,0:0:0:0:
454,283,207792,1,2,0:0:0:0:
437,365,207917,5,8,0:0:0:0:
437,365,208167,5,2,0:0:0:0:
246,304,208292,2,0,P|236:330|237:356,1,50,2|0,0:0|0:0,0:0:0:0:
313,364,208542,2,0,P|323:338|322:312,1,50,2|0,0:0|3:0,0:0:0:0:
226,185,208792,5,2,0:0:0:0:
181,242,208917,2,0,P|181:217|190:194,1,50,10|0,0:0|0:0,0:0:0:0:
367,131,209167,2,0,B|379:93|342:65|342:65|306:34|322:-3,1,150,2|0,0:0|0:0,0:0:0:0:
425,29,209417,6,0,P|384:45|375:66,1,50,2|0,3:2|0:0,0:0:0:0:
223,61,209667,5,2,0:0:0:0:
278,112,209792,2,0,P|237:96|228:75,1,50,2|8,3:2|0:0,0:0:0:0:
13,84,210042,5,2,0:0:0:0:
34,7,210167,1,2,0:0:0:0:
92,64,210292,1,2,0:0:0:0:
70,141,210542,5,2,0:0:0:0:
171,217,210667,2,0,P|212:233|221:254,1,50,2|0,3:2|0:0,0:0:0:0:
155,130,210917,5,8,0:0:0:0:
77,328,211042,2,2,P|63:272|-18:183,1,160,0|0,3:0|0:0,0:0:0:0:
85,230,211417,5,0,0:0:0:0:
