osu file format v14

[General]
AudioFilename: audio.mp3
AudioLeadIn: 0
PreviewTime: 76805
Countdown: 0
SampleSet: Soft
StackLeniency: 0.7
Mode: 0
LetterboxInBreaks: 0
WidescreenStoryboard: 1

[Editor]
Bookmarks: 5430,21430,37430,53430,61492,97430,113430,133430,149430,171430,187430,195430,203367
DistanceSpacing: 0.2
BeatDivisor: 4
GridSize: 32
TimelineZoom: 1.6

[Metadata]
Title:Lil'b
TitleUnicode:リルビィ
Artist:Kuhaku Gokko
ArtistUnicode:空白ごっこ
Creator:Petal
Version:Agatsu's Expert
Source:
Tags:japanese jpop pop j-pop rock jrock j-rock rirubyi rirubii 1st ep セツコ setsuko matha A_little_bit Lil’b KuhakuGokko agatsu seros torriru koldnoodl koyori
BeatmapID:3460202
BeatmapSetID:1561567

[Difficulty]
HPDrainRate:5
CircleSize:4
OverallDifficulty:8.6
ApproachRate:9.2
SliderMultiplier:1.6
SliderTickRate:1

[Events]
//Background and Video events
0,0,"BG.png",0,0
//Break Periods
2,153617,167847
//Storyboard Layer 0 (Background)
//Storyboard Layer 1 (Fail)
//Storyboard Layer 2 (Pass)
//Storyboard Layer 3 (Foreground)
//Storyboard Layer 4 (Overlay)
//Storyboard Sound Samples

[TimingPoints]
-583,500,4,2,1,15,1,0
2917,-100,4,2,1,25,0,0
3417,-100,4,2,1,20,0,0
4167,-100,4,2,1,30,0,0
5417,-66.6666666666667,4,2,1,45,0,0
19417,-66.6666666666667,4,2,1,55,0,0
19917,-58.8235294117647,4,2,1,55,0,0
20167,-58.8235294117647,4,2,1,65,0,0
21417,-50,4,2,1,70,0,0
23354,-50,4,2,1,5,0,0
23417,-50,4,2,1,70,0,0
24104,-50,4,2,1,5,0,0
24167,-50,4,2,1,70,0,0
27354,-50,4,2,1,5,0,0
27417,-50,4,2,1,70,0,0
28104,-50,4,2,1,5,0,0
28167,-50,4,2,1,70,0,0
31354,-50,4,2,1,5,0,0
31417,-50,4,2,1,70,0,0
32104,-50,4,2,1,5,0,0
32167,-50,4,2,1,70,0,0
35354,-50,4,2,1,5,0,0
35417,-50,4,2,1,70,0,0
37417,-66.6666666666667,4,2,1,45,0,0
39354,-66.6666666666667,4,2,1,5,0,0
39417,-66.6666666666667,4,2,1,45,0,0
43354,-66.6666666666667,4,2,1,5,0,0
43417,-66.6666666666667,4,2,1,45,0,0
47354,-66.6666666666667,4,2,1,5,0,0
47417,-66.6666666666667,4,2,1,45,0,0
51354,-66.6666666666667,4,2,1,5,0,0
51417,-100,4,2,1,45,0,0
51792,-55.5555555555556,4,2,1,45,0,0
51917,-55.5555555555556,4,2,1,55,0,0
52104,-55.5555555555556,4,2,1,5,0,0
52167,-55.5555555555556,4,2,1,55,0,0
53167,-166.666666666667,4,2,1,55,0,0
53354,-166.666666666667,4,2,1,5,0,0
53417,-50,4,2,1,65,0,0
55354,-50,4,2,1,5,0,0
55417,-50,4,2,1,65,0,0
59354,-50,4,2,1,5,0,0
59417,-50,4,2,1,65,0,0
61417,-58.8235294117647,4,2,1,55,0,0
63354,-58.8235294117647,4,2,1,5,0,0
63417,-58.8235294117647,4,2,1,55,0,0
67354,-58.8235294117647,4,2,1,5,0,0
67417,-58.8235294117647,4,2,1,55,0,0
69354,-58.8235294117647,4,2,1,5,0,0
69417,-58.8235294117647,4,2,1,55,0,0
71354,-58.8235294117647,4,2,1,5,0,0
71417,-58.8235294117647,4,2,1,55,0,0
74417,-58.8235294117647,4,2,1,65,0,0
75417,-50,4,2,1,65,0,0
76604,-50,4,2,1,5,0,0
76917,-50,4,2,1,45,0,0
77417,-50,4,2,1,80,0,0
81604,-50,4,2,1,5,0,0
81667,-50,4,2,1,80,0,0
84854,-50,4,2,1,5,0,0
84917,-50,4,2,1,80,0,0
89604,-50,4,2,1,5,0,0
89667,-50,4,2,1,80,0,0
93417,-50,4,2,1,50,0,0
94667,-50,4,2,1,40,0,0
95167,-100,4,2,1,40,0,0
97417,-50,4,2,1,70,0,0
99354,-50,4,2,1,5,0,0
99417,-50,4,2,1,70,0,0
103354,-50,4,2,1,5,0,0
103417,-50,4,2,1,70,0,0
107354,-50,4,2,1,5,0,0
107417,-50,4,2,1,70,0,0
111354,-50,4,2,1,5,0,0
111417,-50,4,2,1,70,0,0
113417,-66.6666666666667,4,2,1,70,0,0
113917,-66.6666666666667,4,2,1,45,0,0
115354,-66.6666666666667,4,2,1,5,0,0
115417,-66.6666666666667,4,2,1,45,0,0
119354,-66.6666666666667,4,2,1,5,0,0
119417,-66.6666666666667,4,2,1,45,0,0
120104,-66.6666666666667,4,2,1,5,0,0
120167,-66.6666666666667,4,2,1,45,0,0
121354,-66.6666666666667,4,2,1,5,0,0
121417,-66.6666666666667,4,2,1,45,0,0
123354,-66.6666666666667,4,2,1,5,0,0
123417,-66.6666666666667,4,2,1,45,0,0
131354,-66.6666666666667,4,2,1,5,0,0
131417,-66.6666666666667,4,2,1,45,0,0
131667,-66.6666666666667,4,2,1,10,0,0
133417,-50,4,2,1,80,0,0
137604,-50,4,2,1,5,0,0
137667,-50,4,2,1,80,0,0
138854,-50,4,2,1,5,0,0
138917,-50,4,2,1,80,0,0
139104,-50,4,2,1,5,0,0
139167,-50,4,2,1,80,0,0
141104,-50,4,2,1,5,0,0
141167,-50,4,2,1,80,0,0
146854,-50,4,2,1,5,0,0
146917,-50,4,2,1,80,0,0
149417,-50,4,2,1,50,0,0
150667,-50,4,2,1,40,0,0
151167,-100,4,2,1,40,0,0
153417,-100,4,2,1,50,0,0
157417,-100,4,2,1,40,0,0
161417,-100,4,2,1,50,0,0
165417,-100,4,2,1,40,0,0
166417,-100,4,2,1,50,0,0
167417,-100,4,2,1,35,0,0
168167,-100,4,2,1,20,0,0
170917,-100,4,2,1,45,0,0
171417,-50,4,2,1,85,0,0
175604,-50,4,2,1,5,0,0
175667,-50,4,2,1,85,0,0
176854,-50,4,2,1,5,0,0
176917,-50,4,2,1,85,0,0
177104,-50,4,2,1,5,0,0
177167,-50,4,2,1,85,0,0
179104,-50,4,2,1,5,0,0
179167,-50,4,2,1,85,0,0
187417,-50,4,2,1,80,0,0
193354,-50,4,2,1,5,0,0
193417,-50,4,2,1,80,0,0
203417,-50,4,2,1,50,0,0
209354,-50,4,2,1,5,0,0
209417,-50,4,2,1,50,0,0
211417,-50,4,2,1,20,0,0

[Colours]
Combo1 : 255,128,64
Combo2 : 0,149,149
Combo3 : 128,128,192
Combo4 : 64,128,128

[HitObjects]
55,227,5417,6,0,P|126:197|84:92,1,180.000006866455,2|0,3:0|0:0,0:0:0:0:
174,155,5917,2,0,P|204:180|249:199,1,60.0000022888184,8|0,0:0|0:0,0:0:0:0:
247,121,6167,2,0,P|281:139|315:149,1,60.0000022888184,2|8,0:3|0:0,0:0:0:0:
307,148,6542,1,8,0:0:0:0:
374,118,6667,2,0,P|375:137|370:259,1,120.000004577637,2|8,3:0|0:0,0:0:0:0:
439,272,7042,1,0,3:0:0:0:
439,272,7167,2,0,P|445:242|461:198,1,60.0000022888184,2|0,0:3|0:0,0:0:0:0:
314,370,7417,6,0,P|258:377|237:293,1,120.000004577637,0|2,3:0|0:3,0:0:0:0:
186,269,7792,2,0,P|204:258|238:233,2,60.0000022888184,0|8|0,0:0|0:0|0:0,0:0:0:0:
47,349,8167,1,2,0:1:0:0:
15,379,8292,2,0,B|-7:320|38:314|13:240,1,120.000004577637,2|2,0:3|0:3,0:0:0:0:
121,113,8667,2,0,P|86:127|35:153,1,60.0000022888184,2|2,3:1|0:3,0:0:0:0:
89,6,8917,2,0,P|133:41|169:64,1,60.0000022888184,8|0,0:0|0:0,0:0:0:0:
0,93,9167,2,0,P|13:50|20:4,1,60.0000022888184,2|0,0:3|0:0,0:0:0:0:
241,124,9417,6,0,P|317:117|290:14,1,180.000006866455,0|0,3:0|0:0,0:0:0:0:
385,4,9917,2,0,P|414:35|434:66,1,60.0000022888184,8|0,0:0|0:0,0:0:0:0:
495,20,10167,2,0,P|509:73|515:113,1,60.0000022888184,2|8,0:3|0:0,0:0:0:0:
509,86,10542,1,8,0:0:0:0:
459,139,10667,2,0,P|414:166|317:207,1,120.000004577637,2|8,3:0|0:0,0:0:0:0:
395,258,11042,1,0,3:0:0:0:
395,258,11167,2,0,P|436:275|467:291,1,60.0000022888184,2|0,0:3|0:0,0:0:0:0:
447,368,11417,6,0,P|443:339|292:326,1,180.000006866455,0|0,3:0|0:0,0:0:0:0:
259,335,11917,2,0,P|222:357|183:377,1,60.0000022888184,8|0,0:0|0:0,0:0:0:0:
68,234,12167,1,2,0:1:0:0:
128,196,12292,2,0,B|165:206|165:206|190:233|190:233|268:253,1,120.000004577637,2|2,0:3|0:3,0:0:0:0:
376,144,12667,2,0,L|508:97,1,120.000004577637,2|8,3:1|0:0,0:0:0:0:
455,40,13042,1,0,0:0:0:0:
455,40,13167,2,0,B|426:40|426:40|365:71,1,60.0000022888184,2|0,0:3|0:0,0:0:0:0:
249,164,13417,6,0,P|284:116|180:43,1,180.000006866455,0|0,3:0|0:0,0:0:0:0:
157,78,13917,2,0,P|114:98|79:109,1,60.0000022888184,8|0,0:0|0:0,0:0:0:0:
124,172,14167,1,2,0:3:0:0:
46,253,14292,1,8,0:0:0:0:
39,257,14542,1,8,0:0:0:0:
91,310,14667,2,0,P|93:279|89:166,2,120.000004577637,2|8|2,3:0|0:0|0:3,0:0:0:0:
94,317,15417,6,0,P|52:345|23:361,1,60.0000022888184,0|0,3:0|0:0,0:0:0:0:
176,256,15667,2,0,P|191:217|208:183,1,60.0000022888184,2|0,0:3|0:0,0:0:0:0:
230,335,15917,2,0,P|255:372|266:386,1,60.0000022888184,8|0,0:0|0:0,0:0:0:0:
338,212,16167,1,2,0:1:0:0:
304,249,16292,2,0,B|364:234|439:199,1,120.000004577637,2|2,0:3|0:3,0:0:0:0:
481,249,16667,2,0,P|439:289|406:314,1,60.0000022888184,2|2,3:1|0:3,0:0:0:0:
279,359,16917,2,0,B|217:343|232:374|140:344,1,120.000004577637,8|2,0:0|0:3,0:0:0:0:
156,358,17417,6,0,P|229:373|229:262,1,180.000006866455,0|0,3:0|0:0,0:0:0:0:
206,237,17917,2,0,P|180:229|110:191,1,60.0000022888184,8|0,0:0|0:0,0:0:0:0:
0,336,18167,1,2,0:3:0:0:
4,331,18292,2,0,P|79:303|150:271,1,120.000004577637,8|8,0:0|0:0,0:0:0:0:
74,225,18667,2,0,P|43:198|108:124,1,120.000004577637,2|8,3:0|0:0,0:0:0:0:
121,80,19042,1,0,3:0:0:0:
119,70,19167,2,0,P|75:46|48:28,1,60.0000022888184,2|0,0:3|0:0,0:0:0:0:
238,217,19417,5,0,3:0:0:0:
312,20,19542,1,0,1:0:0:0:
247,64,19667,1,0,1:0:0:0:
445,123,19792,1,0,1:0:0:0:
207,130,19917,6,0,P|160:159|118:180,1,68.0000012969971,0|0,1:0|3:0,0:0:0:0:
144,172,20292,1,0,1:0:0:0:
245,369,20417,1,0,1:0:0:0:
272,303,20542,2,0,B|194:286|204:327|113:313,1,136.000002593994,0|0,3:0|0:0,0:0:0:0:
199,232,20917,5,0,1:0:0:0:
325,357,21042,1,0,3:0:0:0:
512,255,21167,2,0,P|514:223|510:131,1,102.000001945496,2|0,0:0|0:0,0:0:0:0:
512,153,21417,6,0,P|437:153|417:291,1,240,6|0,3:2|0:0,0:0:0:0:
301,57,21917,2,0,P|264:40|207:9,1,80,2|0,1:2|0:0,0:0:0:0:
316,241,22167,1,2,0:0:0:0:
271,184,22292,2,0,B|245:259|304:266|264:350,1,160,0|0,3:0|1:0,0:0:0:0:
361,142,22667,2,0,P|398:125|455:94,1,80,2|0,3:2|0:0,0:0:0:0:
369,289,22917,1,0,1:0:0:0:
489,369,23042,1,0,0:0:0:0:
512,302,23167,2,0,B|516:263|516:263|491:229,1,80,2|0,0:0|0:0,0:0:0:0:
263,334,23417,6,0,B|179:308|191:354|86:336,1,160,0|2,3:0|0:3,0:0:0:0:
50,288,23792,1,0,0:0:0:0:
198,171,23917,2,0,L|106:124,1,80,0|0,1:0|0:0,0:0:0:0:
63,174,24167,1,2,0:1:0:0:
163,384,24292,2,0,P|210:344|170:261,1,160,0|0,3:0|1:0,0:0:0:0:
110,295,24667,2,0,P|70:314|26:338,1,80,2|0,3:1|0:0,0:0:0:0:
258,175,24917,2,0,P|273:133|290:93,1,80,0|0,1:0|0:0,0:0:0:0:
341,327,25167,2,0,P|393:375|413:396,1,80,2|0,0:0|0:0,0:0:0:0:
160,352,25417,6,0,P|77:332|100:201,1,240,2|0,3:2|0:0,0:0:0:0:
261,87,25917,2,0,P|287:78|352:47,1,80,2|0,1:2|0:0,0:0:0:0:
443,185,26167,1,2,0:0:0:0:
506,221,26292,2,0,B|423:191|432:247|314:219,1,160,0|0,3:0|1:0,0:0:0:0:
205,366,26667,2,0,B|203:329|203:329|242:278,1,80,2|0,3:2|0:0,0:0:0:0:
205,225,26917,1,0,1:0:0:0:
205,225,27042,1,0,0:0:0:0:
205,225,27167,2,0,P|163:206|117:180,1,80,2|0,0:0|0:0,0:0:0:0:
11,0,27417,6,0,P|7:26|2:209,1,160,0|2,3:0|0:3,0:0:0:0:
23,228,27792,1,0,0:0:0:0:
72,109,27917,2,0,P|83:69|106:9,1,80,2|0,1:3|0:0,0:0:0:0:
176,284,28167,1,2,0:1:0:0:
194,214,28292,2,0,P|148:201|113:303,1,160,0|0,3:0|1:0,0:0:0:0:
334,149,28667,2,0,P|383:128|435:97,1,80,2|0,3:1|0:0,0:0:0:0:
384,279,28917,2,0,P|337:242|289:214,1,80,0|0,1:0|0:0,0:0:0:0:
485,166,29167,2,0,P|468:222|458:282,1,80,2|0,0:0|0:0,0:0:0:0:
226,338,29417,5,2,3:2:0:0:
136,234,29542,1,0,0:0:0:0:
139,307,29667,2,0,P|95:335|64:361,1,80,2|0,0:0|0:0,0:0:0:0:
264,190,29917,2,0,P|288:135|308:92,1,80,2|0,1:2|0:0,0:0:0:0:
63,219,30167,1,2,0:0:0:0:
58,145,30292,2,0,P|-1:171|21:270,1,160,0|0,3:0|1:0,0:0:0:0:
63,294,30667,2,0,P|122:268|100:169,1,160,2|0,3:2|1:0,0:0:0:0:
148,116,31042,1,0,0:0:0:0:
233,168,31167,2,0,B|243:131|243:131|207:79,1,80,2|0,0:0|0:0,0:0:0:0:
511,231,31417,6,0,B|413:210|429:258|332:247,1,160,0|2,3:0|0:3,0:0:0:0:
125,331,31792,2,0,L|26:361,1,80,0|0,0:0|1:0,0:0:0:0:
44,349,32167,1,2,0:1:0:0:
167,221,32292,2,0,B|118:207|118:207|96:166|96:166|23:144,1,160,0|0,3:0|1:0,0:0:0:0:
261,324,32667,2,0,B|283:360|283:360|355:386,1,80,2|0,3:1|0:0,0:0:0:0:
356,211,32917,2,0,B|312:210|312:210|258:245,1,80,0|0,1:0|0:0,0:0:0:0:
404,349,33167,2,0,B|428:312|428:312|422:257,1,80,2|0,0:0|0:0,0:0:0:0:
268,88,33417,6,0,L|448:37,1,160,2|2,3:2|0:0,0:0:0:0:
485,90,33792,1,0,0:0:0:0:
485,90,33917,2,0,B|477:131|477:131|429:175,1,80,0|0,1:0|0:0,0:0:0:0:
252,273,34167,1,2,0:0:0:0:
224,338,34292,2,0,L|194:160,1,160,0|0,3:0|1:0,0:0:0:0:
141,136,34667,2,0,P|95:120|54:102,1,80,2|0,3:2|0:0,0:0:0:0:
69,343,34917,1,0,1:0:0:0:
69,343,35042,1,0,0:0:0:0:
69,343,35167,2,0,B|64:306|64:306|98:263,1,80,2|0,0:0|0:0,0:0:0:0:
302,110,35417,5,0,1:0:0:0:
429,216,35542,1,0,1:0:0:0:
478,55,35667,5,0,1:0:0:0:
333,179,35792,1,0,1:0:0:0:
146,45,35917,5,0,1:0:0:0:
205,0,36042,2,0,B|244:81|183:67|220:169,1,160,0|0,3:0|3:0,0:0:0:0:
84,354,36417,5,0,1:0:0:0:
240,275,36542,1,0,1:0:0:0:
166,265,36667,5,0,3:0:0:0:
248,353,36792,1,0,3:0:0:0:
469,180,36917,5,0,1:0:0:0:
328,286,37042,1,0,3:0:0:0:
313,210,37167,5,2,0:3:0:0:
401,256,37292,1,2,0:3:0:0:
348,147,37417,6,0,P|316:160|186:198,2,120.000004577637,6|0|2,3:2|0:0|1:2,0:0:0:0:
330,73,38042,1,2,0:0:0:0:
330,73,38167,2,0,P|305:66|255:46,1,60.0000022888184,2|2,0:0|3:2,0:0:0:0:
93,148,38417,2,0,P|52:109|69:47,2,120.000004577637,2|2|2,0:0|3:2|1:2,0:0:0:0:
86,153,39167,2,0,P|62:161|-17:197,1,60.0000022888184,2|0,0:0|0:0,0:0:0:0:
138,337,39417,6,0,B|134:271|173:289|161:204,1,120.000004577637,0|0,3:0|0:0,0:0:0:0:
207,162,39792,1,0,0:0:0:0:
183,132,39917,2,0,P|152:115|116:86,1,60.0000022888184,0|0,1:0|0:0,0:0:0:0:
238,298,40167,1,0,0:0:0:0:
348,204,40292,1,0,3:0:0:0:
280,188,40417,2,0,B|295:213|295:213|288:258,1,60.0000022888184,2|0,0:0|0:0,0:0:0:0:
400,342,40667,2,0,P|439:361|470:380,1,60.0000022888184,2|0,3:2|0:0,0:0:0:0:
494,308,40917,2,0,B|509:283|509:283|502:238,1,60.0000022888184,2|0,1:2|0:0,0:0:0:0:
242,306,41167,2,0,L|111:334,2,120.000004577637,2|0|0,0:0|3:0|0:0,0:0:0:0:
242,314,41917,6,0,P|212:305|168:285,1,60.0000022888184,2|0,1:2|0:0,0:0:0:0:
174,198,42167,2,0,P|223:229|253:241,1,60.0000022888184,2|0,0:0|3:0,0:0:0:0:
431,315,42417,1,2,0:0:0:0:
483,267,42542,1,2,0:0:0:0:
483,211,42667,1,2,3:2:0:0:
460,182,42792,1,2,0:0:0:0:
443,176,42917,2,0,P|424:190|381:214,1,60.0000022888184,2|0,1:2|0:0,0:0:0:0:
217,300,43167,2,0,B|156:282|163:318|63:307,2,120.000004577637,2|0|0,0:0|3:0|0:0,0:0:0:0:
222,306,43917,6,0,P|226:277|234:157,1,120.000004577637,0|0,1:0|0:0,0:0:0:0:
170,152,44292,2,0,P|153:198|137:232,2,60.0000022888184,0|0|0,3:0|0:0|0:0,0:0:0:0:
117,57,44667,1,0,3:0:0:0:
55,93,44792,1,0,0:0:0:0:
33,0,44917,2,0,P|76:24|113:36,1,60.0000022888184,0|0,1:0|0:0,0:0:0:0:
301,103,45167,2,0,P|258:127|221:139,1,60.0000022888184
268,199,45417,6,0,P|244:162|147:187,1,120.000004577637,0|0,3:0|0:0,0:0:0:0:
114,200,45792,1,0,0:0:0:0:
188,235,45917,2,0,P|162:280|148:322,1,60.0000022888184,2|2,1:2|0:0,0:0:0:0:
287,375,46167,1,2,0:0:0:0:
346,329,46292,1,2,3:2:0:0:
283,364,46417,2,0,P|241:340|223:328,1,60.0000022888184,2|2,0:0|0:0,0:0:0:0:
425,211,46667,2,0,B|422:154|471:159|453:58,1,120.000004577637,2|2,3:2|1:2,0:0:0:0:
405,49,47042,1,0,0:0:0:0:
374,60,47167,2,0,P|352:105|339:162,1,60.0000022888184,2|0,0:0|0:0,0:0:0:0:
186,202,47417,6,0,P|147:215|37:241,2,120.000004577637,0|2|0,3:0|0:0|1:0,0:0:0:0:
191,210,48167,1,0,0:0:0:0:
146,266,48292,1,0,3:0:0:0:
250,258,48417,2,0,B|257:320|302:299|308:375,1,120.000004577637,2|0,0:0|3:0,0:0:0:0:
376,371,48792,1,0,0:0:0:0:
346,273,48917,2,0,P|385:253|420:237,1,60.0000022888184,2|0,1:2|0:0,0:0:0:0:
124,384,49167,2,0,B|112:357|112:357|124:317,1,60.0000022888184,2|0,0:0|0:0,0:0:0:0:
180,287,49417,6,0,B|117:268|127:301|35:281,2,120.000004577637,0|0|2,3:0|0:0|1:2,0:0:0:0:
245,326,50042,1,0,0:0:0:0:
250,333,50167,2,0,P|222:351|188:378,1,60.0000022888184,2|0,0:0|3:0,0:0:0:0:
366,141,50417,6,0,B|429:122|419:155|511:135,2,120.000004577637,0|0|2,0:0|3:0|1:2,0:0:0:0:
301,180,51042,1,0,0:0:0:0:
296,187,51167,2,0,P|324:205|358:232,1,60.0000022888184,2|0,0:0|0:0,0:0:0:0:
435,312,51417,6,0,P|460:333|488:353,1,40,0|0,3:0|0:0,0:0:0:0:
425,315,51667,2,0,P|442:361|453:384,1,40
207,228,51917,6,0,B|162:215|162:215|141:177|141:177|52:150,1,143.999995605469,6|2,1:2|0:1,0:0:0:0:
163,291,52292,1,0,3:0:0:0:
353,68,52417,5,0,1:0:0:0:
317,132,52542,2,0,B|362:119|362:119|383:81|383:81|472:54,1,143.999995605469,0|0,3:0|3:0,0:0:0:0:
243,228,52917,5,0,1:0:0:0:
352,377,53042,1,0,3:0:0:0:
278,381,53167,2,0,L|289:341,1,35.9999989013672,2|0,0:1|0:0,0:0:0:0:
272,355,53417,6,0,P|359:337|333:204,1,240,6|0,3:2|0:0,0:0:0:0:
375,144,53917,2,0,P|426:119|467:91,1,80,2|0,1:2|0:0,0:0:0:0:
219,291,54167,1,2,0:0:0:0:
241,221,54292,2,0,B|162:196|167:252|42:225,1,160,0|0,3:0|0:0,0:0:0:0:
41,173,54667,2,0,P|97:148|141:118,1,80,2|0,3:2|0:0,0:0:0:0:
108,299,54917,2,0,P|46:261|3:241,1,80,0|0,1:0|0:0,0:0:0:0:
194,185,55167,2,0,P|186:241|184:301,1,80,2|0,0:0|0:0,0:0:0:0:
434,384,55417,6,0,P|417:320|505:268,1,160,0|0,3:0|0:0,0:0:0:0:
285,326,55792,1,0,0:0:0:0:
294,252,55917,2,0,P|256:237|198:206,1,80,0|0,1:0|0:0,0:0:0:0:
63,329,56167,1,2,0:1:0:0:
0,368,56292,2,0,B|12:286|63:317|66:210,1,160,0|0,3:0|1:0,0:0:0:0:
163,67,56667,2,0,P|208:42|249:13,1,80,2|0,3:1|0:0,0:0:0:0:
300,69,56917,1,0,1:0:0:0:
300,69,57042,1,0,0:0:0:0:
300,69,57167,2,0,P|241:120|203:144,1,80,2|0,0:0|0:0,0:0:0:0:
340,335,57417,6,0,P|426:368|512:386,1,160,2|2,3:2|0:0,0:0:0:0:
479,308,57792,1,0,0:0:0:0:
479,308,57917,2,0,P|436:282|379:242,1,80,2|0,1:2|0:0,0:0:0:0:
247,123,58167,2,0,B|296:110|296:110|316:68|316:68|404:39,1,160,2|0,0:0|0:0,0:0:0:0:
415,113,58542,1,0,0:0:0:0:
265,202,58667,2,0,P|309:230|363:271,1,80,2|0,3:2|0:0,0:0:0:0:
122,120,58917,2,0,P|106:68|86:22,1,80,0|0,1:0|0:0,0:0:0:0:
36,265,59167,2,0,P|12:305|-10:355,1,80,2|0,0:0|0:0,0:0:0:0:
207,30,59417,6,0,P|242:111|325:106,1,160,0|0,3:0|0:0,0:0:0:0:
169,309,59792,1,0,3:0:0:0:
177,235,59917,2,0,P|129:215|77:189,1,80,0|0,1:0|3:0,0:0:0:0:
278,372,60167,5,0,3:0:0:0:
334,322,60292,1,0,3:0:0:0:
408,305,60417,5,0,1:0:0:0:
269,182,60542,1,0,3:0:0:0:
335,143,60667,5,0,3:0:0:0:
475,69,60792,1,0,3:0:0:0:
457,141,60917,5,0,1:0:0:0:
294,44,61042,1,0,3:0:0:0:
373,37,61167,5,2,0:3:0:0:
203,145,61292,1,2,0:3:0:0:
21,37,61417,6,0,P|13:78|-5:216,2,136.000002593994,6|2|2,3:2|0:3|1:2,0:0:0:0:
146,141,62042,1,2,0:0:0:0:
84,185,62167,1,2,0:0:0:0:
134,67,62292,1,2,3:2:0:0:
223,144,62417,2,0,P|271:167|306:185,1,68.0000012969971,0|2,0:0|0:3,0:0:0:0:
478,321,62667,2,0,B|467:244|525:264|499:162,1,136.000002593994,2|2,3:2|1:2,0:0:0:0:
451,145,63042,1,0,0:0:0:0:
413,229,63167,2,0,P|365:265|330:295,1,68.0000012969971,2|0,0:0|0:0,0:0:0:0:
172,369,63417,6,0,P|83:365|69:295,1,136.000002593994,0|2,3:0|0:3,0:0:0:0:
231,283,63792,1,0,0:0:0:0:
85,260,63917,2,0,P|148:248|191:297,1,136.000002593994,0|2,1:0|0:3,0:0:0:0:
223,361,64292,1,0,1:0:0:0:
332,262,64417,2,0,P|380:240|422:214,1,68.0000012969971,2|0,0:0|1:0,0:0:0:0:
454,279,64667,2,0,B|445:313|445:313|395:358,1,68.0000012969971,2|0,3:2|0:0,0:0:0:0:
279,110,64917,2,0,P|301:158|327:200,1,68.0000012969971,2|0,1:2|0:0,0:0:0:0:
262,232,65167,2,0,B|227:223|227:223|182:173,1,68.0000012969971,2|0,0:0|0:0,0:0:0:0:
372,38,65417,6,0,L|521:-6,2,136.000002593994,0|2|2,3:0|0:3|1:2,0:0:0:0:
219,145,66042,1,2,0:0:0:0:
281,190,66167,1,2,0:0:0:0:
407,77,66292,1,2,3:2:0:0:
341,105,66417,2,0,B|339:137|339:137|373:183,1,68.0000012969971,2|0,0:0|1:0,0:0:0:0:
445,256,66667,2,0,L|531:295,1,68.0000012969971,2|0,3:2|0:0,0:0:0:0:
290,193,66917,2,0,B|217:171|224:217|109:191,2,136.000002593994,2|2|0,1:2|0:0|3:0,0:0:0:0:
296,201,67667,6,0,P|250:221|218:230,1,68.0000012969971,2|0,0:3|0:0,0:0:0:0:
31,319,67917,2,0,P|102:341|184:361,1,136.000002593994,0|2,1:0|0:0,0:0:0:0:
225,320,68292,1,0,3:0:0:0:
175,257,68417,1,0,0:0:0:0:
202,203,68542,1,2,0:3:0:0:
157,138,68667,2,0,P|118:119|77:93,1,68.0000012969971,0|2,3:0|3:0,0:0:0:0:
99,259,68917,2,0,P|152:226|183:209,1,68.0000012969971,0|0,1:0|0:0,0:0:0:0:
16,150,69167,2,0,P|18:212|12:249,1,68.0000012969971,2|0,0:3|0:0,0:0:0:0:
292,145,69417,6,0,B|374:124|356:165|460:153,1,136.000002593994,0|2,3:0|0:3,0:0:0:0:
466,217,69792,1,0,0:0:0:0:
372,228,69917,2,0,P|314:248|257:273,1,68.0000012969971,2|2,1:2|0:0,0:0:0:0:
128,373,70167,1,2,0:0:0:0:
177,315,70292,1,2,3:2:0:0:
134,369,70417,2,0,P|170:363|291:316,1,136.000002593994,2|2,0:0|3:2,0:0:0:0:
316,282,70792,1,0,0:0:0:0:
388,331,70917,2,0,P|350:349|309:380,1,68.0000012969971,2|0,1:2|0:0,0:0:0:0:
323,276,71167,2,0,P|263:274|226:275,1,68.0000012969971,2|0,0:0|0:0,0:0:0:0:
378,219,71417,6,0,P|300:170|243:143,1,136.000002593994,0|2,3:0|0:0,0:0:0:0:
304,95,71792,1,0,0:0:0:0:
166,0,71917,2,0,P|111:17|106:95,1,136.000002593994,0|2,1:0|0:0,0:0:0:0:
180,225,72292,1,0,3:0:0:0:
209,163,72417,1,0,0:0:0:0:
104,227,72542,1,2,0:3:0:0:
256,224,72667,2,0,P|294:259|330:285,1,68.0000012969971,2|0,3:2|0:0,0:0:0:0:
208,64,72917,2,0,P|225:11|233:-24,1,68.0000012969971,2|0,1:2|0:0,0:0:0:0:
65,162,73167,2,0,P|15:182|-27:195,1,68.0000012969971,2|0,0:0|0:0,0:0:0:0:
200,7,73417,6,0,B|174:85|234:67|198:186,1,136.000002593994,2|2,3:2|0:3,0:0:0:0:
241,202,73792,1,0,0:0:0:0:
383,53,73917,2,0,P|424:36|477:9,1,68.0000012969971,2|0,1:2|0:0,0:0:0:0:
312,195,74167,1,2,0:0:0:0:
402,258,74292,1,0,1:0:0:0:
388,184,74417,1,2,0:0:0:0:
326,269,74542,1,0,1:0:0:0:
474,282,74667,2,0,P|530:315|555:329,1,68.0000012969971,0|2,3:0|0:0,0:0:0:0:
235,254,74917,2,0,B|157:227|168:275|68:245,1,136.000002593994,0|4,1:0|3:0,0:0:0:0:
235,325,75292,1,0,3:0:0:0:
10,281,75417,6,0,B|104:255|86:307|198:290,1,160,2|0,1:2|0:0,0:0:0:0:
487,230,75792,2,0,B|393:204|411:256|299:239,1,160,2|0,1:2|0:0,0:0:0:0:
85,206,76167,2,0,P|35:187|-19:154,1,80,2|0,1:2|0:0,0:0:0:0:
374,313,76417,1,6,3:2:0:0:
0,118,77417,6,0,P|78:102|77:24,1,160,6|0,3:2|0:0,0:0:0:0:
224,156,77792,2,0,L|327:185,1,80,2|2,0:0|1:2,0:0:0:0:
305,171,78167,2,0,B|219:143|232:198|130:184,1,160,0|2,0:0|0:0,0:0:0:0:
279,337,78542,5,2,0:0:0:0:
364,250,78667,1,2,3:2:0:0:
295,266,78792,1,2,0:0:0:0:
354,323,78917,2,0,P|385:341|464:364,1,80,2|0,1:2|0:0,0:0:0:0:
419,362,79292,1,2,0:0:0:0:
222,288,79417,6,0,P|144:282|117:354,1,160,2|2,3:2|0:0,0:0:0:0:
46,317,79792,1,2,0:0:0:0:
155,129,79917,2,0,P|121:116|59:86,1,80,2|0,1:2|0:0,0:0:0:0:
54,163,80167,2,0,P|108:199|156:222,1,80,2|0,0:0|3:0,0:0:0:0:
319,285,80417,6,0,B|407:265|398:320|506:295,1,160,2|0,0:0|3:0,0:0:0:0:
455,371,80792,1,0,3:0:0:0:
256,332,80917,2,0,P|215:344|127:379,1,80,2|2,1:2|0:0,0:0:0:0:
373,132,81167,1,2,0:0:0:0:
270,229,81292,1,2,0:0:0:0:
268,155,81417,6,0,P|335:152|361:237,1,160,2|2,3:2|0:0,0:0:0:0:
187,351,81792,1,0,0:0:0:0:
92,278,81917,1,2,1:2:0:0:
62,345,82042,1,2,0:0:0:0:
196,277,82167,1,2,0:0:0:0:
17,193,82292,6,0,L|204:145,1,160,2|0,3:2|1:0,0:0:0:0:
395,6,82667,2,0,P|444:29|502:49,1,80,0|0,3:0|0:0,0:0:0:0:
321,129,82917,2,0,P|320:91|312:32,1,80,0|0,1:0|0:0,0:0:0:0:
473,130,83167,2,0,P|432:149|379:177,1,80,2|0,0:0|0:0,0:0:0:0:
190,380,83417,5,2,3:2:0:0:
167,310,83542,2,0,B|262:290|245:352|352:341,1,160,2|2,0:0|0:0,0:0:0:0:
77,216,83917,2,0,P|41:235|5:252,1,80,0|0,1:0|0:0,0:0:0:0:
38,318,84167,1,2,0:0:0:0:
183,116,84292,6,0,P|253:121|269:216,1,160,2|2,3:2|0:3,0:0:0:0:
436,352,84667,2,0,L|540:383,1,80,0|0,1:0|0:0,0:0:0:0:
391,221,84917,1,0,1:0:0:0:
443,278,85042,1,0,3:0:0:0:
281,357,85167,2,0,B|279:321|279:321|324:276,1,80,2|0,0:0|0:0,0:0:0:0:
444,64,85417,5,6,3:2:0:0:
511,36,85542,2,0,L|324:0,1,160,2|2,0:0|0:0,0:0:0:0:
164,184,85917,2,0,P|185:180|260:158,1,80,2|0,1:2|0:0,0:0:0:0:
60,315,86167,1,0,0:0:0:0:
13,372,86292,2,0,B|-9:277|62:309|21:194,1,160,2|2,3:2|1:2,0:0:0:0:
279,337,86667,2,0,L|364:368,1,80,2|0,3:2|0:0,0:0:0:0:
210,217,86917,5,2,1:2:0:0:
296,263,87042,1,0,0:0:0:0:
174,285,87167,5,0,0:0:0:0:
316,192,87292,1,2,0:0:0:0:
156,46,87417,6,0,B|76:26|80:79|-40:61,1,160,2|2,3:2|0:0,0:0:0:0:
185,115,87792,1,2,0:0:0:0:
23,257,87917,2,0,P|103:289|125:295,1,80,2|0,1:2|0:0,0:0:0:0:
332,106,88167,2,0,P|252:138|230:144,1,80,2|0,0:0|1:0,0:0:0:0:
223,200,88417,1,2,0:0:0:0:
315,361,88542,2,0,P|318:329|310:146,1,160,0|0,3:0|3:0,0:0:0:0:
179,268,88917,5,2,1:2:0:0:
25,328,89042,1,2,0:0:0:0:
61,262,89167,5,2,0:0:0:0:
154,345,89292,1,2,0:0:0:0:
102,138,89417,6,0,P|55:220|-27:198,1,160,2|2,3:2|0:0,0:0:0:0:
248,310,89792,2,0,L|356:341,1,80,0|2,0:0|1:2,0:0:0:0:
404,186,90042,1,2,0:0:0:0:
338,222,90167,1,2,0:0:0:0:
447,362,90292,6,0,P|456:327|479:186,1,160,2|2,3:2|3:2,0:0:0:0:
458,133,90667,2,0,P|485:118|526:89,1,80,2|0,3:2|0:0,0:0:0:0:
294,284,90917,2,0,P|273:341|259:386,1,80,2|0,1:2|0:0,0:0:0:0:
219,80,91167,2,0,P|188:39|161:-4,1,80,2|0,0:0|0:0,0:0:0:0:
16,266,91417,5,2,1:2:0:0:
2,193,91542,2,0,B|96:184|82:234|183:224,1,160,0|0,3:0|3:0,0:0:0:0:
405,170,91917,2,0,P|470:198|506:211,1,80,2|0,1:2|3:0,0:0:0:0:
374,261,92167,2,0,P|439:289|475:302,1,80,2|0,0:0|3:0,0:0:0:0:
195,93,92417,1,0,1:0:0:0:
237,219,92542,2,0,P|210:151|294:106,1,160,0|0,3:0|3:0,0:0:0:0:
147,384,92917,5,2,1:2:0:0:
280,276,93042,1,0,3:0:0:0:
205,290,93167,5,0,3:0:0:0:
356,345,93292,1,0,3:0:0:0:
108,305,93417,5,2,0:0:0:0:
54,251,93792,1,2,0:0:0:0:
54,251,93917,1,2,0:0:0:0:
54,251,94042,1,2,0:0:0:0:
82,177,94292,1,2,0:0:0:0:
82,177,94417,1,2,0:0:0:0:
37,112,94667,5,2,3:2:0:0:
74,97,94792,1,2,0:0:0:0:
86,98,94917,1,2,1:2:0:0:
126,85,95042,1,2,3:2:0:0:
176,79,95167,2,0,L|131:55,1,40,2|0,1:2|0:0,0:0:0:0:
290,190,95417,5,2,0:3:0:0:
290,190,95542,2,0,P|302:157|317:85,1,80,0|2,1:0|0:3,0:0:0:0:
372,71,95917,2,0,P|389:104|394:124,2,40,2|0|0,3:0|0:0|1:0,0:0:0:0:
420,14,96292,1,2,3:2:0:0:
420,14,96417,2,0,P|456:28|471:36,1,40,2|0,0:0|0:0,0:0:0:0:
396,179,96667,2,0,P|366:196|290:221,2,80,2|2|0,3:2|0:3|1:0,0:0:0:0:
146,376,97417,6,0,P|135:281|1:278,1,240,6|0,3:2|0:0,0:0:0:0:
55,325,97917,2,0,P|94:309|144:282,1,80,2|0,1:2|0:0,0:0:0:0:
294,123,98167,1,0,1:0:0:0:
256,57,98292,2,0,B|215:135|279:124|234:219,1,160,0|0,3:0|1:0,0:0:0:0:
100,45,98667,2,0,P|68:28|24:-2,1,80,2|0,3:2|0:0,0:0:0:0:
146,153,98917,1,0,1:0:0:0:
8,242,99042,1,0,3:0:0:0:
13,169,99167,2,0,B|52:171|52:171|91:200,1,80,2|0,0:0|0:0,0:0:0:0:
309,290,99417,6,0,B|407:263|389:315|485:305,1,160,2|0,3:0|0:0,0:0:0:0:
213,347,99792,2,0,L|103:387,1,80,0|0,0:0|1:0,0:0:0:0:
132,367,100167,1,2,1:0:0:0:
272,222,100292,2,0,B|219:207|219:207|193:167|193:167|103:142,1,160,0|0,3:0|3:0,0:0:0:0:
79,195,100667,2,0,B|102:230|102:230|91:286,1,80,2|0,3:1|0:0,0:0:0:0:
284,133,100917,1,0,1:0:0:0:
284,133,101042,1,0,3:0:0:0:
284,133,101167,2,0,P|350:100|377:83,1,80,2|0,1:2|0:0,0:0:0:0:
415,52,101417,6,0,P|348:58|327:217,1,240,2|0,3:2|0:0,0:0:0:0:
425,334,101917,2,0,P|461:349|504:370,1,80,2|0,1:2|0:0,0:0:0:0:
318,209,102167,1,0,1:0:0:0:
385,178,102292,2,0,B|302:145|310:200|193:175,1,160,0|0,3:0|1:0,0:0:0:0:
67,380,102667,2,0,B|31:364|31:364|-3:318,1,80,2|0,3:2|0:0,0:0:0:0:
169,279,102917,2,0,B|173:318|173:318|150:370,1,80,0|0,1:0|3:0,0:0:0:0:
28,239,103167,2,0,B|59:215|59:215|116:209,1,80,2|0,0:0|0:0,0:0:0:0:
359,310,103417,5,2,3:0:0:0:
388,377,103542,2,0,L|427:211,1,160,0|0,3:0|0:0,0:0:0:0:
285,54,103917,2,0,P|251:38|207:13,1,80,2|0,1:3|0:0,0:0:0:0:
245,121,104167,1,2,1:0:0:0:
408,14,104292,2,0,P|489:14|500:107,1,160,0|0,3:0|3:0,0:0:0:0:
286,186,104667,2,0,P|243:211|187:235,1,80,2|0,3:1|0:0,0:0:0:0:
149,252,104917,1,0,1:0:0:0:
231,338,105042,1,0,0:0:0:0:
78,381,105167,2,0,B|72:344|72:344|107:296,1,80,2|0,1:2|0:0,0:0:0:0:
26,26,105417,6,0,P|131:48|116:195,1,240,2|0,3:2|0:0,0:0:0:0:
75,143,105917,2,0,P|24:126|-19:103,1,80,2|0,1:2|0:0,0:0:0:0:
71,362,106167,1,0,1:0:0:0:
3,384,106292,2,0,P|3:344|21:207,1,160,0|0,3:0|1:0,0:0:0:0:
181,57,106667,2,0,P|221:42|274:15,1,80,2|0,3:2|0:0,0:0:0:0:
306,79,106917,2,0,P|252:123|213:148,1,80,0|0,1:0|0:0,0:0:0:0:
417,356,107167,5,2,0:0:0:0:
386,289,107292,1,0,0:0:0:0:
268,378,107417,5,2,3:0:0:0:
479,312,107542,2,0,B|379:292|398:339|305:328,1,160
57,271,107917,1,2,1:3:0:0:
57,271,108167,1,2,1:0:0:0:
34,344,108292,2,0,P|84:363|128:373,1,80,0|0,3:0|0:0,0:0:0:0:
291,157,108542,1,0,3:0:0:0:
325,222,108667,2,0,P|275:241|231:251,1,80,2|0,3:1|0:0,0:0:0:0:
71,87,108917,5,0,1:0:0:0:
125,138,109042,1,0,3:0:0:0:
247,10,109167,5,2,1:2:0:0:
146,66,109292,1,0,3:0:0:0:
297,165,109417,6,0,P|381:191|507:215,1,160,2|2,3:2|0:0,0:0:0:0:
464,281,109792,1,0,0:0:0:0:
464,281,109917,2,0,B|425:285|425:285|375:317,1,80,2|0,1:2|0:0,0:0:0:0:
219,171,110167,1,0,1:0:0:0:
249,104,110292,2,0,P|178:90|151:186,1,160,0|0,3:0|1:0,0:0:0:0:
291,341,110667,2,0,P|332:359|376:384,1,80,2|0,3:2|0:0,0:0:0:0:
353,209,110917,2,0,P|293:245|246:265,1,80,0|0,1:0|3:0,0:0:0:0:
445,324,111167,2,0,P|437:287|431:218,1,80,2|0,0:0|0:0,0:0:0:0:
159,287,111417,6,0,B|68:255|80:313|-27:288,1,160,2|0,3:0|3:0,0:0:0:0:
186,164,111792,2,0,L|282:126,1,80,0|0,1:0|1:0,0:0:0:0:
275,140,112167,1,0,1:0:0:0:
170,296,112292,2,0,B|193:330|193:330|180:381,1,80,4|0,3:2|0:0,0:0:0:0:
255,379,112542,5,0,1:0:0:0:
119,195,112667,2,0,P|73:180|-28:138,1,120,0|0,3:0|0:0,0:0:0:0:
3,147,112917,5,0,1:0:0:0:
101,332,113042,1,0,3:0:0:0:
29,311,113167,1,0,1:0:0:0:
235,223,113292,1,0,3:0:0:0:
424,370,113417,6,0,P|427:353|435:235,2,120.000004577637,6|0|2,3:2|0:0|1:2,0:0:0:0:
354,340,114042,1,2,0:0:0:0:
354,340,114167,2,0,P|349:268|345:248,1,60.0000022888184,2|2,0:0|3:2,0:0:0:0:
251,193,114417,2,0,P|196:212|195:281,1,120.000004577637,2|2,0:0|3:2,0:0:0:0:
154,331,114792,1,0,0:0:0:0:
102,270,114917,2,0,P|61:295|14:311,1,60.0000022888184,2|0,1:2|0:0,0:0:0:0:
253,117,115167,2,0,B|257:48|298:75|302:-13,2,120.000004577637,2|0|0,0:0|3:0|0:0,0:0:0:0:
246,120,115917,6,0,P|326:153|372:165,1,120.000004577637,0|0,1:0|3:0,0:0:0:0:
405,217,116292,1,0,3:0:0:0:
299,218,116417,2,0,P|316:251|335:304,1,60.0000022888184,2|0,0:0|0:0,0:0:0:0:
254,277,116667,2,0,P|258:317|253:369,1,60.0000022888184,2|0,3:2|0:0,0:0:0:0:
32,260,116917,2,0,P|15:293|-4:346,1,60.0000022888184,2|0,1:2|0:0,0:0:0:0:
77,319,117167,2,0,P|73:359|78:411,1,60.0000022888184,2|0,0:0|0:0,0:0:0:0:
161,200,117417,6,0,B|146:135|192:149|157:57,1,120.000004577637,0|0,3:0|3:0,0:0:0:0:
104,42,117792,1,0,0:0:0:0:
104,42,117917,2,0,L|19:13,1,60.0000022888184,2|2,1:2|0:0,0:0:0:0:
68,219,118167,1,2,3:2:0:0:
124,171,118292,1,2,3:2:0:0:
74,226,118417,2,0,P|92:164|23:133,2,120.000004577637,2|2|2,0:0|3:2|1:2,0:0:0:0:
278,102,119167,2,0,P|312:86|353:60,1,60.0000022888184,2|0,0:0|0:0,0:0:0:0:
381,18,119417,6,0,P|455:48|508:66,1,120.000004577637,0|0,3:0|3:0,0:0:0:0:
463,128,119792,1,0,0:0:0:0:
463,128,119917,2,0,B|477:153|477:153|466:202,1,60.0000022888184,0|0,1:0|0:0,0:0:0:0:
330,300,120167,1,2,0:0:0:0:
312,268,120292,2,0,B|319:202|366:234|372:148,1,120.000004577637,0|0,3:0|1:0,0:0:0:0:
328,107,120667,2,0,P|313:97|271:58,1,60.0000022888184,0|0,3:0|0:0,0:0:0:0:
79,193,120917,2,0,P|122:184|227:148,2,120.000004577637,0|0|0,1:0|0:0|3:0,0:0:0:0:
74,200,121667,6,0,B|106:204|106:204|154:233,1,60.0000022888184,0|0,3:0|0:0,0:0:0:0:
240,371,121917,1,2,1:2:0:0:
268,318,122042,1,2,0:0:0:0:
249,249,122167,1,2,0:0:0:0:
271,204,122292,1,2,3:2:0:0:
257,131,122417,2,0,P|300:111|332:91,1,60.0000022888184,2|0,0:0|0:0,0:0:0:0:
487,193,122667,2,0,B|484:223|484:223|457:256,1,60.0000022888184,2|0,3:2|0:0,0:0:0:0:
410,204,122917,2,0,P|367:184|335:164,1,60.0000022888184,2|0,1:2|0:0,0:0:0:0:
215,6,123167,2,0,B|218:36|218:36|245:69,1,60.0000022888184,2|0,0:0|0:0,0:0:0:0:
184,111,123417,6,0,B|126:91|132:126|51:111,2,120.000004577637,0|0|0,3:0|3:2|1:0,0:0:0:0:
323,264,124167,1,0,3:0:0:0:
323,264,124292,1,0,3:0:0:0:
323,264,124417,2,0,P|377:244|403:232,1,60.0000022888184,2|0,0:0|1:0,0:0:0:0:
430,298,124667,2,0,P|365:342|344:352,1,60.0000022888184,2|0,3:2|0:0,0:0:0:0:
219,225,124917,2,0,P|165:205|139:193,1,60.0000022888184,2|0,1:2|0:0,0:0:0:0:
112,259,125167,2,0,P|177:303|198:313,1,60.0000022888184,2|0,0:0|0:0,0:0:0:0:
386,167,125417,6,0,P|444:183|451:252,2,120.000004577637,0|0|2,3:0|3:0|1:2,0:0:0:0:
334,217,126042,1,2,0:0:0:0:
334,217,126167,2,0,L|249:248,1,60.0000022888184,2|2,0:0|3:2,0:0:0:0:
86,367,126417,2,0,B|58:309|104:307|63:220,1,120.000004577637,2|2,0:0|3:2,0:0:0:0:
34,189,126792,1,0,0:0:0:0:
126,202,126917,2,0,P|152:137|158:114,1,60.0000022888184,2|0,1:2|0:0,0:0:0:0:
212,188,127167,2,0,P|223:139|225:95,1,60.0000022888184,2|0,0:0|0:0,0:0:0:0:
394,0,127417,6,0,P|473:24|537:37,2,120.000004577637,0|0|0,3:0|0:0|1:0,0:0:0:0:
386,8,128167,1,0,0:0:0:0:
442,89,128292,2,0,P|393:115|290:152,1,120.000004577637,0|0,3:0|3:0,0:0:0:0:
361,208,128667,2,0,P|325:222|264:233,1,60.0000022888184,0|0,3:0|0:0,0:0:0:0:
141,376,128917,2,0,P|153:338|78:287,2,120.000004577637,0|0|0,1:0|0:0|3:0,0:0:0:0:
135,370,129667,6,0,P|177:353|214:335,1,60.0000022888184,0|0,3:0|0:0,0:0:0:0:
311,231,129917,1,2,1:2:0:0:
238,240,130042,1,2,0:0:0:0:
199,196,130167,1,2,0:0:0:0:
211,147,130292,1,2,3:2:0:0:
227,130,130417,2,0,P|271:157|308:177,1,60.0000022888184,2|0,0:0|0:0,0:0:0:0:
421,286,130667,2,0,P|409:235|483:196,2,120.000004577637,2|2|2,3:2|1:2|0:0,0:0:0:0:
371,341,131292,1,0,0:0:0:0:
446,355,131417,6,0,B|386:378|309:387,1,120.000004577637,0|0,3:0|0:0,0:0:0:0:
15,284,133417,5,6,3:2:0:0:
107,136,133542,2,0,P|47:129|21:229,1,160,2|2,0:0|0:0,0:0:0:0:
234,334,133917,2,0,L|325:361,1,80,2|0,1:2|0:0,0:0:0:0:
172,375,134167,1,0,0:0:0:0:
323,284,134292,6,0,B|234:258|244:312|137:288,1,160,2|2,3:2|1:2,0:0:0:0:
356,126,134667,1,2,3:2:0:0:
409,77,134792,2,0,P|431:120|435:182,1,80,2|2,0:0|1:2,0:0:0:0:
301,207,135042,2,0,P|279:164|275:102,1,80
85,369,135292,1,2,0:0:0:0:
117,303,135417,6,0,P|38:290|13:391,1,160,0|2,3:0|0:0,0:0:0:0:
179,189,135792,1,2,0:0:0:0:
133,129,135917,2,0,P|97:117|48:96,1,80,2|0,1:2|0:0,0:0:0:0:
254,312,136167,1,2,0:0:0:0:
209,370,136292,2,0,B|258:360|258:360|286:323|286:323|354:306,1,160,0|0,3:0|0:0,0:0:0:0:
405,265,136667,2,0,B|429:298|429:298|419:355,1,80,0|0,3:0|3:0,0:0:0:0:
309,95,136917,5,2,1:2:0:0:
437,188,137042,1,2,0:0:0:0:
261,197,137167,5,2,0:0:0:0:
388,84,137292,1,2,0:0:0:0:
177,0,137417,6,0,P|99:22|108:117,1,160,2|2,3:2|0:0,0:0:0:0:
130,150,137792,1,0,0:0:0:0:
313,56,137917,2,0,P|353:68|406:94,1,80,2|2,1:2|0:0,0:0:0:0:
193,262,138167,5,2,0:0:0:0:
222,196,138292,2,0,B|140:170|145:221|35:192,1,160,2|0,3:2|1:0,0:0:0:0:
291,294,138667,1,0,3:0:0:0:
99,380,138792,1,0,0:0:0:0:
95,309,138917,2,0,B|134:314|134:314|193:356,1,80,0|0,1:0|0:0,0:0:0:0:
431,167,139167,2,0,B|392:172|392:172|333:214,1,80,2|0,0:0|0:0,0:0:0:0:
400,258,139417,5,2,3:2:0:0:
224,384,139542,2,0,L|194:189,1,160,2|0,0:0|0:0,0:0:0:0:
71,49,139917,2,0,P|33:28|-20:-8,1,80,2|0,1:2|0:0,0:0:0:0:
34,119,140167,1,2,0:0:0:0:
227,10,140292,2,0,P|300:5|338:99,1,160,2|0,3:2|1:0,0:0:0:0:
128,216,140667,2,0,P|68:245|27:270,1,80,0|0,3:0|3:0,0:0:0:0:
134,137,140917,5,2,1:2:0:0:
257,223,141042,1,0,3:0:0:0:
320,82,141167,1,2,3:2:0:0:
242,149,141292,1,0,3:0:0:0:
496,248,141417,5,6,3:2:0:0:
496,248,141542,2,0,P|498:207|471:60,1,160,2|2,0:0|0:0,0:0:0:0:
418,247,141917,2,0,P|396:302|362:365,1,80,2|0,1:2|0:0,0:0:0:0:
350,202,142167,2,0,P|328:147|294:84,1,80,2|2,0:0|3:2,0:0:0:0:
110,349,142417,5,2,0:0:0:0:
197,233,142542,1,2,0:0:0:0:
195,306,142667,2,0,P|238:338|293:368,1,80,2|2,3:2|0:0,0:0:0:0:
79,144,142917,2,0,P|6:171|29:273,1,160,2|0,1:2|0:0,0:0:0:0:
47,302,143292,1,2,0:0:0:0:
223,145,143417,5,2,3:2:0:0:
223,145,143542,2,0,L|307:116,1,80,2|2,0:0|0:0,0:0:0:0:
228,308,143792,1,2,0:0:0:0:
74,175,143917,2,0,P|74:148|68:30,1,120,2|0,1:2|0:0,0:0:0:0:
71,56,144167,2,0,P|38:42|-17:9,1,80,2|0,0:0|3:0,0:0:0:0:
123,118,144417,1,2,0:0:0:0:
3,288,144542,2,0,P|106:266|103:190,1,160,0|0,3:0|0:0,0:0:0:0:
389,149,144917,5,2,1:2:0:0:
325,106,145042,1,2,0:0:0:0:
366,231,145167,1,0,3:0:0:0:
476,156,145292,1,2,3:2:0:0:
290,185,145417,6,0,P|232:209|182:223,1,80,2|0,3:2|0:0,0:0:0:0:
415,83,145667,2,0,P|430:45|457:-13,1,80,2|0,0:0|0:0,0:0:0:0:
455,244,145917,2,0,P|494:298|523:331,1,80,2|0,1:2|0:0,0:0:0:0:
332,106,146167,1,2,0:0:0:0:
372,167,146292,2,0,B|404:246|350:230|383:338,1,160,2|2,3:2|1:2,0:0:0:0:
151,137,146667,2,0,P|105:122|53:93,1,80,2|0,3:2|0:0,0:0:0:0:
112,279,146917,2,0,P|153:244|186:223,1,80,0|0,1:0|0:0,0:0:0:0:
0,172,147167,2,0,P|18:228|29:274,1,80,2|0,0:0|0:0,0:0:0:0:
294,200,147417,5,2,1:2:0:0:
229,170,147542,2,0,B|281:158|281:158|310:119|310:119|386:101,1,160,0|0,3:0|3:0,0:0:0:0:
176,272,147917,2,0,B|199:304|199:304|192:360,1,80,2|0,1:2|3:0,0:0:0:0:
129,382,148167,2,0,B|106:350|106:350|113:294,1,80,2|0,0:0|3:0,0:0:0:0:
294,107,148417,5,0,1:0:0:0:
359,77,148542,2,0,B|190:32,1,160,0|0,3:0|3:0,0:0:0:0:
38,163,148917,5,0,1:0:0:0:
178,247,149042,1,2,0:0:0:0:
282,105,149167,5,2,0:0:0:0:
173,173,149292,1,2,0:0:0:0:
367,238,149417,5,2,0:0:0:0:
439,286,149792,1,2,0:0:0:0:
439,286,149917,1,0,1:0:0:0:
439,286,150042,1,2,0:0:0:0:
489,351,150292,1,2,0:3:0:0:
489,351,150417,1,2,0:0:0:0:
414,375,150667,5,2,3:2:0:0:
377,360,150792,1,2,0:0:0:0:
365,361,150917,1,2,1:2:0:0:
325,348,151042,1,2,0:0:0:0:
275,342,151167,2,0,L|320:318,1,40,2|0,0:0|0:0,0:0:0:0:
478,273,151417,5,2,3:2:0:0:
478,273,151542,2,0,P|466:240|451:168,1,80,0|2,0:0|3:2,0:0:0:0:
396,154,151917,2,0,P|379:187|374:207,2,40,2|0|0,1:2|0:0|0:0,0:0:0:0:
348,97,152292,1,2,0:0:0:0:
348,97,152417,2,0,P|312:111|297:119,1,40,2|0,0:0|0:0,0:0:0:0:
342,21,152667,2,0,P|301:9|279:6,1,40,0|0,3:0|1:0,0:0:0:0:
206,99,152917,1,0,1:0:0:0:
206,99,153042,2,0,P|176:116|100:141,1,80,0|0,1:0|1:0,0:0:0:0:
68,160,153417,1,2,3:2:0:0:
256,192,168417,12,2,170917,0:0:0:0:
378,365,171417,5,6,3:2:0:0:
335,307,171542,2,0,L|513:356,1,160,2|2,0:0|0:0,0:0:0:0:
251,194,171917,2,0,P|214:218|166:240,1,80,2|0,1:2|0:0,0:0:0:0:
185,243,172292,2,0,P|219:255|283:163,1,160,2|2,3:2|0:0,0:0:0:0:
55,0,172667,5,2,3:2:0:0:
171,93,172792,1,2,0:0:0:0:
19,180,172917,5,2,1:2:0:0:
60,122,173042,2,0,P|97:141|147:173,1,80
279,353,173292,5,2,0:0:0:0:
310,287,173417,2,0,B|228:264|234:316|123:296,1,160,2|2,3:2|0:0,0:0:0:0:
365,338,173792,5,2,0:0:0:0:
273,146,173917,2,0,P|317:172|370:193,1,80,2|0,1:2|0:0,0:0:0:0:
239,249,174167,2,0,P|283:275|336:296,1,80,2|0,0:0|3:0,0:0:0:0:
57,85,174417,1,2,0:0:0:0:
126,111,174542,2,0,P|91:176|-5:145,1,160,0|0,3:0|3:0,0:0:0:0:
197,304,174917,5,2,1:2:0:0:
54,360,175042,1,2,0:0:0:0:
86,290,175167,1,2,0:0:0:0:
178,377,175292,1,2,0:0:0:0:
344,220,175417,6,0,P|343:195|326:35,1,160,2|2,3:2|0:0,0:0:0:0:
261,93,175792,1,0,0:0:0:0:
261,93,175917,2,0,P|247:143|220:200,1,80,2|2,1:2|0:0,0:0:0:0:
198,230,176167,1,2,0:0:0:0:
182,94,176292,2,0,P|168:44|141:-13,1,80,2|0,3:2|0:0,0:0:0:0:
16,299,176542,1,2,0:0:0:0:
0,229,176667,2,0,B|95:208|72:263|196:246,2,160,0|0|2,3:0|1:0|0:0,0:0:0:0:
381,340,177417,5,2,3:2:0:0:
322,381,177542,2,0,L|370:215,1,160,2|0,0:0|0:0,0:0:0:0:
267,53,177917,2,0,P|229:38|193:21,1,80,2|0,1:2|0:0,0:0:0:0:
239,122,178167,1,2,0:0:0:0:
403,11,178292,2,0,P|482:9|506:93,1,160,2|0,3:2|1:0,0:0:0:0:
305,167,178667,2,0,P|273:186|223:219,1,80,0|2,3:0|0:0,0:0:0:0:
361,366,178917,5,0,1:0:0:0:
439,227,179042,1,0,3:0:0:0:
370,255,179167,1,2,3:2:0:0:
504,317,179292,1,0,3:0:0:0:
304,297,179417,6,0,B|221:266|239:323|109:291,1,160,6|0,3:2|0:0,0:0:0:0:
84,258,179792,1,2,0:0:0:0:
232,148,179917,2,0,P|284:169|334:184,1,80,2|0,1:2|0:0,0:0:0:0:
82,66,180167,1,0,1:0:0:0:
104,0,180292,2,0,P|41:-4|0:77,1,160,0|2,3:0|1:2,0:0:0:0:
153,226,180667,5,2,3:2:0:0:
245,75,180792,1,0,3:0:0:0:
148,151,180917,5,2,1:2:0:0:
262,148,181042,2,0,P|325:177|364:189,1,80,0|0,3:0|0:0,0:0:0:0:
146,300,181292,5,2,0:0:0:0:
170,367,181417,2,0,P|86:361|70:281,1,160,6|2,3:2|0:0,0:0:0:0:
101,235,181792,1,2,3:2:0:0:
0,113,181917,2,0,P|45:97|88:80,1,80,2|0,1:2|0:0,0:0:0:0:
265,283,182167,1,2,0:0:0:0:
334,262,182292,2,0,B|285:246|285:246|262:204|262:204|189:178,1,160,0|0,3:0|0:0,0:0:0:0:
434,384,182667,2,0,B|453:350|453:350|430:291,1,80,0|0,3:0|0:0,0:0:0:0:
292,130,182917,5,2,1:2:0:0:
193,257,183042,1,6,3:2:0:0:
334,366,183167,5,0,3:0:0:0:
267,237,183292,1,2,0:0:0:0:
40,296,183417,6,0,P|73:306|214:334,1,160,6|2,3:2|0:0,0:0:0:0:
193,257,183792,1,0,0:0:0:0:
193,257,183917,2,0,P|150:237|94:208,1,80,2|2,1:2|0:0,0:0:0:0:
361,154,184167,1,2,0:0:0:0:
332,88,184292,2,0,P|408:84|437:168,1,160,2|0,3:2|1:0,0:0:0:0:
234,336,184667,2,0,P|201:350|142:378,1,80,0|0,3:0|0:0,0:0:0:0:
181,204,184917,2,0,P|209:225|263:262,1,80,2|0,1:2|0:0,0:0:0:0:
94,316,185167,2,0,P|98:280|103:215,1,80,2|0,0:0|0:0,0:0:0:0:
406,366,185417,5,2,1:2:0:0:
357,312,185542,2,0,L|544:358,1,160,0|0,3:0|3:0,0:0:0:0:
299,158,185917,5,2,1:2:0:0:
406,249,186042,1,0,3:0:0:0:
263,219,186167,2,0,P|206:249|170:261,1,80,2|0,0:0|1:0,0:0:0:0:
21,109,186417,1,0,1:0:0:0:
2,40,186542,2,0,B|89:16|82:66|182:46,1,160,0|0,3:0|3:0,0:0:0:0:
350,163,186917,5,2,1:2:0:0:
191,254,187042,1,0,3:0:0:0:
230,193,187167,5,0,3:0:0:0:
350,365,187292,1,0,3:0:0:0:
371,297,187417,6,0,P|301:292|264:373,1,160,6|2,3:2|0:0,0:0:0:0:
91,196,187792,2,0,L|-2:167,1,80,2|0,0:0|1:0,0:0:0:0:
10,180,188167,1,2,0:0:0:0:
177,302,188292,2,0,P|180:284|191:129,1,160,2|2,3:2|1:2,0:0:0:0:
105,278,188667,2,0,P|88:322|59:378,1,80,0|2,3:0|0:0,0:0:0:0:
293,233,188917,5,2,1:2:0:0:
416,121,189042,1,0,3:0:0:0:
275,159,189167,5,0,3:0:0:0:
441,191,189292,1,0,3:0:0:0:
218,211,189417,6,0,B|134:184|148:235|42:213,1,160,2|2,3:2|0:0,0:0:0:0:
277,16,189792,1,2,0:0:0:0:
168,69,189917,2,0,P|183:32|221:-12,1,80,0|0,1:0|0:0,0:0:0:0:
245,86,190167,1,2,0:0:0:0:
332,77,190292,2,0,P|317:114|279:158,1,80,2|0,3:2|0:0,0:0:0:0:
99,333,190542,5,2,3:2:0:0:
166,377,190667,2,0,B|174:310|215:337|222:256,1,120,0|0,3:0|0:0,0:0:0:0:
219,272,190917,2,0,P|184:259|123:228,1,80,2|0,1:2|0:0,0:0:0:0:
442,342,191167,5,2,0:0:0:0:
355,192,191292,1,2,0:0:0:0:
318,252,191417,2,0,P|393:258|415:162,1,160,2|2,3:2|0:0,0:0:0:0:
257,92,191792,1,2,0:0:0:0:
336,0,191917,2,0,B|300:19|300:19|238:21,1,80,0|0,1:0|0:0,0:0:0:0:
38,193,192167,1,2,0:0:0:0:
20,124,192292,2,0,B|114:107|94:157|200:146,1,160,2|2,3:2|0:0,0:0:0:0:
366,268,192667,2,0,P|322:291|269:310,1,80,0|2,3:0|0:0,0:0:0:0:
479,132,192917,5,2,1:2:0:0:
348,192,193042,1,2,3:2:0:0:
292,53,193167,5,2,0:0:0:0:
374,120,193292,1,0,3:0:0:0:
141,208,193417,6,0,B|156:164|156:164|141:109|166:42,1,160,2|2,3:2|0:0,0:0:0:0:
70,180,193792,1,2,0:0:0:0:
128,282,193917,2,0,P|91:303|52:335,1,80,0|2,1:0|0:0,0:0:0:0:
307,113,194167,1,2,0:0:0:0:
235,124,194292,2,0,P|260:193|362:178,1,160,2|2,3:2|1:2,0:0:0:0:
430,361,194667,2,0,L|545:396,1,80,2|2,3:2|3:2,0:0:0:0:
271,284,194917,5,2,1:2:0:0:
210,332,195042,1,2,3:2:0:0:
133,214,195167,5,2,3:2:0:0:
194,257,195292,1,2,0:0:0:0:
292,2,195417,6,0,P|250:75|162:60,1,160,6|0,3:2|0:0,0:0:0:0:
421,173,195792,2,0,L|539:208,1,80,2|2,0:0|1:2,0:0:0:0:
497,201,196167,1,0,0:0:0:0:
299,149,196292,2,0,P|359:137|487:94,1,160,0|2,3:0|0:0,0:0:0:0:
308,221,196667,5,2,3:2:0:0:
243,258,196792,1,0,3:0:0:0:
132,333,196917,5,2,1:2:0:0:
71,291,197042,1,0,3:0:0:0:
71,291,197167,1,0,3:0:0:0:
2,370,197292,5,0,3:0:0:0:
169,270,197417,2,0,B|258:255|248:306|365:293,1,160,2|2,3:2|0:0,0:0:0:0:
86,138,197792,2,0,P|61:187|57:240,1,80,2|2,0:0|1:2,0:0:0:0:
50,213,198167,1,2,0:0:0:0:
126,24,198292,2,0,P|73:95|-4:84,1,160,2|2,3:2|0:0,0:0:0:0:
254,176,198667,2,0,L|342:202,1,80,0|2,3:0|0:0,0:0:0:0:
499,384,198917,5,0,1:0:0:0:
409,304,199042,1,2,0:0:0:0:
366,367,199167,5,2,0:0:0:0:
506,286,199292,1,2,0:0:0:0:
355,129,199417,6,0,P|385:118|526:84,1,160,2|2,3:2|0:0,0:0:0:0:
507,163,199792,1,2,0:0:0:0:
507,163,199917,2,0,P|456:189|398:233,1,80,2|0,1:2|0:0,0:0:0:0:
230,328,200167,1,2,0:0:0:0:
225,258,200292,2,0,P|147:285|162:372,1,160,2|2,3:2|0:0,0:0:0:0:
279,178,200667,5,2,3:2:0:0:
188,51,200792,1,2,3:2:0:0:
258,78,200917,1,2,1:2:0:0:
111,151,201042,2,0,P|59:173|11:189,1,80,2|2,0:0|0:0,0:0:0:0:
291,356,201292,5,0,0:0:0:0:
223,329,201417,2,0,B|273:317|273:317|300:277|300:277|368:258,1,160,2|0,1:2|3:0,0:0:0:0:
108,158,201792,5,0,3:0:0:0:
176,131,201917,2,0,B|126:119|126:119|99:79|99:79|31:60,1,160,2|0,1:2|0:0,0:0:0:0:
352,190,202292,5,0,3:0:0:0:
306,134,202417,2,0,P|271:177|254:242,1,80,0|0,1:0|3:0,0:0:0:0:
372,293,202667,2,0,P|407:250|424:185,1,80,0|0,3:0|3:0,0:0:0:0:
126,244,202917,5,0,1:0:0:0:
191,282,203042,1,0,3:0:0:0:
325,159,203167,5,0,3:0:0:0:
258,193,203292,1,0,3:0:0:0:
436,265,203417,5,2,0:0:0:0:
