osu file format v14

[General]
AudioFilename: audio.mp3
AudioLeadIn: 0
PreviewTime: 36187
Countdown: 0
SampleSet: Soft
StackLeniency: 0.6
Mode: 0
LetterboxInBreaks: 0
WidescreenStoryboard: 1

[Editor]
DistanceSpacing: 1
BeatDivisor: 4
GridSize: 32
TimelineZoom: 1.1

[Metadata]
Title:Taste of home (TV Size)
TitleUnicode:Taste of home (TV Size)
Artist:Kugimiya Rie, Sawashiro Miyuki, Asumi Kana, Tanaka Rie
ArtistUnicode:釘宮理恵, 沢城みゆき, 阿澄佳奈, 田中理恵
Creator:Cami
Version:Normal
Source:戦乙女の食卓
Tags:Kiana kaslana Mei raiden Bronya zaychik Himeko Murata キアナ カスラナ 雷電 芽衣 ブローニャ ザイチク Броня Зайчик 無量塔 姫子 kagayaki honkai impact 3rd 崩壊3 cooking with valkyries 女武神的餐桌 anime opening japanese pop jpop j-pop Nu Wushen de Canzhuo Can Zhuo Nǚ Wǔ Shén de Cān Zhuō Valkyrie no Shokutaku mihoyo 陶典 Hanser 花玲 多多Poi Huā Hua Ling Tao Dian Táo Diǎn Duōduō duoduo Poi 崩壞3rd cover ブローニャ・ザイチク キアナ・カスラナ Duo Duō
BeatmapID:3581607
BeatmapSetID:1725250

[Difficulty]
HPDrainRate:4
CircleSize:3.5
OverallDifficulty:5
ApproachRate:6
SliderMultiplier:1.8
SliderTickRate:1

[Events]
//Background and Video events
0,0,"thumb-1920-1079615.jpg",0,0
Video,137,"video (1).mp4"
//Break Periods
//Storyboard Layer 0 (Background)
//Storyboard Layer 1 (Fail)
//Storyboard Layer 2 (Pass)
//Storyboard Layer 3 (Foreground)
//Storyboard Layer 4 (Overlay)
//Storyboard Sound Samples

[TimingPoints]
300,560.747663551402,4,2,1,50,1,0
300,-111.111111111111,4,2,1,50,0,0
9271,-90.9090909090909,4,2,1,70,0,1
17683,-100,4,2,1,70,0,0
18243,-100,4,2,1,60,0,0
27215,-111.111111111111,4,2,1,50,0,0
29458,-100,4,2,1,50,0,0
33944,-100,4,2,1,60,0,0
36187,-90.9090909090909,4,2,1,70,0,1
44599,-100,4,2,1,70,0,0
44739,-100,4,2,1,5,0,0

[Colours]
Combo1 : 240,184,252
Combo2 : 219,208,208
Combo3 : 196,253,234
Combo4 : 170,176,234

[HitObjects]
194,168,300,5,2,0:0:0:0:
194,168,860,1,2,0:0:0:0:
72,159,1281,2,0,P|34:213|50:277,1,121.499996292114,2|0,0:0|0:0,0:0:0:0:
38,354,1982,2,0,P|82:347|128:346,1,80.9999975280762,2|0,0:0|0:0,0:0:0:0:
193,296,2542,5,2,0:0:0:0:
193,296,3103,1,2,0:0:0:0:
310,360,3524,2,0,P|362:366|418:305,1,121.499996292114,2|0,0:0|0:0,0:0:0:0:
458,249,4225,1,2,0:0:0:0:
458,249,4785,6,0,L|435:159,1,80.9999975280762,2|0,0:0|0:0,0:0:0:0:
366,117,5346,2,0,P|353:163|346:212,1,80.9999975280762,2|0,0:0|0:0,0:0:0:0:
313,224,5767,2,0,B|265:232|265:232|241:218|241:218|183:229,1,121.499996292114,2|0,0:0|0:0,0:0:0:0:
127,282,6468,2,0,P|105:252|111:189,1,80.9999975280762,2|0,0:0|0:0,0:0:0:0:
58,131,7028,5,2,0:0:0:0:
104,54,7309,1,0,0:0:0:0:
171,112,7589,2,0,L|263:96,1,80.9999975280762,2|0,0:0|0:0,0:0:0:0:
282,66,8010,2,0,P|323:110|328:170,1,121.499996292114,2|0,0:0|0:0,0:0:0:0:
253,217,8711,1,2,0:0:0:0:
394,354,9271,6,0,B|439:374|439:374|483:334,1,99.0000030212403,6|0,1:2|0:0,0:0:0:0:
499,298,9692,1,0,1:0:0:0:
499,298,9832,2,0,L|514:181,1,99.0000030212403,10|0,0:0|1:0,0:0:0:0:
472,168,10253,2,0,P|511:115|473:21,1,148.50000453186,10|0,0:0|1:0,0:0:0:0:
400,5,10954,1,10,0:0:0:0:
333,77,11234,1,2,0:0:0:0:
242,36,11514,6,0,B|201:47|201:47|189:61|189:61|134:79,1,99.0000030212403,2|0,1:2|0:0,0:0:0:0:
112,99,11935,1,0,1:0:0:0:
112,99,12075,2,0,P|121:49|64:1,1,99.0000030212403,10|0,0:0|0:0,0:0:0:0:
45,18,12496,2,0,P|29:100|21:183,1,148.50000453186,10|0,0:0|1:0,0:0:0:0:
82,249,13197,1,10,0:0:0:0:
82,249,13757,5,2,1:2:0:0:
54,344,14038,2,0,P|27:348|1:340,2,49.5000015106202,2|0|10,0:0|1:0|0:0,0:0:0:0:
155,330,14599,1,2,1:2:0:0:
155,330,14739,2,0,P|193:295|304:330,1,148.50000453186,10|0,0:0|1:2,0:0:0:0:
367,359,15440,1,10,0:2:0:0:
452,308,15720,1,2,0:0:0:0:
372,248,16000,5,2,3:2:0:0:
436,172,16281,2,0,P|458:165|498:157,2,49.5000015106202,2|0|10,0:0|1:0|0:0,0:0:0:0:
345,145,16842,1,0,1:0:0:0:
345,145,16982,2,0,B|294:148|275:186|275:186|256:137|211:126,1,148.50000453186,10|2,0:0|1:2,0:0:0:0:
191,142,17542,1,0,1:0:0:0:
191,142,17683,1,14,0:0:0:0:
42,40,18243,6,0,P|1:78|0:115,2,90,2|0|2,1:2|0:0|1:2,0:0:0:0:
129,17,19085,1,4,0:3:0:0:
199,72,19365,2,0,P|204:99|209:125,2,45,2|0|0,1:2|0:0|0:0,0:0:0:0:
272,19,19926,2,0,P|316:11|363:45,1,90,2|4,1:2|0:3,0:0:0:0:
424,88,20486,5,2,1:2:0:0:
443,180,20767,1,2,0:0:0:0:
459,268,21047,2,0,P|417:296|367:284,1,90,4|2,0:3|0:0,0:0:0:0:
289,293,21608,6,0,B|245:285|245:285|197:323,1,90,2|0,1:2|0:0,0:0:0:0:
134,362,22169,1,2,1:2:0:0:
87,285,22449,1,2,0:0:0:0:
143,215,22729,6,0,L|241:199,1,90,2|0,1:2|0:0,0:0:0:0:
279,215,23150,1,4,0:3:0:0:
279,215,23290,2,0,P|291:247|299:276,2,45,2|0|4,1:2|0:0|0:3,0:0:0:0:
357,170,23851,5,2,1:2:0:0:
396,89,24131,1,2,0:0:0:0:
322,36,24412,1,2,1:2:0:0:
282,116,24692,1,4,0:3:0:0:
214,56,24972,6,0,P|175:48|128:86,1,90,2|0,1:2|0:0,0:0:0:0:
44,71,25533,2,0,L|29:10,2,45,2|0|4,1:2|0:0|0:3,0:0:0:0:
23,111,25954,6,0,B|-6:149|-6:149|20:242,1,135,2|2,0:0|0:0,0:0:0:0:
63,319,26655,1,2,1:2:0:0:
63,319,27215,6,0,P|110:304|212:366,1,161.999995056152,6|0,1:2|0:0,0:0:0:0:
288,337,28057,1,2,0:2:0:0:
288,337,28197,2,0,L|307:205,1,121.499996292114,2|0,1:2|0:0,0:0:0:0:
385,203,28898,1,2,0:0:0:0:
365,24,29458,6,0,P|400:12|454:20,1,90,2|0,1:2|0:0,0:0:0:0:
463,67,29879,1,0,1:0:0:0:
463,67,30019,2,0,P|503:103|510:140,1,90,10|0,0:0|0:0,0:0:0:0:
492,178,30440,1,2,1:2:0:0:
467,310,30860,2,0,P|469:334|473:359,2,45,2|0|8,0:0|1:0|0:0,0:0:0:0:
287,302,31701,6,0,P|262:307|240:315,1,45,2|0,1:2|0:0,0:0:0:0:
207,341,31982,1,2,0:0:0:0:
123,306,32262,2,0,L|66:315,2,45,2|0|0,1:2|0:0|1:0,0:0:0:0:
118,260,32683,2,0,P|143:223|113:136,1,135,2|0,0:0|0:0,0:0:0:0:
50,83,33384,1,2,1:2:0:0:
110,18,33664,1,0,3:0:0:0:
180,74,33944,6,0,P|228:85|272:62,1,90,2|0,1:2|1:0,0:0:0:0:
339,20,34505,1,2,1:2:0:0:
377,101,34785,1,2,1:2:0:0:
416,181,35066,2,0,P|366:142|290:208,1,180,2|2,1:2|0:0,0:0:0:0:
290,207,36187,6,0,B|306:162|306:162|269:104,1,99.0000030212403,6|0,1:2|0:0,0:0:0:0:
246,88,36608,1,0,1:2:0:0:
246,88,36748,2,0,L|132:108,1,99.0000030212403,10|0,0:0|1:0,0:0:0:0:
102,86,37169,2,0,P|149:146|126:223,1,148.50000453186,10|0,0:2|1:0,0:0:0:0:
46,257,37870,1,10,0:0:0:0:
16,351,38150,1,2,0:0:0:0:
113,332,38430,6,0,P|162:337|220:349,1,99.0000030212403,2|0,1:2|0:0,0:0:0:0:
254,320,38851,1,0,1:0:0:0:
254,320,38991,2,0,B|291:349|291:349|348:330,1,99.0000030212403,10|0,0:0|0:0,0:0:0:0:
381,360,39412,2,0,P|361:276|375:206,1,148.50000453186,10|0,0:0|1:0,0:0:0:0:
409,184,39972,1,0,1:0:0:0:
409,184,40113,1,10,0:0:0:0:
503,10,40673,5,2,1:2:0:0:
406,33,40954,2,0,P|374:30|349:19,1,49.5000015106202,2|0,0:0|1:0,0:0:0:0:
310,38,41234,1,10,0:0:0:0:
229,95,41514,1,2,1:2:0:0:
229,95,41655,2,0,B|192:61|192:61|128:56|93:115,1,148.50000453186,10|0,0:0|1:0,0:0:0:0:
47,178,42356,1,10,0:0:0:0:
127,234,42636,1,2,0:0:0:0:
73,317,42916,5,2,1:2:0:0:
163,358,43197,2,0,L|222:347,1,49.5000015106202,2|0,0:0|1:0,0:0:0:0:
257,368,43477,2,0,B|241:323|241:323|278:262,1,99.0000030212403,10|0,0:0|1:0,0:0:0:0:
306,248,43898,6,0,B|328:277|366:284|366:284|411:261|404:213,1,148.50000453186,2|0,0:0|1:0,0:0:0:0:
416,178,44458,1,0,1:0:0:0:
416,178,44599,1,6,1:2:0:0:
