osu file format v14

[General]
AudioFilename: audio.mp3
AudioLeadIn: 0
PreviewTime: 160586
Countdown: 0
SampleSet: Soft
StackLeniency: 0.7
Mode: 0
LetterboxInBreaks: 0
WidescreenStoryboard: 0

[Editor]
Bookmarks: 218443,230443
DistanceSpacing: 0.8
BeatDivisor: 4
GridSize: 32
TimelineZoom: 2.5

[Metadata]
Title:Orange
TitleUnicode:オレンジ
Artist:Kugimiya Rie, Horie Yui, Kitamura Eri
ArtistUnicode:釘宮理恵, 堀江由衣, 喜多村英梨
Creator:Yuuma
Version:Bittersweet
Source:とらドラ!
Tags:toradora! 逢坂大河 Aisaka Taiga 櫛枝実乃梨 kushieda minori 川嶋亜美 kawashima ami ed ending japanese anime jpop pop j-pop full ver version
BeatmapID:2911393
BeatmapSetID:1412334

[Difficulty]
HPDrainRate:5.5
CircleSize:4
OverallDifficulty:8
ApproachRate:8.3
SliderMultiplier:1.7
SliderTickRate:1

[Events]
//Background and Video events
0,0,"BG.jpg",0,0
//Break Periods
//Storyboard Layer 0 (Background)
//Storyboard Layer 1 (Fail)
//Storyboard Layer 2 (Pass)
//Storyboard Layer 3 (Foreground)
//Storyboard Layer 4 (Overlay)
//Storyboard Sound Samples

[TimingPoints]
729,428.571428571429,4,2,1,50,1,0
14014,-100,4,2,1,50,0,0
14443,-100,4,2,1,80,0,0
27514,-125,4,2,1,70,0,0
28157,-166.666666666667,4,2,1,60,0,0
34586,-100,4,2,1,60,0,0
35014,-166.666666666667,4,2,1,60,0,0
41871,-125,4,2,1,60,0,0
48300,-83.3333333333333,4,2,1,60,0,0
48729,-125,4,2,1,65,0,0
53871,-166.666666666667,4,2,1,50,0,0
55157,-83.3333333333333,4,2,1,60,0,0
55586,-111.111111111111,4,2,1,70,0,0
74443,-100,4,2,1,80,0,1
101871,-100,4,2,1,80,0,0
115586,-142.857142857143,4,2,1,60,0,0
129086,-83.3333333333334,4,2,1,60,0,0
129300,-125,4,2,1,60,0,0
135729,-83.3333333333333,4,2,1,60,0,0
136157,-125,4,2,1,60,0,0
143014,-111.111111111111,4,2,1,70,0,0
161871,-100,4,2,1,80,0,1
189300,-200,4,2,1,55,0,0
193586,-166.666666666667,4,2,1,55,0,0
194443,-142.857142857143,4,2,1,55,0,0
195300,-125,4,2,1,55,0,0
196157,-200,4,2,1,55,0,0
201300,-142.857142857143,4,2,1,55,0,0
203014,-111.111111111111,4,2,1,70,0,0
218443,-200,4,2,1,70,0,0
232157,-100,4,2,1,80,0,1
245871,-100,4,2,1,80,0,0
259586,-166.666666666667,4,2,1,60,0,0
266443,-166.666666666667,4,2,1,50,0,0
271586,-166.666666666667,4,2,1,40,0,0
272443,-333.333333333334,4,2,1,40,0,0

[Colours]
Combo1 : 202,65,53
Combo2 : 249,141,70
Combo3 : 5,37,190

[HitObjects]
256,192,9300,12,2,13800,0:0:0:0:
117,138,14014,6,0,L|120:181,3,42.5,2|2|2|2,0:0|0:0|0:0|0:0,0:0:0:0:
83,256,14443,6,0,P|156:254|170:247,1,85,6|0,3:2|0:0,0:0:0:0:
317,348,14871,2,0,P|278:285|265:277,1,85,8|0,0:0|0:0,0:0:0:0:
282,99,15300,2,0,P|247:163|246:178,1,85,2|0,3:2|0:0,0:0:0:0:
271,281,15729,1,10,0:0:0:0:
427,200,15943,6,0,P|385:191|338:173,1,85,2|0,0:0|3:0,0:0:0:0:
143,152,16371,2,0,P|185:143|232:125,1,85,2|8,0:0|0:0,0:0:0:0:
364,81,16800,2,0,P|389:91|413:93,2,42.5,2|2|2,0:0|0:0|3:2,0:0:0:0:
211,25,17229,1,2,0:0:0:0:
260,174,17443,1,2,3:2:0:0:
277,189,17550,1,2,3:2:0:0:
298,198,17657,1,2,3:2:0:0:
320,197,17764,1,2,3:2:0:0:
341,189,17871,6,0,P|342:231|329:271,1,85,6|0,3:2|0:0,0:0:0:0:
148,245,18300,2,0,P|145:203|161:164,1,85,8|0,0:0|0:0,0:0:0:0:
283,33,18729,1,2,3:2:0:0:
247,217,18943,1,2,0:0:0:0:
106,94,19157,1,10,0:0:0:0:
283,124,19371,6,0,L|378:106,1,85,2|0,0:0|3:0,0:0:0:0:
192,243,19800,2,0,L|287:225,1,85,2|8,0:0|0:0,0:0:0:0:
114,138,20229,2,0,L|209:120,1,85,2|0,0:0|3:0,0:0:0:0:
67,234,20657,1,2,0:0:0:0:
129,341,20871,1,10,3:2:0:0:
149,352,20979,1,2,3:2:0:0:
170,358,21086,1,2,3:2:0:0:
192,359,21193,1,2,3:2:0:0:
213,353,21300,6,0,P|246:297|245:261,1,85,6|0,3:2|0:0,0:0:0:0:
143,129,21729,2,0,P|174:185|206:202,1,85,8|0,0:0|0:0,0:0:0:0:
371,180,22157,2,0,P|306:179|275:198,1,85,0|0,3:2|0:0,0:0:0:0:
162,284,22586,1,10,0:0:0:0:
225,118,22800,6,0,P|237:58|237:28,1,85,2|0,0:0|3:0,0:0:0:0:
390,172,23229,2,0,P|378:112|378:82,1,85,2|8,0:0|0:0,0:0:0:0:
249,264,23657,2,0,P|261:204|261:174,1,85,2|0,0:0|3:0,0:0:0:0:
405,310,24086,1,2,0:0:0:0:
440,186,24300,1,10,0:0:0:0:
419,172,24407,1,2,3:2:0:0:
395,165,24514,1,2,3:2:0:0:
370,163,24621,1,2,3:2:0:0:
345,167,24729,6,0,P|272:177|236:187,1,85,6|0,3:2|0:0,0:0:0:0:
162,275,25157,2,0,P|119:270|78:262,1,85,10|0,0:0|0:0,0:0:0:0:
154,114,25586,1,2,3:2:0:0:
259,274,25800,1,2,0:0:0:0:
100,184,26014,1,10,0:0:0:0:
253,74,26229,1,2,0:0:0:0:
162,275,26443,5,4,0:0:0:0:
120,59,26657,1,10,0:0:0:0:
252,245,26871,5,8,0:0:0:0:
291,19,27086,1,10,0:0:0:0:
349,253,27300,5,8,0:0:0:0:
229,135,27514,2,0,P|152:147|78:180,1,136,6|0,0:0|0:0,0:0:0:0:
28,230,28157,5,6,3:2:0:0:
28,230,28586,6,0,L|21:290,2,50.9999984436036,2|2|2,0:0|0:0|0:0,0:0:0:0:
116,211,29229,2,0,L|106:329,1,101.999996887207,2|0,0:0|0:0,0:0:0:0:
254,345,29871,6,0,P|291:354|319:351,2,50.9999984436036,6|2|2,0:0|0:0|0:0,0:0:0:0:
250,252,30514,2,0,P|305:252|355:279,1,101.999996887207,2|0,0:0|0:0,0:0:0:0:
426,315,31157,5,2,0:0:0:0:
427,289,31264,1,2,0:0:0:0:
429,264,31371,1,2,0:0:0:0:
430,238,31479,1,2,0:0:0:0:
432,213,31586,1,2,0:0:0:0:
239,43,32014,6,0,P|265:37|291:26,2,50.9999984436036,2|2|2,0:0|0:0|0:0,0:0:0:0:
172,117,32657,2,0,P|235:124|281:144,1,101.999996887207,2|2,0:0|0:0,0:0:0:0:
346,272,33300,5,2,0:0:0:0:
346,272,33514,2,0,P|348:231|351:215,1,50.9999984436036,2|0,0:0|0:0,0:0:0:0:
249,316,33943,2,0,P|241:253|228:198,1,101.999996887207,2|0,0:0|0:0,0:0:0:0:
355,360,34586,2,0,P|360:293|365:272,1,85,2|0,0:0|0:0,0:0:0:0:
416,130,35014,5,2,0:0:0:0:
416,130,35443,2,0,B|394:139|394:139|367:134,2,50.9999984436036,2|2|2,0:0|0:0|0:0,0:0:0:0:
450,203,36086,2,0,B|401:221|401:221|352:211,1,101.999996887207,2|0,0:0|0:0,0:0:0:0:
238,132,36729,6,0,P|238:106|246:82,2,50.9999984436036,2|2|2,0:0|0:0|0:0,0:0:0:0:
149,137,37371,2,0,P|149:89|173:38,1,101.999996887207,2|0,0:0|0:0,0:0:0:0:
286,10,38014,5,2,0:0:0:0:
298,12,38121,1,2,0:0:0:0:
311,14,38229,1,2,0:0:0:0:
323,16,38336,1,2,0:0:0:0:
336,18,38443,1,2,0:0:0:0:
450,203,38871,6,0,P|461:244|460:269,2,50.9999984436036,2|2|2,0:0|0:0|0:0,0:0:0:0:
376,250,39514,2,0,P|328:277|262:271,1,101.999996887207,2|0,0:0|0:0,0:0:0:0:
179,236,40157,5,2,0:0:0:0:
179,236,40586,1,2,0:0:0:0:
179,236,41014,1,2,0:0:0:0:
179,236,41443,1,2,0:0:0:0:
285,47,41871,5,6,3:2:0:0:
376,250,42300,2,0,P|385:206|385:181,1,68,10|2,0:0|0:0,0:0:0:0:
274,199,42729,1,2,3:2:0:0:
300,336,42943,1,2,0:0:0:0:
300,336,43157,2,0,P|352:322|394:323,1,68,8|0,0:0|0:0,0:0:0:0:
205,260,43586,6,0,P|153:246|111:247,1,68,2|2,3:2|0:0,0:0:0:0:
222,155,44014,1,10,0:0:0:0:
102,81,44229,1,2,0:0:0:0:
102,81,44443,2,0,L|93:162,1,68,2|2,3:2|0:0,0:0:0:0:
222,155,44871,6,0,L|265:147,1,34,10|2,0:0|0:0,0:0:0:0:
335,184,45086,2,0,L|378:176,1,34,2|2,0:0|0:0,0:0:0:0:
444,124,45300,6,0,P|450:86|445:52,1,68,6|0,3:2|0:0,0:0:0:0:
261,16,45729,1,10,0:0:0:0:
361,89,45943,1,2,0:0:0:0:
205,125,46157,1,2,3:2:0:0:
361,89,46371,2,0,L|356:175,1,68,2|8,0:0|0:0,0:0:0:0:
348,258,46800,1,2,0:0:0:0:
218,158,47014,5,2,3:2:0:0:
218,158,47229,2,0,P|168:164|135:182,1,68,2|8,0:0|0:0,0:0:0:0:
74,277,47657,1,2,0:0:0:0:
198,322,47871,2,0,P|207:277|201:232,1,68,2|2,3:2|0:0,0:0:0:0:
68,127,48300,2,0,P|60:233|63:243,1,101.999996887207,8|0,0:0|0:0,0:0:0:0:
198,322,48729,6,0,L|271:311,1,68,6|0,3:2|0:0,0:0:0:0:
378,174,49157,1,10,0:0:0:0:
405,335,49371,1,2,0:0:0:0:
257,195,49586,1,2,3:2:0:0:
279,357,49800,1,2,0:0:0:0:
378,174,50014,2,0,P|392:221|399:263,1,68,8|0,0:0|0:0,0:0:0:0:
218,287,50443,5,2,3:2:0:0:
237,100,50657,1,2,0:0:0:0:
115,246,50871,1,10,0:0:0:0:
92,62,51086,1,2,0:0:0:0:
196,190,51300,2,0,P|229:196|262:193,1,68,2|2,3:2|0:0,0:0:0:0:
432,130,51729,6,0,L|440:81,1,34,10|2,0:0|0:0,0:0:0:0:
324,54,51943,2,0,L|332:117,1,34,2|2,0:0|0:0,0:0:0:0:
415,236,52157,6,0,P|381:242|348:239,1,68,6|0,3:2|0:0,0:0:0:0:
237,100,52586,1,10,0:0:0:0:
373,156,52800,1,2,0:0:0:0:
165,202,53014,1,2,3:2:0:0:
326,82,53229,1,2,0:0:0:0:
281,281,53443,1,8,0:0:0:0:
151,115,53657,1,0,0:0:0:0:
187,333,53871,5,2,0:0:0:0:
151,115,54300,5,2,0:0:0:0:
252,208,54514,2,0,L|272:204,4,12.7499996109009,2|2|2|2|2,0:0|0:0|0:0|0:0|0:0,0:0:0:0:
57,245,55157,5,2,0:0:0:0:
57,245,55371,2,0,L|6:254,1,50.9999984436036,2|2,0:0|0:0,0:0:0:0:
187,333,55586,6,0,B|200:293|200:293|193:259,1,76.4999976654053,6|0,3:2|0:0,0:0:0:0:
154,61,56014,1,10,0:0:0:0:
83,186,56229,2,0,P|121:183|156:170,1,76.4999976654053,2|2,0:0|3:2,0:0:0:0:
270,95,56657,2,0,P|305:81|343:79,1,76.4999976654053,2|8,0:0|0:0,0:0:0:0:
341,258,57086,6,0,L|327:171,1,76.4999976654053,2|0,0:0|3:0,0:0:0:0:
483,123,57514,2,0,L|470:198,1,76.4999976654053,2|8,0:0|0:0,0:0:0:0:
440,349,57943,1,2,0:0:0:0:
328,182,58157,2,0,P|276:188|245:206,1,76.4999976654053,2|2,3:2|0:0,0:0:0:0:
327,346,58586,1,10,0:0:0:0:
470,198,58800,1,10,0:0:0:0:
440,349,59014,5,6,3:2:0:0:
164,243,59443,1,10,0:0:0:0:
328,182,59657,1,2,0:0:0:0:
254,349,59871,1,2,3:2:0:0:
254,349,60086,2,0,P|246:311|244:273,1,76.4999976654053,2|8,0:0|0:0,0:0:0:0:
318,106,60514,6,0,P|325:143|327:181,1,76.4999976654053,2|0,0:0|3:0,0:0:0:0:
141,230,60943,2,0,P|133:192|131:154,1,76.4999976654053,2|8,0:0|0:0,0:0:0:0:
224,20,61371,2,0,P|231:57|233:95,1,76.4999976654053,2|2,0:0|3:2,0:0:0:0:
38,213,61800,1,2,0:0:0:0:
34,55,62014,2,0,L|110:62,1,76.4999976654053,10|2,0:0|0:0,0:0:0:0:
233,95,62443,6,0,L|319:86,1,76.4999976654053,6|0,3:2|0:0,0:0:0:0:
451,173,62871,2,0,P|459:222|452:263,1,76.4999976654053,10|0,0:0|0:0,0:0:0:0:
383,340,63300,1,2,3:2:0:0:
284,209,63514,2,0,P|348:212|377:224,1,76.4999976654053,2|8,0:0|0:0,0:0:0:0:
245,353,63943,6,0,P|181:350|152:338,1,76.4999976654053,2|0,0:0|3:2,0:0:0:0:
47,321,64371,2,0,P|81:267|106:247,1,76.4999976654053,2|8,0:0|0:0,0:0:0:0:
173,165,64800,1,2,0:0:0:0:
173,165,65014,2,0,P|202:221|206:253,1,76.4999976654053,0|0,3:0|0:0,0:0:0:0:
63,98,65443,1,10,0:0:0:0:
245,63,65657,1,2,0:0:0:0:
90,259,65871,6,0,L|101:161,1,76.4999976654053,6|0,3:2|0:0,0:0:0:0:
245,63,66300,2,0,L|253:139,1,76.4999976654053,10|0,0:0|0:0,0:0:0:0:
215,275,66729,1,2,3:2:0:0:
372,112,66943,1,2,0:0:0:0:
372,112,67157,2,0,L|380:188,1,76.4999976654053,10|2,0:0|0:0,0:0:0:0:
391,323,67586,6,0,P|332:306|312:306,1,76.4999976654053,2|0,3:2|0:0,0:0:0:0:
162,204,68014,2,0,P|221:187|241:187,1,76.4999976654053,10|0,0:0|0:0,0:0:0:0:
398,346,68443,2,0,P|339:329|319:329,1,76.4999976654053,2|0,3:2|0:0,0:0:0:0:
141,292,68871,2,0,P|178:288|214:274,1,76.4999976654053,10|0,0:0|0:0,0:0:0:0:
314,152,69300,6,0,P|319:114|313:76,1,76.4999976654053,2|0,3:2|0:0,0:0:0:0:
143,80,69729,2,0,P|137:117|143:155,1,76.4999976654053,10|0,0:0|0:0,0:0:0:0:
240,273,70157,1,2,3:2:0:0:
232,123,70371,1,2,0:0:0:0:
81,144,70586,2,0,L|-3:158,1,76.4999976654053,10|0,0:0|0:0,0:0:0:0:
91,303,71014,6,0,P|128:294|162:277,1,76.4999976654053,2|0,3:2|0:0,0:0:0:0:
232,123,71443,2,0,P|221:159|218:197,1,76.4999976654053,10|0,0:0|0:0,0:0:0:0:
317,335,71871,2,0,P|290:307|259:285,1,76.4999976654053,2|0,3:2|0:0,0:0:0:0:
105,217,72300,1,10,0:0:0:0:
312,181,72514,1,2,0:0:0:0:
233,369,72729,5,14,0:0:0:0:
191,115,72943,1,14,0:0:0:0:
433,39,74443,6,0,P|446:80|441:132,1,85,6|0,3:2|0:0,0:0:0:0:
403,273,74871,1,10,0:0:0:0:
320,99,75086,2,0,L|203:112,1,85,2|0,0:0|3:0,0:0:0:0:
261,288,75514,5,2,0:0:0:0:
140,141,75729,1,10,0:0:0:0:
82,319,75943,2,0,L|166:309,1,85,2|0,0:0|3:0,0:0:0:0:
288,158,76371,5,2,0:0:0:0:
254,347,76586,1,10,0:0:0:0:
199,130,76800,1,2,0:0:0:0:
383,302,77014,5,2,3:2:0:0:
431,114,77229,1,2,0:0:0:0:
292,263,77443,1,10,0:0:0:0:
268,52,77657,1,2,0:0:0:0:
254,347,77871,6,0,P|197:335|160:311,1,85,2|2,3:2|0:0,0:0:0:0:
202,151,78300,1,10,0:0:0:0:
202,151,78514,2,0,B|297:137|274:216|375:194,1,170,2|2,0:0|0:0,0:0:0:0:
216,242,79157,1,10,0:0:0:0:
348,110,79371,6,0,L|337:19,1,85,2|0,0:0|3:0,0:0:0:0:
206,84,79800,1,2,0:0:0:0:
359,196,80014,1,10,0:0:0:0:
172,259,80229,1,2,0:0:0:0:
359,196,80443,2,0,P|373:264|369:289,1,85,0|0,3:0|0:0,0:0:0:0:
184,341,80871,2,0,P|170:273|174:248,1,85,8|0,0:0|0:0,0:0:0:0:
279,108,81300,5,6,3:2:0:0:
259,285,81514,1,2,0:0:0:0:
119,174,81729,1,10,0:0:0:0:
279,108,81943,2,0,L|380:124,1,85,2|0,0:0|3:0,0:0:0:0:
182,238,82371,5,2,0:0:0:0:
189,49,82586,1,10,0:0:0:0:
362,121,82800,2,0,L|380:225,1,85,2|0,0:0|3:0,0:0:0:0:
251,151,83229,5,2,0:0:0:0:
280,327,83443,1,10,0:0:0:0:
456,298,83657,1,2,0:0:0:0:
427,122,83871,1,2,3:2:0:0:
358,230,84086,1,2,0:0:0:0:
358,230,84300,2,0,P|298:244|263:245,1,85,10|2,0:0|0:0,0:0:0:0:
175,120,84729,5,2,3:2:0:0:
152,318,84943,1,2,0:0:0:0:
289,138,85157,1,10,0:0:0:0:
293,340,85371,2,0,P|335:336|376:324,1,85,2|0,0:0|3:0,0:0:0:0:
222,223,85800,1,2,0:0:0:0:
139,280,86014,2,0,P|124:223|134:184,1,85,8|2,0:0|0:0,0:0:0:0:
292,89,86443,5,6,0:0:0:0:
270,343,86657,1,6,0:0:0:0:
292,89,87086,2,0,L|294:58,4,21.25,6|2|2|2|2,0:0|0:0|0:0|0:0|0:0,0:0:0:0:
337,250,87514,5,6,0:0:0:0:
148,93,87729,2,0,P|80:108|54:120,1,85,10|0,0:0|0:0,0:0:0:0:
144,273,88157,5,6,3:2:0:0:
328,184,88371,1,2,0:0:0:0:
243,354,88586,1,10,0:0:0:0:
213,153,88800,2,0,L|226:252,1,85,2|0,0:0|3:0,0:0:0:0:
377,335,89229,5,2,0:0:0:0:
406,144,89443,1,10,0:0:0:0:
377,335,89657,2,0,L|286:318,1,85,2|0,0:0|3:0,0:0:0:0:
103,229,90086,5,2,0:0:0:0:
300,185,90300,1,10,0:0:0:0:
97,329,90514,1,2,0:0:0:0:
244,136,90729,5,2,3:2:0:0:
266,351,90943,1,2,0:0:0:0:
408,144,91157,1,10,0:0:0:0:
430,364,91371,1,2,0:0:0:0:
408,144,91586,6,0,P|401:83|385:56,1,85,2|2,3:2|0:0,0:0:0:0:
266,211,92014,1,10,0:0:0:0:
386,310,92229,2,0,L|468:289,1,85,2|0,0:0|3:0,0:0:0:0:
306,126,92657,5,2,0:0:0:0:
244,309,92871,1,10,0:0:0:0:
244,309,93086,2,0,L|326:288,1,85,2|0,0:0|3:0,0:0:0:0:
164,125,93514,5,2,0:0:0:0:
101,307,93729,1,10,0:0:0:0:
257,208,93943,1,2,0:0:0:0:
79,68,94157,2,0,P|62:129|68:167,1,85,0|0,3:0|0:0,0:0:0:0:
101,307,94586,2,0,L|183:286,1,85,8|0,0:0|0:0,0:0:0:0:
338,157,95014,5,2,3:2:0:0:
164,125,95229,1,2,0:0:0:0:
346,260,95443,1,10,0:0:0:0:
243,74,95657,2,0,L|253:193,1,85,2|0,0:0|3:0,0:0:0:0:
264,310,96086,5,2,0:0:0:0:
143,174,96300,1,10,0:0:0:0:
82,360,96514,2,0,P|156:342|174:332,1,85,2|0,0:0|3:0,0:0:0:0:
298,213,96943,5,2,0:0:0:0:
98,260,97157,1,10,0:0:0:0:
304,221,97371,1,2,0:0:0:0:
125,91,97586,2,0,P|141:160|143:185,1,85,2|2,3:2|0:0,0:0:0:0:
209,356,98014,2,0,P|214:313|226:273,1,85,10|2,0:0|0:0,0:0:0:0:
401,153,98443,6,0,P|370:95|266:112,1,170,6|10,3:2|0:0,0:0:0:0:
316,300,99086,2,0,L|410:286,1,85,2|0,0:0|3:0,0:0:0:0:
224,175,99514,2,0,L|130:161,1,85,2|8,0:0|0:0,0:0:0:0:
87,332,99943,1,2,0:0:0:0:
226,273,100157,5,0,3:2:0:0:
49,203,100371,1,0,0:0:0:0:
208,93,100586,2,0,P|223:154|224:198,1,85,8|0,0:0|0:0,0:0:0:0:
163,362,101014,6,0,L|174:310,1,42.5,2|2,3:2|3:2,0:0:0:0:
330,141,101229,2,0,L|338:193,1,42.5,2|2,3:2|3:2,0:0:0:0:
369,347,101443,1,10,3:2:0:0:
369,347,101550,1,2,3:2:0:0:
369,347,101657,1,2,3:2:0:0:
369,347,101764,1,2,3:2:0:0:
369,347,101871,6,0,P|325:368|277:366,1,85,6|0,3:2|0:0,0:0:0:0:
167,317,102300,1,8,0:0:0:0:
286,200,102514,1,2,0:0:0:0:
286,200,102729,2,0,P|307:268|303:313,1,85,0|0,3:0|0:0,0:0:0:0:
143,218,103157,2,0,P|147:175|164:136,1,85,8|2,0:0|0:0,0:0:0:0:
300,37,103586,6,0,L|206:23,1,85,0|2,3:0|0:0,0:0:0:0:
286,200,104014,2,0,L|370:187,1,85,8|2,0:0|0:0,0:0:0:0:
492,71,104443,5,2,3:2:0:0:
473,256,104657,1,2,0:0:0:0:
365,88,104871,2,0,L|371:136,1,42.5,10|0,3:2|3:0,0:0:0:0:
387,302,105086,2,0,L|336:288,1,42.5,2|0,3:2|3:0,0:0:0:0:
227,207,105300,6,0,P|187:192|144:192,1,85,6|0,3:2|0:0,0:0:0:0:
168,345,105729,1,8,0:0:0:0:
314,329,105943,1,2,0:0:0:0:
314,329,106157,2,0,L|325:228,1,85,0|0,3:0|0:0,0:0:0:0:
177,108,106586,2,0,L|187:213,1,85,8|2,0:0|0:0,0:0:0:0:
378,154,107014,6,0,P|323:140|286:147,1,85,0|2,3:0|0:0,0:0:0:0:
157,285,107443,2,0,P|199:288|239:274,1,85,8|2,0:0|0:0,0:0:0:0:
177,108,107871,5,2,3:2:0:0:
177,108,107979,1,0,3:0:0:0:
177,108,108086,1,2,3:2:0:0:
323,242,108300,2,0,L|373:235,1,42.5,10|0,3:2|3:0,0:0:0:0:
389,62,108514,2,0,L|346:67,1,42.5,2|0,3:2|3:0,0:0:0:0:
246,190,108729,6,0,P|239:250|239:287,1,85,6|0,3:2|0:0,0:0:0:0:
153,71,109157,1,8,0:0:0:0:
98,209,109371,1,2,0:0:0:0:
98,209,109586,2,0,L|13:200,1,85,0|0,3:0|0:0,0:0:0:0:
158,338,110014,2,0,L|242:329,1,85,8|2,0:0|0:0,0:0:0:0:
395,151,110443,6,0,P|407:201|399:241,1,85,0|2,3:0|0:0,0:0:0:0:
247,243,110871,2,0,P|235:193|243:153,1,85,8|2,0:0|0:0,0:0:0:0:
305,13,111300,5,2,3:2:0:0:
322,197,111514,1,2,0:0:0:0:
185,39,111729,2,0,L|175:105,1,42.5,10|0,3:2|3:0,0:0:0:0:
156,250,111943,2,0,L|200:213,1,42.5,2|0,3:2|3:0,0:0:0:0:
335,105,112157,6,0,P|394:117|420:134,1,85,6|0,3:2|0:0,0:0:0:0:
318,291,112586,1,8,0:0:0:0:
228,142,112800,1,2,0:0:0:0:
228,142,113014,2,0,P|179:169|154:206,1,85,0|0,3:0|0:0,0:0:0:0:
153,378,113443,2,0,L|163:281,1,85,8|2,0:0|0:0,0:0:0:0:
50,163,113871,6,0,L|58:247,1,85,0|2,3:0|0:0,0:0:0:0:
250,338,114300,2,0,L|260:241,1,85,8|2,0:0|0:0,0:0:0:0:
139,92,114729,1,0,3:0:0:0:
161,293,114943,1,2,0:0:0:0:
161,293,115050,1,8,0:0:0:0:
161,293,115157,1,8,0:0:0:0:
325,179,115371,1,10,0:0:0:0:
206,186,115586,5,6,0:0:0:0:
206,186,116014,6,0,L|136:190,1,59.4999981842042,2|2,3:2|0:0,0:0:0:0:
183,288,116443,2,0,L|242:284,1,59.4999981842042,2|2,0:0|0:0,0:0:0:0:
325,179,116871,1,0,3:2:0:0:
368,311,117086,1,0,0:0:0:0:
325,179,117300,6,0,P|318:139|320:115,1,59.4999981842042,2|2,0:0|0:0,0:0:0:0:
432,111,117729,2,0,P|439:151|437:175,1,59.4999981842042,2|2,3:2|0:0,0:0:0:0:
426,305,118157,2,0,P|386:312|362:310,1,59.4999981842042
213,193,118586,5,2,3:2:0:0:
238,178,118693,1,2,0:0:0:0:
267,170,118800,1,2,0:0:0:0:
297,171,118907,1,2,0:0:0:0:
325,179,119014,2,0,L|334:259,1,59.4999981842042,2|0,0:0|0:0,0:0:0:0:
230,339,119443,6,0,L|223:279,1,59.4999981842042,2|2,3:2|0:0,0:0:0:0:
114,214,119871,2,0,L|120:154,1,59.4999981842042,2|2,0:0|0:0,0:0:0:0:
186,61,120300,1,0,3:0:0:0:
213,193,120514,1,2,0:0:0:0:
186,61,120729,5,2,0:0:0:0:
302,100,120943,2,0,P|350:117|369:119,1,59.4999981842042,2|0,0:0|3:0,0:0:0:0:
213,193,121371,2,0,P|165:210|146:212,1,59.4999981842042,2|0,0:0|0:0,0:0:0:0:
332,232,121800,2,0,P|363:242|372:242,2,29.7499990921021,2|2|2,0:0|0:0|3:2,0:0:0:0:
213,193,122229,1,2,0:0:0:0:
229,367,122443,2,0,L|240:291,1,59.4999981842042,2|0,0:0|0:0,0:0:0:0:
359,241,122871,6,0,L|348:165,2,59.4999981842042,2|2|2,3:2|0:0|0:0,0:0:0:0:
401,347,123514,1,2,0:0:0:0:
461,223,123729,1,0,3:0:0:0:
401,347,123943,1,0,0:0:0:0:
350,182,124157,6,0,P|297:188|283:196,1,59.4999981842042,2|2,0:0|0:0,0:0:0:0:
237,308,124586,2,0,P|208:317|179:316,1,59.4999981842042,2|2,3:2|0:0,0:0:0:0:
61,266,125014,2,0,L|67:206,1,59.4999981842042
186,124,125443,5,2,3:2:0:0:
187,138,125550,1,2,0:0:0:0:
189,153,125657,1,2,0:0:0:0:
191,168,125764,1,2,0:0:0:0:
192,183,125871,2,0,L|198:243,1,59.4999981842042,2|0,0:0|0:0,0:0:0:0:
365,292,126300,6,0,P|318:298|289:313,2,59.4999981842042,2|2|2,3:2|0:0|0:0,0:0:0:0:
478,311,126943,1,2,0:0:0:0:
499,191,127157,1,0,3:0:0:0:
478,311,127371,1,0,0:0:0:0:
378,172,127586,6,0,P|355:116|377:41,2,118.999996368408,2|2|2,0:0|3:2|0:0,0:0:0:0:
378,172,128871,5,2,0:0:0:0:
444,107,129086,2,0,L|498:101,1,50.9999984436036,2|2,0:0|0:0,0:0:0:0:
433,251,129300,6,0,P|400:259|366:264,1,68,6|0,3:2|0:0,0:0:0:0:
188,133,129729,2,0,P|242:116|283:117,1,68,10|2,0:0|0:0,0:0:0:0:
378,172,130157,1,2,3:2:0:0:
252,266,130371,1,2,0:0:0:0:
252,266,130586,2,0,L|242:194,1,68,8|0,0:0|0:0,0:0:0:0:
104,85,131014,6,0,L|93:169,1,68,2|2,3:2|0:0,0:0:0:0:
86,261,131443,1,10,0:0:0:0:
188,133,131657,1,2,0:0:0:0:
194,308,131871,2,0,P|153:330|120:338,1,68,2|0,3:2|0:0,0:0:0:0:
271,207,132300,6,0,P|301:213|310:217,1,34,10|2,0:0|0:0,0:0:0:0:
392,190,132514,2,0,P|406:229|406:240,1,34,2|2,0:0|0:0,0:0:0:0:
477,282,132729,6,0,P|430:311|395:316,1,68,2|0,3:2|0:0,0:0:0:0:
265,290,133157,1,10,0:0:0:0:
311,131,133371,1,2,0:0:0:0:
354,256,133586,1,2,3:2:0:0:
205,126,133800,2,0,P|194:176|186:206,1,68,0|8,0:0|0:0,0:0:0:0:
155,308,134229,1,2,0:0:0:0:
36,161,134443,5,2,3:2:0:0:
36,161,134657,2,0,P|123:135|132:134,1,68,2|8,0:0|0:0,0:0:0:0:
238,182,135086,1,2,0:0:0:0:
155,308,135300,2,0,P|143:261|145:231,1,68,2|0,3:2|0:0,0:0:0:0:
343,123,135729,2,0,P|353:183|345:230,1,101.999996887207,10|0,0:0|0:0,0:0:0:0:
222,315,136157,6,0,L|143:306,1,68,6|0,3:2|0:0,0:0:0:0:
238,182,136586,1,10,0:0:0:0:
320,322,136800,1,2,0:0:0:0:
171,266,137014,1,2,3:2:0:0:
343,185,137229,1,2,0:0:0:0:
187,107,137443,2,0,P|125:120|109:131,1,68,8|0,0:0|0:0,0:0:0:0:
269,260,137871,5,2,3:2:0:0:
305,78,138086,1,2,0:0:0:0:
182,228,138300,1,10,0:0:0:0:
155,37,138514,1,2,0:0:0:0:
309,175,138729,2,0,P|358:189|392:191,1,68,0|0,3:0|0:0,0:0:0:0:
270,49,139157,6,0,P|249:54|227:65,1,34,10|2,0:0|0:0,0:0:0:0:
128,101,139371,2,0,P|125:123|131:148,1,34,2|2,0:0|0:0,0:0:0:0:
158,235,139586,6,0,P|191:246|230:245,1,68,2|0,3:2|0:0,0:0:0:0:
385,107,140014,1,10,0:0:0:0:
394,284,140229,1,2,0:0:0:0:
285,154,140443,1,2,3:2:0:0:
449,199,140657,1,2,0:0:0:0:
291,258,140871,2,0,L|211:244,1,68,8|0,0:0|0:0,0:0:0:0:
74,134,141300,6,0,P|70:167|61:200,1,68,2|0,3:2|0:0,0:0:0:0:
220,80,141729,2,0,P|223:113|232:146,1,68,10|0,0:0|0:0,0:0:0:0:
132,315,142157,2,0,P|140:282|144:248,1,68,2|0,3:2|0:0,0:0:0:0:
108,49,142586,1,2,0:1:0:0:
411,82,143014,6,0,L|419:171,1,76.4999976654053,6|0,3:2|0:0,0:0:0:0:
241,295,143443,1,10,0:0:0:0:
311,132,143657,1,2,0:0:0:0:
347,330,143871,1,2,3:2:0:0:
311,132,144086,2,0,P|256:108|223:110,1,76.4999976654053,2|8,0:0|0:0,0:0:0:0:
94,45,144514,6,0,P|100:104|118:132,1,76.4999976654053,2|0,0:0|3:0,0:0:0:0:
128,276,144943,2,0,P|176:240|191:210,1,76.4999976654053,2|8,0:0|0:0,0:0:0:0:
240,107,145371,1,2,0:0:0:0:
94,45,145586,2,0,L|-7:68,1,76.4999976654053,2|2,3:2|0:0,0:0:0:0:
110,191,146014,1,10,0:0:0:0:
190,23,146229,1,2,0:0:0:0:
242,218,146443,5,2,3:2:0:0:
463,38,146871,1,10,0:0:0:0:
463,38,147086,2,0,P|414:42|379:52,1,76.4999976654053,2|0,0:0|3:0,0:0:0:0:
269,103,147514,1,2,0:0:0:0:
446,174,147729,1,8,0:0:0:0:
269,103,147943,6,0,P|282:175|279:194,1,76.4999976654053,2|0,0:0|3:0,0:0:0:0:
113,300,148371,2,0,P|100:228|103:209,1,76.4999976654053,2|8,0:0|0:0,0:0:0:0:
179,75,148800,1,2,0:0:0:0:
202,244,149014,1,0,3:2:0:0:
73,106,149229,1,2,0:0:0:0:
202,244,149443,2,0,L|284:231,1,76.4999976654053,10|2,0:0|0:0,0:0:0:0:
391,103,149871,6,0,L|309:90,1,76.4999976654053,6|0,3:2|0:0,0:0:0:0:
386,272,150300,1,8,0:0:0:0:
231,148,150514,1,2,0:0:0:0:
433,194,150729,1,2,3:2:0:0:
290,275,150943,6,0,P|221:292|207:290,1,76.4999976654053,2|8,0:0|0:0,0:0:0:0:
115,194,151371,2,0,P|134:125|143:114,1,76.4999976654053,2|0,0:0|3:0,0:0:0:0:
278,90,151800,2,0,P|327:141|332:154,1,76.4999976654053,2|8,0:0|0:0,0:0:0:0:
229,187,152229,1,2,0:0:0:0:
229,187,152443,2,0,L|147:173,1,76.4999976654053,0|0,3:0|0:0,0:0:0:0:
174,287,152871,5,10,0:0:0:0:
212,79,153086,1,2,0:0:0:0:
372,221,153300,6,0,L|455:205,1,76.4999976654053,6|0,3:2|0:0,0:0:0:0:
454,56,153729,2,0,L|378:70,1,76.4999976654053,8|0,0:0|0:0,0:0:0:0:
246,191,154157,1,0,3:0:0:0:
143,10,154371,1,2,0:0:0:0:
143,10,154586,2,0,P|119:58|117:101,1,76.4999976654053,10|2,0:0|0:0,0:0:0:0:
104,276,155014,6,0,P|142:276|178:264,1,76.4999976654053,2|0,0:2|0:0,0:0:0:0:
273,121,155443,2,0,P|253:153|245:190,1,76.4999976654053,10|0,0:0|0:0,0:0:0:0:
322,344,155871,2,0,P|303:310|275:285,1,76.4999976654053,2|0,3:2|0:0,0:0:0:0:
133,182,156300,2,0,L|142:266,1,76.4999976654053,10|0,0:0|0:0,0:0:0:0:
336,185,156729,6,0,L|344:108,1,76.4999976654053,2|0,3:2|0:0,0:0:0:0:
143,10,157157,2,0,L|152:94,1,76.4999976654053,10|0,0:0|0:0,0:0:0:0:
240,210,157586,1,2,3:2:0:0:
260,43,157800,1,2,0:0:0:0:
105,103,158014,2,0,P|91:152|86:191,1,76.4999976654053,10|0,0:0|0:0,0:0:0:0:
177,324,158443,6,0,P|214:318|251:308,1,76.4999976654053,2|0,3:2|0:0,0:0:0:0:
294,118,158871,2,0,P|256:123|219:133,1,76.4999976654053,8|0,0:0|0:0,0:0:0:0:
348,324,159300,2,0,P|385:318|422:308,1,76.4999976654053,2|0,3:2|0:0,0:0:0:0:
276,220,159729,1,10,0:0:0:0:
470,162,159943,1,2,0:0:0:0:
348,324,160157,5,14,0:0:0:0:
304,92,160371,1,14,0:0:0:0:
142,73,161871,6,0,P|71:51|47:48,1,85,6|0,3:2|0:0,0:0:0:0:
67,207,162300,1,10,0:0:0:0:
213,144,162514,2,0,P|273:126|300:125,1,85,2|0,0:0|3:0,0:0:0:0:
179,288,162943,5,2,0:0:0:0:
142,73,163157,1,10,0:0:0:0:
278,219,163371,2,0,P|325:233|379:236,1,85,2|0,0:0|3:0,0:0:0:0:
457,112,163800,5,2,0:0:0:0:
413,308,164014,1,10,0:0:0:0:
294,124,164229,1,2,0:0:0:0:
465,220,164443,5,2,3:2:0:0:
437,22,164657,1,2,0:0:0:0:
344,231,164871,1,10,0:0:0:0:
316,24,165086,1,0,0:0:0:0:
222,156,165300,6,0,P|236:95|251:69,1,85,2|2,3:2|0:0,0:0:0:0:
344,231,165729,1,10,0:0:0:0:
216,307,165943,2,0,P|169:317|131:315,1,85,2|0,0:0|3:0,0:0:0:0:
222,156,166371,5,2,0:0:0:0:
310,331,166586,1,10,0:0:0:0:
418,170,166800,2,0,P|429:110|425:71,1,85,2|0,0:0|3:0,0:0:0:0:
319,223,167229,5,2,0:0:0:0:
224,40,167443,1,10,0:0:0:0:
340,118,167657,1,2,0:0:0:0:
201,200,167871,2,0,P|141:222|103:219,1,85,2|0,3:2|0:0,0:0:0:0:
76,61,168300,2,0,P|136:39|174:42,1,85,10|0,0:0|0:0,0:0:0:0:
333,85,168729,5,6,3:2:0:0:
140,132,168943,1,2,0:0:0:0:
338,96,169157,1,10,0:0:0:0:
138,142,169371,2,0,L|25:164,1,85,0|0,0:0|3:0,0:0:0:0:
188,303,169800,5,2,0:0:0:0:
242,120,170014,1,10,0:0:0:0:
365,277,170229,2,0,P|434:279|474:269,1,85,2|0,0:0|3:0,0:0:0:0:
263,222,170657,5,2,0:0:0:0:
443,158,170871,1,10,0:0:0:0:
346,323,171086,1,2,0:0:0:0:
314,114,171300,1,2,3:2:0:0:
451,278,171514,1,2,0:0:0:0:
499,69,171729,2,0,P|438:52|407:55,1,85,8|0,0:0|0:0,0:0:0:0:
227,88,172157,5,2,3:2:0:0:
443,158,172371,1,2,0:0:0:0:
213,228,172586,1,10,0:0:0:0:
315,29,172800,2,0,P|306:92|304:125,1,85,0|0,0:0|3:0,0:0:0:0:
354,304,173229,2,0,P|350:261|343:219,1,85,2|8,0:0|0:0,0:0:0:0:
227,88,173657,1,2,0:0:0:0:
261,278,173871,5,14,0:0:0:0:
324,29,174086,1,14,0:0:0:0:
261,278,174514,2,0,L|251:316,4,21.25,6|2|2|2|2,0:0|0:0|0:0|0:0|0:0,0:0:0:0:
201,132,174943,5,10,0:0:0:0:
382,177,175157,2,0,P|447:189|479:192,1,85,10|0,0:0|0:0,0:0:0:0:
324,29,175586,5,6,3:2:0:0:
283,198,175800,1,2,0:0:0:0:
141,57,176014,1,10,0:0:0:0:
312,112,176229,2,0,P|248:118|215:127,1,85,2|0,0:0|3:0,0:0:0:0:
87,267,176657,5,2,0:0:0:0:
283,198,176871,1,10,0:0:0:0:
115,107,177086,2,0,L|134:204,1,85,0|0,0:0|3:0,0:0:0:0:
194,323,177514,5,2,0:0:0:0:
237,135,177729,1,10,0:0:0:0:
365,272,177943,1,2,0:0:0:0:
131,190,178157,5,2,3:2:0:0:
349,134,178371,1,2,0:0:0:0:
251,324,178586,1,10,0:0:0:0:
160,101,178800,1,2,0:0:0:0:
85,327,179014,6,0,P|128:322|172:307,1,85,2|2,3:2|0:0,0:0:0:0:
259,197,179443,1,10,0:0:0:0:
115,129,179657,2,0,P|105:177|99:239,1,85,2|0,0:0|3:0,0:0:0:0:
262,292,180086,5,2,0:0:0:0:
278,86,180300,1,10,0:0:0:0:
262,292,180514,2,0,P|317:284|358:272,1,85,2|0,0:0|3:0,0:0:0:0:
460,137,180943,5,2,0:0:0:0:
288,178,181157,1,10,0:0:0:0:
512,229,181371,1,2,0:0:0:0:
345,276,181586,2,0,L|332:155,1,85,2|0,3:2|0:0,0:0:0:0:
186,60,182014,2,0,L|183:159,1,85,10|0,0:0|0:0,0:0:0:0:
106,280,182443,5,6,3:2:0:0:
281,204,182657,1,2,0:0:0:0:
105,112,182871,1,10,0:0:0:0:
207,284,183086,2,0,P|268:315|302:314,1,85,2|0,0:0|3:0,0:0:0:0:
306,121,183514,5,2,0:0:0:0:
144,202,183729,1,10,0:0:0:0:
338,240,183943,2,0,P|392:212|410:177,1,85,2|0,0:0|3:0,0:0:0:0:
220,59,184371,5,2,0:0:0:0:
247,265,184586,1,10,0:0:0:0:
338,84,184800,1,2,0:0:0:0:
355,298,185014,2,0,P|405:287|441:284,1,85,2|2,3:2|0:0,0:0:0:0:
301,174,185443,2,0,P|251:163|215:160,1,85,10|2,0:0|0:0,0:0:0:0:
109,310,185871,6,0,P|225:301|250:242,1,170,6|8,3:2|0:0,0:0:0:0:
121,101,186514,2,0,L|102:195,1,85,2|0,0:0|3:0,0:0:0:0:
333,239,186943,2,0,L|316:155,1,85,2|8,0:0|0:0,0:0:0:0:
213,36,187371,1,2,0:0:0:0:
164,245,187586,5,8,0:0:0:0:
366,191,187800,1,8,0:0:0:0:
366,191,187907,1,8,0:0:0:0:
366,191,188014,2,0,L|413:198,3,42.5,8|8|8|8,0:0|0:0|0:0|0:0,0:0:0:0:
290,101,188443,6,0,L|220:93,3,42.5,10|8|8|8,0:0|0:0|0:0|0:0,0:0:0:0:
159,111,188871,1,10,0:0:0:0:
123,133,188978,1,10,0:0:0:0:
101,169,189085,1,10,0:0:0:0:
97,211,189192,1,10,0:0:0:0:
113,251,189300,6,0,P|73:266|30:266,2,85,6|0|0,0:0|3:0|0:0,0:0:0:0:
51,144,190586,1,0,3:0:0:0:
146,70,191014,2,0,P|165:106|168:161,1,85,2|0,0:0|3:0,0:0:0:0:
290,225,191871,1,2,0:0:0:0:
336,92,192300,5,2,0:0:0:0:
346,91,192407,1,2,0:0:0:0:
357,90,192514,1,2,0:0:0:0:
367,89,192621,1,2,0:0:0:0:
378,89,192729,6,0,L|470:82,1,85,2|0,0:0|3:0,0:0:0:0:
391,217,193586,2,0,L|280:225,1,101.999996887207,2|0,0:0|3:0,0:0:0:0:
147,68,194443,2,0,L|279:57,1,118.999996368408,2|0,0:0|3:0,0:0:0:0:
162,269,195300,2,0,L|7:280,1,136,2|0,0:0|3:0,0:0:0:0:
88,183,195943,2,0,L|87:156,2,17,2|2|2,0:0|0:0|0:0,0:0:0:0:
88,144,196157,6,0,P|135:158|185:150,2,85,6|0|0,0:0|3:0|0:0,0:0:0:0:
141,68,197229,1,2,0:0:0:0:
141,68,197443,2,0,P|173:59|190:60,1,42.5,0|2,3:0|0:0,0:0:0:0:
256,121,197871,1,2,0:0:0:0:
350,89,198086,1,2,0:0:0:0:
350,89,198300,2,0,L|357:144,1,42.5,0|0,3:0|0:0,0:0:0:0:
287,248,198729,2,0,L|292:205,1,42.5
410,225,199157,5,2,0:0:0:0:
421,242,199264,1,2,0:0:0:0:
429,262,199371,1,2,0:0:0:0:
433,283,199478,1,2,0:0:0:0:
432,304,199586,6,0,P|375:333|337:333,1,85,2|0,0:0|3:0,0:0:0:0:
276,310,200229,2,0,P|220:288|179:293,1,85,2|2,0:0|0:0,0:0:0:0:
114,331,200871,2,0,L|119:380,1,42.5,2|0,3:2|0:0,0:0:0:0:
20,302,201300,6,0,L|27:268,3,29.7499990921021,2|2|2|2,0:0|0:0|0:0|0:0,0:0:0:0:
119,238,201729,2,0,L|112:204,3,29.7499990921021,2|2|2|2,3:2|0:0|0:0|0:0,0:0:0:0:
10,169,202157,2,0,L|17:135,3,29.7499990921021,2|2|2|2,0:0|0:0|0:0|0:0,0:0:0:0:
107,108,202586,1,2,0:0:0:0:
170,18,202800,6,0,L|174:42,2,14.874999546051,2|2|2,0:0|0:0|0:0,0:0:0:0:
190,44,203014,6,0,B|284:29,1,76.4999976654053,6|0,3:2|0:0,0:0:0:0:
393,76,203443,1,10,0:0:0:0:
243,136,203657,1,2,0:0:0:0:
413,71,203871,6,0,P|426:120|425:154,1,76.4999976654053,2|0,3:2|0:0,0:0:0:0:
291,224,204300,1,10,0:0:0:0:
460,269,204514,1,2,0:0:0:0:
324,357,204729,6,0,L|312:259,1,76.4999976654053,2|0,3:2|0:0,0:0:0:0:
207,191,205157,2,0,L|197:266,1,76.4999976654053,10|2,0:0|0:0,0:0:0:0:
312,123,205586,2,0,L|300:25,1,76.4999976654053,2|0,3:2|0:0,0:0:0:0:
207,191,206014,2,0,L|197:266,1,76.4999976654053,10|2,0:0|0:0,0:0:0:0:
103,109,206443,6,0,P|55:103|11:196,1,152.999995330811,2|10,3:2|0:0,0:0:0:0:
102,208,207086,1,2,0:0:0:0:
9,307,207300,2,0,B|90:298|74:367|186:335,1,152.999995330811,2|10,3:2|0:0,0:0:0:0:
287,318,207943,1,2,0:0:0:0:
220,152,208157,6,0,P|196:176|240:156,1,152.999995330811,2|10,3:2|0:0,0:0:0:0:
271,45,208800,1,2,0:0:0:0:
362,163,209014,2,0,P|422:193|452:196,1,76.4999976654053,2|0,3:2|0:0,0:0:0:0:
486,70,209443,2,0,P|426:40|396:37,1,76.4999976654053,10|0,0:0|0:0,0:0:0:0:
246,161,209871,6,0,L|262:325,2,152.999995330811,6|8|0,3:2|0:0|3:2,0:0:0:0:
110,90,210943,1,2,0:0:0:0:
271,45,211157,1,10,0:0:0:0:
139,203,211371,1,2,0:0:0:0:
271,45,211586,6,0,P|315:55|341:73,1,76.4999976654053,2|2,3:2|0:0,0:0:0:0:
450,147,212014,2,0,P|419:180|390:193,1,76.4999976654053,10|2,0:0|0:0,0:0:0:0:
272,251,212443,2,0,P|258:207|261:176,1,76.4999976654053,2|2,3:2|0:0,0:0:0:0:
271,45,212871,1,10,0:0:0:0:
391,192,213086,1,2,0:0:0:0:
194,114,213300,6,0,L|146:124,3,38.2499988327027,2|2|2|2,3:2|0:0|0:0|0:0,0:0:0:0:
115,43,213729,1,10,0:0:0:0:
85,66,213836,1,2,0:0:0:0:
66,99,213943,1,2,0:0:0:0:
63,137,214050,1,2,0:0:0:0:
75,173,214157,6,0,P|81:195|82:211,3,38.2499988327027,2|2|2|2,3:2|0:0|0:0|0:0,0:0:0:0:
71,309,214586,1,10,0:0:0:0:
101,285,214693,1,2,0:0:0:0:
136,271,214800,1,2,0:0:0:0:
174,268,214907,1,2,0:0:0:0:
211,276,215014,6,0,L|259:269,3,38.2499988327027,2|2|2|2,3:2|0:0|0:0|0:0,0:0:0:0:
333,318,215443,2,0,L|380:310,3,38.2499988327027,2|2|2|10,0:0|0:0|0:0|0:0,0:0:0:0:
444,250,215871,1,10,0:0:0:0:
275,184,216086,1,2,0:0:0:0:
275,184,216193,1,10,0:0:0:0:
275,184,216300,1,10,0:0:0:0:
470,86,216514,2,0,L|513:93,1,38.2499988327027,2|2,0:0|0:0,0:0:0:0:
256,192,216729,12,2,218014,0:0:0:0:
257,229,218443,6,0,L|351:222,1,85,6|2,0:0|0:0,0:0:0:0:
428,214,219086,1,2,0:0:0:0:
428,214,219514,6,0,P|436:251|442:267,2,42.5,2|2|2,0:0|0:0|0:0,0:0:0:0:
370,137,220157,1,2,0:0:0:0:
370,137,220371,2,0,P|375:116|379:95,2,42.5,2|2|2,0:0|0:0|0:0,0:0:0:0:
283,155,221014,2,0,P|266:141|251:126,1,42.5,2|0,0:0|0:0,0:0:0:0:
278,41,221443,2,0,P|297:33|318:28,1,42.5,2|2,0:0|0:0,0:0:0:0:
187,12,221871,5,2,0:0:0:0:
187,12,222086,2,0,P|141:29|134:34,1,42.5,2|0,0:0|0:0,0:0:0:0:
89,83,222514,2,0,L|99:181,1,85,2|0,0:0|0:0,0:0:0:0:
110,251,223157,1,2,0:0:0:0:
181,201,223371,2,0,L|226:204,1,42.5,2|0,0:0|0:0,0:0:0:0:
251,277,223800,2,0,P|256:313|257:331,2,42.5,2|2|2,0:0|0:0|0:0,0:0:0:0:
171,314,224443,2,0,P|130:336|81:333,1,85,2|0,0:0|0:0,0:0:0:0:
67,73,225300,6,0,L|76:127,2,42.5,6|2|2,0:0|0:0|0:0,0:0:0:0:
154,79,225943,1,2,0:0:0:0:
154,79,226371,1,2,0:0:0:0:
235,92,226586,2,0,L|242:134,1,42.5,2|2,0:0|0:0,0:0:0:0:
194,204,227014,5,2,0:0:0:0:
284,222,227229,2,0,P|321:230|334:230,2,42.5,0|0|2,0:0|0:0|0:0,0:0:0:0:
194,204,227871,2,0,P|181:241|180:258,1,42.5,2|2,0:0|0:0,0:0:0:0:
253,134,228300,2,0,P|250:96|244:81,1,42.5,2|2,0:0|0:0,0:0:0:0:
187,27,228729,6,0,L|137:35,2,42.5,2|2|2,0:0|0:0|0:0,0:0:0:0:
175,123,229371,2,0,L|72:141,2,85,2|2|2,0:0|0:0|0:0,0:0:0:0:
91,169,230443,5,14,0:0:0:0:
415,219,230657,1,14,0:0:0:0:
91,169,231086,2,0,L|76:165,4,10.625,6|2|2|2|2,0:0|0:0|0:0|0:0|0:0,0:0:0:0:
233,313,231514,5,10,0:0:0:0:
264,76,231729,2,0,P|271:53|268:19,1,42.5,10|8,0:0|0:0,0:0:0:0:
108,25,232157,5,2,3:2:0:0:
250,195,232371,1,2,0:0:0:0:
57,144,232586,1,10,0:0:0:0:
264,76,232800,2,0,L|366:101,1,85,2|0,0:0|3:0,0:0:0:0:
265,275,233229,5,2,0:0:0:0:
142,85,233443,1,10,0:0:0:0:
49,305,233657,2,0,P|94:285|149:271,1,85,2|0,0:0|3:0,0:0:0:0:
305,196,234086,5,2,0:0:0:0:
121,154,234300,1,10,0:0:0:0:
335,284,234514,1,2,0:0:0:0:
136,74,234729,5,2,3:2:0:0:
161,334,234943,1,2,0:0:0:0:
264,105,235157,1,10,0:0:0:0:
251,381,235371,1,2,0:0:0:0:
98,155,235586,6,0,B|93:206|93:206|106:236,1,85,2|2,3:2|0:0,0:0:0:0:
230,341,236014,1,10,0:0:0:0:
230,341,236121,1,8,0:0:0:0:
230,341,236229,2,0,B|271:343|271:343|308:320,1,85,2|0,0:0|3:0,0:0:0:0:
436,228,236657,5,2,0:0:0:0:
244,131,236871,1,10,0:0:0:0:
411,21,237086,2,0,L|422:114,1,85,2|0,0:0|3:0,0:0:0:0:
265,263,237514,5,2,0:0:0:0:
277,43,237729,1,10,0:0:0:0:
378,231,237943,1,2,0:0:0:0:
277,43,238157,2,0,P|206:27|179:24,1,85,2|0,3:2|0:0,0:0:0:0:
43,230,238586,2,0,P|114:246|141:249,1,85,10|0,0:0|0:0,0:0:0:0:
332,159,239014,5,6,3:2:0:0:
115,106,239229,1,2,0:0:0:0:
225,330,239443,1,10,0:0:0:0:
221,74,239657,2,0,B|200:122|200:122|206:173,1,85,2|0,0:0|3:0,0:0:0:0:
359,299,240086,5,2,0:0:0:0:
122,231,240300,1,10,0:0:0:0:
306,134,240514,2,0,P|361:118|402:120,1,85,2|0,0:0|3:0,0:0:0:0:
242,293,240943,5,2,0:0:0:0:
176,69,241157,1,10,0:0:0:0:
367,210,241371,1,2,0:0:0:0:
249,9,241586,1,2,3:2:0:0:
174,257,241800,1,2,0:0:0:0:
349,38,242014,1,10,0:0:0:0:
406,307,242229,1,2,0:0:0:0:
198,110,242443,6,0,P|118:122|71:199,1,170,6|10,3:2|0:0,0:0:0:0:
199,369,243086,2,0,L|210:268,1,85,2|0,0:0|3:0,0:0:0:0:
338,55,243514,2,0,L|347:139,1,85,2|8,0:0|0:0,0:0:0:0:
368,342,243943,1,2,0:0:0:0:
198,110,244157,5,10,0:0:0:0:
484,188,244371,1,10,0:0:0:0:
246,289,244586,1,10,0:0:0:0:
283,35,244800,1,10,0:0:0:0:
401,290,245014,6,0,L|414:347,2,42.5,2|2|2,3:2|3:2|3:2,0:0:0:0:
108,181,245443,1,10,0:0:0:0:
405,77,245657,1,10,0:0:0:0:
192,354,245871,6,0,P|173:315|171:273,1,85,2|0,3:2|0:0,0:0:0:0:
277,95,246300,2,0,P|295:133|297:175,1,85,10|0,0:0|0:0,0:0:0:0:
165,365,246729,2,0,P|146:327|144:285,1,85,2|0,3:2|0:0,0:0:0:0:
275,177,247157,1,10,0:0:0:0:
444,175,247371,6,0,P|464:231|479:266,1,85,2|0,0:0|3:0,0:0:0:0:
313,92,247800,2,0,P|298:169|291:193,1,85,2|8,0:0|0:0,0:0:0:0:
435,38,248229,1,2,0:0:0:0:
380,248,248443,5,2,3:2:0:0:
221,118,248657,1,2,0:0:0:0:
429,163,248871,1,10,0:0:0:0:
222,254,249086,1,2,0:0:0:0:
222,254,249193,1,2,0:0:0:0:
222,254,249300,6,0,P|170:277|125:274,1,85,2|0,3:2|0:0,0:0:0:0:
98,97,249729,2,0,P|150:74|195:77,1,85,10|0,0:0|0:0,0:0:0:0:
56,203,250157,1,2,3:2:0:0:
276,145,250371,1,2,0:0:0:0:
51,224,250586,1,10,0:0:0:0:
284,132,250800,6,0,L|302:225,1,85,2|0,0:0|3:0,0:0:0:0:
174,353,251229,2,0,L|190:269,1,85,2|8,0:0|0:0,0:0:0:0:
382,160,251657,1,2,0:0:0:0:
274,331,251871,5,2,3:2:0:0:
243,128,252086,1,2,0:0:0:0:
391,318,252300,1,10,0:0:0:0:
426,75,252514,2,0,L|431:36,2,21.25,2|2|2,0:0|0:0|0:0,0:0:0:0:
424,32,252729,6,0,P|370:43|334:63,1,85,2|0,3:2|0:0,0:0:0:0:
168,59,253157,2,0,P|204:100|239:121,1,85,10|0,0:0|0:0,0:0:0:0:
320,267,253586,2,0,P|337:214|338:173,1,85,2|0,3:2|0:0,0:0:0:0:
343,56,254014,1,10,0:0:0:0:
168,59,254229,6,0,P|92:81|72:91,1,85,2|0,0:0|3:0,0:0:0:0:
79,280,254657,2,0,P|155:258|175:248,1,85,2|8,0:0|0:0,0:0:0:0:
265,127,255086,1,2,0:0:0:0:
186,374,255300,5,2,3:2:0:0:
103,136,255514,1,2,0:0:0:0:
291,306,255729,1,10,0:0:0:0:
335,41,255943,1,2,0:0:0:0:
335,41,256050,1,2,0:0:0:0:
335,41,256157,6,0,P|287:41|241:59,1,85,2|0,3:2|0:0,0:0:0:0:
160,255,256586,2,0,P|208:255|254:237,1,85,10|0,0:0|0:0,0:0:0:0:
414,187,257014,1,2,3:2:0:0:
184,140,257229,1,2,0:0:0:0:
365,285,257443,1,10,0:0:0:0:
431,61,257657,2,0,L|427:33,2,21.25,2|2|2,0:0|0:0|0:0,0:0:0:0:
422,17,257871,6,0,P|352:22|334:48,1,85,10|10,0:0|0:0,0:0:0:0:
283,89,258193,1,8,0:0:0:0:
283,89,258300,2,0,L|226:82,3,42.5,10|8|10|8,0:0|0:0|0:0|0:0,0:0:0:0:
302,115,258729,6,0,L|296:161,1,42.5,10|8,0:0|0:0,0:0:0:0:
241,303,258943,2,0,L|235:260,1,42.5,10|8,0:0|0:0,0:0:0:0:
325,97,259157,2,0,L|319:143,1,42.5,10|8,0:0|0:0,0:0:0:0:
215,329,259371,2,0,L|209:286,1,42.5,10|8,0:0|0:0,0:0:0:0:
206,140,259586,6,0,P|209:94|185:31,2,101.999996887207,6|0|2,0:0|3:2|0:0,0:0:0:0:
181,223,260657,1,2,0:0:0:0:
119,166,260871,2,0,P|59:176|49:181,1,50.9999984436036,2|0,3:2|0:0,0:0:0:0:
141,314,261300,6,0,P|179:318|250:297,1,101.999996887207,2|0,0:0|3:0,0:0:0:0:
314,247,261943,1,2,0:0:0:0:
360,168,262157,2,0,L|353:114,1,50.9999984436036,2|0,0:0|0:0,0:0:0:0:
262,78,262586,2,0,L|255:137,1,50.9999984436036,10|0,3:2|0:0,0:0:0:0:
181,232,263014,6,0,B|133:250|133:250|74:230,2,101.999996887207,2|0|2,0:0|3:0|0:0,0:0:0:0:
133,157,264086,1,2,0:0:0:0:
133,157,264300,2,0,P|99:143|76:142,1,50.9999984436036,2|0,3:2|0:0,0:0:0:0:
8,69,264729,6,0,P|73:41|124:44,1,101.999996887207,2|0,0:0|3:0,0:0:0:0:
183,92,265371,1,2,0:0:0:0:
315,64,265586,2,0,P|283:49|257:48,1,50.9999984436036,2|0,0:0|0:0,0:0:0:0:
257,135,266014,1,2,3:2:0:0:
324,186,266229,2,0,L|328:170,2,12.7499996109009,2|2|2,0:0|0:0|0:0,0:0:0:0:
341,171,266443,6,0,B|372:208|360:265|305:293|262:275|240:248|236:212|236:212|210:260|230:298|230:298|252:344|214:388,1,407.999987548829,6|2,0:0|0:0,0:0:0:0:
216,384,269014,6,0,P|187:380|161:374,1,50.9999984436036,2|2,0:0|0:0,0:0:0:0:
54,298,269443,2,0,P|83:294|109:288,1,50.9999984436036,2|2,0:0|0:0,0:0:0:0:
269,160,269871,6,0,B|283:139|283:117|274:84|244:70|209:81|197:110|197:110|180:89|152:85|115:99|86:150|101:213|212:188|212:276,1,407.999987548829,6|2,0:0|0:0,0:0:0:0:
209,257,272443,6,0,L|174:260,1,25.4999992218018,2|2,0:0|0:0,0:0:0:0:
287,298,272871,6,0,L|312:295,1,25.4999992218018,2|2,0:0|0:0,0:0:0:0:
