osu file format v14

[General]
AudioFilename: audio.mp3
AudioLeadIn: 0
PreviewTime: 58598
Countdown: 0
SampleSet: Soft
StackLeniency: 0.6
Mode: 0
LetterboxInBreaks: 0
WidescreenStoryboard: 1

[Editor]
DistanceSpacing: 1.4
BeatDivisor: 4
GridSize: 16
TimelineZoom: 1.5

[Metadata]
Title:Complete
TitleUnicode:コンプリイト
Artist:Kugimiya Rie, Horie Yui, Kitamura Eri
ArtistUnicode:釘宮理恵, 堀江由衣, 喜多村英梨
Creator:Dayno
Version:Insane
Source:とらドラ・ポータブル!
Tags:itay pop jpop j-pop guyzware ガイズウェア anime toradora! toradora portable Tiger X Dragon ed ending japanese video game Aisaka Taiga Kushieda Minori Kawashima Ami vn visual novel √HAPPYEND 逢坂大河 櫛枝実乃梨 川嶋亜美
BeatmapID:4128911
BeatmapSetID:1987662

[Difficulty]
HPDrainRate:4.5
CircleSize:4.3
OverallDifficulty:7.5
ApproachRate:8
SliderMultiplier:1.3
SliderTickRate:1

[Events]
//Background and Video events
0,0,"a really good background image !! 2.jpeg",0,0
//Break Periods
//Storyboard Layer 0 (Background)
//Storyboard Layer 1 (Fail)
//Storyboard Layer 2 (Pass)
//Storyboard Layer 3 (Foreground)
//Storyboard Layer 4 (Overlay)
//Storyboard Sound Samples

[TimingPoints]
1064,410.958904109589,4,2,1,55,1,0
2707,-83.3333333333333,4,2,1,60,0,0
3015,-83.3333333333333,4,2,1,5,0,0
3118,-83.3333333333333,4,2,1,60,0,0
3426,-83.3333333333333,4,2,1,5,0,0
3529,-83.3333333333333,4,2,1,60,0,0
3837,-83.3333333333333,4,2,1,5,0,0
3940,-83.3333333333333,4,2,1,60,0,0
4248,-83.3333333333333,4,2,1,5,0,0
4351,410.958904109589,4,2,1,60,1,0
4967,-83.3333333333333,4,2,1,60,0,0
9590,-83.3333333333333,4,2,1,5,0,0
9693,-83.3333333333333,4,2,1,60,0,0
10001,-83.3333333333333,4,2,1,5,0,0
10104,-83.3333333333333,4,2,1,60,0,0
15857,-83.3333333333333,4,2,1,60,0,0
16165,-83.3333333333333,4,2,1,5,0,0
16268,-83.3333333333333,4,2,1,60,0,0
16576,-83.3333333333333,4,2,1,5,0,0
16679,-83.3333333333333,4,2,1,60,0,0
16987,-83.3333333333333,4,2,1,5,0,0
17090,-83.3333333333333,4,2,1,60,0,0
17398,-83.3333333333333,4,2,1,5,0,0
17501,-83.3333333333333,4,2,1,75,0,0
17809,-76.9230769230769,4,2,1,75,0,0
29008,-100,4,2,1,60,0,0
29316,-100,4,2,1,5,0,0
29419,-100,4,2,1,60,0,0
29727,-100,4,2,1,5,0,0
29830,-100,4,2,1,60,0,0
30138,-100,4,2,1,5,0,0
30241,-100,4,2,1,60,0,0
30549,-100,4,2,1,5,0,0
30652,-100,4,2,1,70,0,0
31063,-83.3333333333333,4,2,1,70,0,0
36713,-83.3333333333333,4,2,1,5,0,0
36816,-83.3333333333333,4,2,1,70,0,0
43803,-76.9230769230769,4,2,1,70,0,0
44111,-76.9230769230769,4,2,1,5,0,0
44214,-76.9230769230769,4,2,1,70,0,0
44932,-76.9230769230769,4,2,1,5,0,0
45035,-76.9230769230769,4,2,1,70,0,0
47398,-76.9230769230769,4,2,1,5,0,0
47501,-76.9230769230769,4,2,1,70,0,0
48220,-76.9230769230769,4,2,1,5,0,0
48323,-76.9230769230769,4,2,1,70,0,0
49453,-76.9230769230769,4,2,1,5,0,0
49556,-76.9230769230769,4,2,1,70,0,0
50686,-76.9230769230769,4,2,1,5,0,0
50789,-76.9230769230769,4,2,1,70,0,0
51508,-76.9230769230769,4,2,1,5,0,0
51611,-76.9230769230769,4,2,1,70,0,0
54282,-74.0740740740741,4,2,1,70,0,0
54590,-74.0740740740741,4,2,1,5,0,0
54693,-74.0740740740741,4,2,1,70,0,0
56953,-83.3333333333333,4,2,1,60,0,0
57261,-83.3333333333333,4,2,1,5,0,0
57364,-83.3333333333333,4,2,1,60,0,0
57775,-83.3333333333333,4,2,1,65,0,0
58598,410.958904109589,4,2,1,75,1,1
59419,-68.9655172413793,4,2,1,75,0,1
60138,-68.9655172413793,4,2,1,5,0,1
60241,-68.9655172413793,4,2,1,75,0,1
61782,-68.9655172413793,4,2,1,5,0,1
61885,-68.9655172413793,4,2,1,75,0,1
71645,-68.9655172413793,4,2,1,75,0,0
71748,-68.9655172413793,4,2,1,75,0,1
73289,-68.9655172413793,4,2,1,5,0,1
73392,-68.9655172413793,4,2,1,75,0,1
74933,-68.9655172413793,4,2,1,5,0,1
75036,-68.9655172413793,4,2,1,75,0,1
81611,-68.9655172413793,4,2,1,75,0,0
83255,-68.9655172413793,4,2,1,75,0,1
83358,-68.9655172413793,4,2,1,75,0,0
83461,-68.9655172413793,4,2,1,70,0,0
84899,-68.9655172413793,4,2,1,75,0,1
85002,-68.9655172413793,4,2,1,75,0,0
86543,-68.9655172413793,4,2,1,80,0,1
87365,-68.9655172413793,4,2,1,80,0,0

[Colours]
Combo1 : 255,147,255
Combo2 : 255,79,255

[HitObjects]
416,90,1269,5,2,2:0:0:0:
353,38,1474,1,2,2:0:0:0:
431,10,1680,1,2,2:0:0:0:
431,10,1885,1,2,2:0:0:0:
416,90,2091,1,2,2:0:0:0:
416,90,2194,1,2,2:0:0:0:
353,38,2399,1,2,2:0:0:0:
353,38,2502,1,2,2:0:0:0:
280,64,2707,6,0,P|236:57|152:14,1,117,2|0,3:2|2:0,2:0:0:0:
167,41,3118,2,0,P|219:66|276:76,1,117,10|0,2:0|2:0,2:0:0:0:
212,111,3529,6,0,P|168:118|84:161,1,117,2|0,3:2|2:0,2:0:0:0:
99,134,3940,2,0,P|151:109|208:99,1,117,10|0,2:0|2:0,2:0:0:0:
212,111,4351,5,4,3:2:0:0:
166,248,4556,1,2,2:0:0:0:
166,248,4659,1,0,2:0:0:0:
166,248,4761,1,10,2:0:0:0:
326,205,4967,2,0,L|256:184,1,39,2|0,3:2|2:0,2:0:0:0:
333,217,5172,2,0,L|200:182,2,117,2|2|2,2:0|2:0|2:0,2:0:0:0:
333,217,6200,5,2,2:0:0:0:
252,314,6405,1,10,2:0:0:0:
366,365,6611,5,2,3:2:0:0:
333,217,6816,2,0,L|316:270,2,39,2|0|2,2:0|2:0|3:2,2:0:0:0:
181,384,7227,1,8,2:0:0:0:
178,374,7330,1,2,2:0:0:0:
175,365,7433,1,2,2:0:0:0:
172,356,7535,1,2,2:0:0:0:
169,346,7638,5,2,3:2:0:0:
137,240,7844,1,2,2:0:0:0:
252,314,8049,1,10,2:0:0:0:
43,367,8255,2,0,L|56:309,1,39,2|0,2:0|2:0,2:0:0:0:
32,377,8460,2,0,L|69:237,2,117,2|2|2,2:0|2:0|2:0,2:0:0:0:
224,235,9282,6,0,P|210:168|169:104,1,117,2|0,3:2|2:0,2:0:0:0:
173,133,9693,6,0,P|199:184|210:242,1,117,10|0,2:0|2:0,2:0:0:0:
289,133,10104,6,0,P|303:66|325:37,1,78,2|8,3:2|2:1,2:0:0:0:
319,43,10412,1,8,2:1:0:0:
283,58,10515,1,10,2:0:0:0:
245,49,10618,1,8,2:1:0:0:
215,23,10720,1,8,2:1:0:0:
300,222,10926,5,4,3:2:0:0:
465,140,11131,1,2,2:0:0:0:
465,140,11234,1,0,2:0:0:0:
465,140,11337,1,10,2:0:0:0:
399,269,11542,2,0,L|380:323,1,39,2|0,2:0|2:0,2:0:0:0:
374,321,11748,2,0,L|422:179,2,117,2|2|2,2:0|2:0|2:0,2:0:0:0:
80,177,12775,5,2,2:0:0:0:
127,268,12981,1,10,2:0:0:0:
174,188,13186,1,2,3:2:0:0:
45,267,13392,1,2,2:0:0:0:
45,267,13494,1,0,2:0:0:0:
45,267,13597,1,2,3:2:0:0:
213,320,13803,1,8,2:0:0:0:
203,323,13905,1,2,2:0:0:0:
194,326,14008,1,2,2:0:0:0:
185,329,14111,1,2,2:0:0:0:
175,332,14214,5,2,3:2:0:0:
34,372,14419,1,2,2:0:0:0:
127,268,14624,1,10,2:0:0:0:
13,174,14830,2,0,L|25:224,1,39,2|0,2:0|2:0,2:0:0:0:
17,153,15035,2,0,L|49:284,2,117,2|2|2,2:0|2:0|2:0,2:0:0:0:
96,103,15857,6,0,P|140:110|224:153,1,117,2|0,2:0|2:0,2:0:0:0:
209,126,16268,2,0,P|157:101|100:91,1,117,2|0,2:0|2:0,2:0:0:0:
177,65,16679,6,0,P|229:39|287:29,1,117,2|0,2:0|2:0,2:0:0:0:
284,16,17090,2,0,P|226:26|174:52,1,117,2|0,2:0|2:0,2:0:0:0:
293,175,17501,5,4,3:2:0:0:
463,135,17707,5,2,2:0:0:0:
471,135,17809,2,0,L|448:198,1,42.25,2|8,2:0|2:0,2:0:0:0:
427,245,18015,1,2,2:0:0:0:
435,245,18118,2,0,L|412:308,1,42.25,2|0,2:0|2:0,2:0:0:0:
363,199,18323,6,0,L|386:136,1,42.25,2|0,3:2|2:0,2:0:0:0:
339,269,18529,2,0,L|316:332,1,42.25,2|0,2:0|2:0,2:0:0:0:
471,135,18734,2,0,L|448:198,1,42.25,10|0,2:0|2:0,2:0:0:0:
435,245,18940,2,0,L|412:308,1,42.25,2|0,2:0|2:0,2:0:0:0:
278,207,19351,5,2,3:2:0:0:
286,207,19453,2,0,L|263:144,1,42.25,2|8,2:0|2:0,2:0:0:0:
242,97,19659,1,2,2:0:0:0:
250,97,19761,2,0,L|227:34,1,42.25,0|0,2:0|2:0,2:0:0:0:
200,183,19967,2,0,L|172:282,2,84.5,2|2|10,3:2|2:0|2:0,2:0:0:0:
0,262,20789,5,0,3:2:0:0:
200,183,20994,5,2,2:0:0:0:
208,183,21097,2,0,L|185:120,1,42.25,2|8,2:0|2:0,2:0:0:0:
164,73,21303,1,2,2:0:0:0:
172,73,21405,2,0,L|149:10,1,42.25,0|0,2:0|2:0,2:0:0:0:
100,119,21611,6,0,L|123:182,1,42.25,2|0,3:2|2:0,2:0:0:0:
76,49,21816,2,0,L|53:-14,1,42.25,2|0,2:0|2:0,2:0:0:0:
208,183,22022,2,0,L|185:120,1,42.25,10|0,2:0|2:0,2:0:0:0:
172,73,22227,2,0,L|149:10,1,42.25,2|0,2:0|2:0,2:0:0:0:
380,133,22433,1,0,2:0:0:0:
356,56,22638,5,2,3:2:0:0:
434,73,22844,1,8,2:0:0:0:
380,133,23049,1,2,2:0:0:0:
408,0,23255,1,2,3:2:0:0:
460,153,23460,5,10,2:1:0:0:
306,112,23666,1,10,2:1:0:0:
272,290,23871,5,0,2:0:0:0:
272,290,23974,1,0,2:0:0:0:
272,290,24077,1,4,3:2:0:0:
336,338,24282,5,2,2:0:0:0:
332,346,24385,2,0,L|386:334,1,42.25,2|8,2:0|2:0,2:0:0:0:
393,254,24590,1,2,2:0:0:0:
397,246,24693,2,0,L|343:258,1,42.25,0|0,2:0|2:0,2:0:0:0:
153,283,24898,6,0,P|170:338|209:363,1,84.5,2|2,3:2|2:0,2:0:0:0:
300,202,25309,2,0,P|248:175|202:185,1,84.5,10|2,2:0|2:0,2:0:0:0:
105,232,25926,5,2,3:2:0:0:
109,224,26029,2,0,L|55:236,1,42.25,2|8,2:0|2:0,2:0:0:0:
48,316,26234,1,2,2:0:0:0:
44,324,26337,2,0,L|98:312,1,42.25,0|0,2:0|2:0,2:0:0:0:
300,202,26542,6,0,P|248:175|202:185,1,84.5,2|2,3:2|2:0,2:0:0:0:
153,283,26953,2,0,P|170:338|209:363,1,84.5,10|2,2:0|2:0,2:0:0:0:
208,358,27261,1,2,2:0:0:0:
208,358,27364,1,0,3:2:0:0:
336,338,27570,5,2,2:0:0:0:
332,346,27672,2,0,L|386:334,1,42.25,2|8,2:0|2:0,2:0:0:0:
393,254,27878,1,2,2:0:0:0:
397,246,27981,2,0,L|343:258,1,42.25,0|0,2:0|2:0,2:0:0:0:
153,283,28186,6,0,P|170:338|209:363,1,84.5,2|2,3:2|2:0,2:0:0:0:
300,202,28597,2,0,P|248:175|202:185,1,84.5,10|2,2:0|2:0,2:0:0:0:
97,217,29008,6,0,L|-3:244,1,97.5,2|0,2:0|2:0,2:0:0:0:
0,251,29419,2,0,L|100:224,1,97.5,2|0,2:0|2:0,2:0:0:0:
149,148,29830,6,0,L|49:121,1,97.5,2|0,2:0|2:0,2:0:0:0:
52,114,30241,2,0,L|152:141,1,97.5,2|0,2:0|2:0,2:0:0:0:
297,177,30652,5,6,3:2:0:0:
206,68,30857,1,2,2:0:0:0:
385,34,31063,2,0,L|359:117,1,78,10|2,2:0|2:0,2:0:0:0:
229,142,31474,2,0,L|203:59,1,78,2|2,3:2|2:0,2:0:0:0:
219,63,31782,1,2,2:0:0:0:
220,63,31885,1,8,2:0:0:0:
146,139,32090,6,0,P|70:135|28:73,1,156,2|2,3:2|3:2,2:0:0:0:
78,12,32707,1,10,2:0:0:0:
78,12,32912,1,2,2:0:0:0:
79,160,33118,2,0,P|46:183|-6:177,1,78,2|2,3:2|2:0,2:0:0:0:
0,178,33426,1,0,2:0:0:0:
0,178,33529,2,0,L|18:233,4,39,8|2|2|2|0,2:0|2:0|2:0|2:0|3:2,2:0:0:0:
134,241,34145,5,2,2:0:0:0:
0,337,34351,1,10,2:0:0:0:
171,384,34556,1,2,2:0:0:0:
171,384,34659,1,0,2:0:0:0:
171,384,34761,1,2,3:2:0:0:
84,357,34967,1,2,2:0:0:0:
84,357,35070,1,2,2:0:0:0:
242,239,35378,1,0,3:2:0:0:
174,297,35583,5,2,2:0:0:0:
324,258,35789,1,2,3:2:0:0:
191,178,35994,1,10,2:0:0:0:
191,178,36200,1,2,2:0:0:0:
242,239,36405,2,0,P|266:188|337:135,1,117,2|0,3:2|2:0,2:0:0:0:
318,157,36816,2,0,P|355:128|373:124,3,39,10|2|2|2,2:0|2:0|2:0|2:0,2:0:0:0:
325,169,37227,6,0,P|288:121|278:74,1,78,2|2,3:2|2:0,2:0:0:0:
313,0,37638,1,10,2:0:0:0:
169,93,37844,1,2,2:0:0:0:
49,0,38049,1,2,3:2:0:0:
135,20,38255,1,2,2:0:0:0:
135,20,38357,1,2,2:0:0:0:
63,124,38666,6,0,L|26:293,1,156,2|2,3:2|3:2,2:0:0:0:
87,234,39282,6,0,L|75:181,1,39,10|0,2:0|2:0,2:0:0:0:
232,148,39487,1,2,2:0:0:0:
203,251,39693,2,0,L|191:198,1,39,2|0,3:2|2:0,2:0:0:0:
319,268,39898,1,2,2:0:0:0:
319,268,40001,1,2,2:0:0:0:
319,268,40104,2,0,L|307:215,4,39,8|2|2|2|2,2:0|2:0|2:0|2:0|3:2,2:0:0:0:
430,197,40720,5,2,2:0:0:0:
430,197,40823,1,0,2:0:0:0:
430,197,40926,1,10,2:0:0:0:
372,78,41131,1,2,2:0:0:0:
232,148,41337,2,0,L|250:55,1,78,2|2,3:2|2:0,2:0:0:0:
254,59,41645,1,2,2:0:0:0:
254,59,41748,1,8,2:0:0:0:
254,59,42159,5,2,2:0:0:0:
300,187,42364,1,2,3:2:0:0:
348,300,42570,1,10,2:0:0:0:
348,300,42981,5,2,3:2:0:0:
345,112,43186,1,10,2:0:0:0:
173,192,43392,1,10,2:0:0:0:
446,224,43597,5,2,2:0:0:0:
446,224,43700,1,2,2:0:0:0:
446,224,43803,2,0,L|483:98,1,126.75,6|0,3:2|2:0,2:0:0:0:
470,100,44214,1,8,2:0:0:0:
300,187,44419,5,2,2:0:0:0:
300,187,44522,1,2,2:0:0:0:
300,187,44624,2,0,L|337:313,1,126.75,2|0,3:2|2:0,2:0:0:0:
350,304,45035,1,8,2:0:0:0:
172,203,45241,6,0,L|188:152,1,42.25,2|2,3:2|2:0,2:0:0:0:
121,117,45446,1,2,0:0:0:0:
59,166,45652,1,2,3:2:0:0:
255,128,45857,1,10,2:0:0:0:
255,128,46063,1,2,2:0:0:0:
184,162,46268,1,2,3:2:0:0:
121,117,46474,1,2,2:0:0:0:
251,210,46679,1,10,2:0:0:0:
143,253,46885,5,2,2:0:0:0:
143,253,46987,1,2,2:0:0:0:
143,253,47090,2,0,L|106:379,1,126.75,2|0,3:2|2:0,2:0:0:0:
119,377,47501,1,8,2:0:0:0:
318,274,47707,5,2,2:0:0:0:
318,274,47809,1,2,2:0:0:0:
318,274,47912,2,0,L|281:148,1,126.75,2|0,3:2|2:0,2:0:0:0:
272,158,48323,1,8,2:0:0:0:
437,175,48529,5,2,3:2:0:0:
437,175,48631,1,2,2:0:0:0:
437,175,48734,2,0,L|466:74,1,84.5,2|2,2:0|3:2,2:0:0:0:
386,0,49145,2,0,L|342:148,1,126.75,10|0,2:0|2:0,2:0:0:0:
366,127,49556,1,2,3:2:0:0:
285,78,49761,1,0,2:0:0:0:
437,175,49967,1,8,2:0:0:0:
271,199,50172,5,2,2:0:0:0:
271,199,50275,1,2,2:0:0:0:
271,199,50378,2,0,L|145:162,1,126.75,2|0,3:2|2:0,2:0:0:0:
147,175,50789,1,8,2:0:0:0:
261,376,50994,5,2,2:0:0:0:
261,376,51097,1,2,2:0:0:0:
261,376,51200,2,0,L|387:339,1,126.75,2|0,3:2|2:0,2:0:0:0:
382,328,51611,1,8,2:0:0:0:
180,295,51816,5,2,3:2:0:0:
180,295,51919,1,2,2:0:0:0:
180,295,52022,2,0,L|150:392,1,84.5,2|2,2:0|3:2,2:0:0:0:
331,264,52433,1,10,2:0:0:0:
331,264,52638,1,2,2:0:0:0:
147,175,52844,1,2,3:2:0:0:
298,100,53049,1,2,2:0:0:0:
223,52,53255,1,10,2:0:0:0:
223,52,53666,6,0,L|209:5,1,42.25,2|0,3:2|2:0,2:0:0:0:
298,100,53871,2,0,L|310:140,1,42.25,2|0,2:0|2:0,2:0:0:0:
355,39,54077,1,10,2:0:0:0:
234,173,54282,6,0,P|216:208|197:316,1,131.625,2|0,2:0|2:0,2:0:0:0:
207,313,54693,1,2,2:0:0:0:
152,183,54898,1,10,2:0:0:0:
84,384,55104,1,2,3:2:0:0:
10,196,55309,1,2,2:0:0:0:
256,192,55412,12,2,56850,2:0:0:0:
256,192,56953,6,0,P|178:175|115:169,1,117,2|0,3:2|2:0,2:0:0:0:
134,182,57364,1,2,2:0:0:0:
84,273,57570,2,0,P|114:259|136:260,2,39,0|0|10,2:0|2:0|2:1,2:0:0:0:
134,182,57981,1,8,2:1:0:0:
195,341,58186,2,0,P|165:327|143:328,1,39,2|8,3:2|2:1,2:0:0:0:
160,327,58392,1,2,3:2:0:0:
329,255,58598,5,12,3:2:0:0:
497,181,58803,1,2,2:0:0:0:
367,166,59008,1,10,2:0:0:0:
470,281,59214,1,2,2:0:0:0:
350,172,59419,2,0,P|382:135|398:129,1,47.125,2|0,3:2|2:0,2:0:0:0:
448,294,59625,2,0,P|454:271|452:247,1,47.125,2|0,2:0|2:0,2:0:0:0:
379,123,59830,2,0,P|333:180|331:282,1,141.375,10|0,2:0|2:0,2:0:0:0:
329,255,60241,1,0,2:0:0:0:
106,299,60447,5,2,3:2:0:0:
106,299,60550,1,2,2:0:0:0:
106,299,60652,2,0,P|90:248|51:211,1,94.25,10|2,2:0|2:0,2:0:0:0:
39,121,61063,1,2,3:2:0:0:
47,129,61166,1,2,2:0:0:0:
57,135,61269,1,2,2:0:0:0:
68,139,61371,1,2,2:0:0:0:
80,141,61474,2,0,P|131:139|201:40,1,141.375,10|0,2:0|2:0,2:0:0:0:
182,65,61885,1,0,3:2:0:0:
245,208,62091,5,2,2:0:0:0:
245,208,62193,1,2,2:0:0:0:
245,208,62296,1,10,2:0:0:0:
118,255,62502,1,2,2:0:0:0:
198,300,62707,5,2,3:2:0:0:
147,134,62913,1,2,2:0:0:0:
313,83,63118,1,10,2:0:0:0:
313,83,63324,1,2,3:2:0:0:
364,249,63529,5,2,2:0:0:0:
186,215,63734,1,2,3:2:0:0:
237,49,63940,1,10,2:0:0:0:
237,49,64145,1,2,2:0:0:0:
399,96,64351,5,2,3:2:0:0:
257,163,64556,1,2,2:0:0:0:
114,233,64762,1,10,2:0:0:0:
114,233,64865,1,2,2:0:0:0:
114,233,64967,1,2,2:0:0:0:
114,233,65070,1,2,2:0:0:0:
114,233,65173,6,0,P|86:288|86:358,1,94.25,0|2,3:2|2:0,2:0:0:0:
256,325,65584,2,0,P|284:270|284:200,1,94.25,10|2,2:0|2:0,2:0:0:0:
122,106,65995,1,2,3:2:0:0:
293,149,66200,1,2,2:0:0:0:
204,173,66406,6,0,P|201:103|123:-22,1,188.5,10|0,2:0|2:0,2:0:0:0:
320,25,67022,1,2,3:2:0:0:
320,25,67228,2,0,P|292:80|292:150,1,94.25,10|2,2:0|2:0,2:0:0:0:
403,103,67639,1,2,3:2:0:0:
403,103,67741,1,2,2:0:0:0:
403,103,67844,1,2,2:0:0:0:
205,173,68050,6,0,P|246:257|254:350,1,188.5,10|0,2:0|3:2,2:0:0:0:
272,255,68666,1,2,2:0:0:0:
279,232,68769,1,2,2:0:0:0:
291,212,68871,1,10,2:0:0:0:
368,157,69077,1,2,2:0:0:0:
325,224,69282,1,2,3:2:0:0:
231,269,69488,1,2,2:0:0:0:
130,262,69693,1,10,2:0:0:0:
130,262,69899,1,2,3:2:0:0:
219,163,70104,5,2,2:0:0:0:
121,364,70310,1,2,3:2:0:0:
116,135,70515,1,10,2:0:0:0:
12,344,70721,1,2,3:2:0:0:
12,344,70926,2,0,L|-6:281,2,47.125,10|0|8,3:2|2:0|2:0,2:0:0:0:
275,381,71337,2,0,L|287:335,3,47.125,8|8|8|8,2:0|2:0|2:0|2:0,2:0:0:0:
307,330,71748,5,4,3:2:0:0:
295,229,71954,1,2,2:0:0:0:
214,293,72159,1,10,2:0:0:0:
381,237,72365,1,2,2:0:0:0:
313,119,72570,2,0,P|350:151|356:167,1,47.125,2|0,3:2|2:0,2:0:0:0:
388,296,72776,2,0,P|394:273|392:249,1,47.125,2|0,2:0|2:0,2:0:0:0:
362,148,72981,2,0,P|305:102|203:100,1,141.375,10|0,2:0|2:0,2:0:0:0:
229,104,73392,1,0,2:0:0:0:
113,267,73598,5,2,3:2:0:0:
113,267,73700,1,2,2:0:0:0:
113,267,73803,2,0,P|164:251|201:212,1,94.25,10|2,2:0|2:0,2:0:0:0:
209,376,74214,1,2,3:2:0:0:
201,368,74317,1,2,2:0:0:0:
195,358,74419,1,2,2:0:0:0:
191,347,74522,1,2,2:0:0:0:
189,335,74625,2,0,P|191:284|290:214,1,141.375,10|0,2:0|2:0,2:0:0:0:
265,233,75036,1,0,3:2:0:0:
179,140,75241,5,2,2:0:0:0:
179,140,75344,1,2,2:0:0:0:
179,140,75447,1,10,2:0:0:0:
299,86,75652,1,2,2:0:0:0:
220,61,75858,5,2,3:2:0:0:
349,167,76063,1,2,2:0:0:0:
178,252,76269,1,10,2:0:0:0:
178,252,76474,1,2,3:2:0:0:
246,164,76680,5,2,2:0:0:0:
307,309,76885,1,2,3:2:0:0:
142,363,77091,1,10,2:0:0:0:
142,363,77296,1,2,2:0:0:0:
317,319,77502,2,0,P|344:273|348:203,1,94.25,2|2,3:2|2:0,2:0:0:0:
76,180,77913,1,10,2:0:0:0:
76,180,78015,1,2,2:0:0:0:
76,180,78118,1,2,2:0:0:0:
76,180,78221,1,2,2:0:0:0:
76,180,78324,6,0,L|104:300,1,94.25,0|2,3:2|2:0,2:0:0:0:
224,99,78734,2,0,L|252:-21,1,94.25,10|2,2:0|2:0,2:0:0:0:
253,182,79145,1,2,3:2:0:0:
125,104,79351,1,2,2:0:0:0:
332,116,79556,6,0,P|284:196|275:289,1,188.5,10|0,2:0|2:0,2:0:0:0:
469,291,80173,1,2,3:2:0:0:
469,291,80378,2,0,P|425:334|358:356,1,94.25,10|2,2:0|2:0,2:0:0:0:
418,193,80789,1,2,3:2:0:0:
418,193,80892,1,2,2:0:0:0:
418,193,80995,1,2,2:0:0:0:
314,361,81200,6,0,P|224:335|150:279,1,188.5,10|4,2:0|3:2,2:0:0:0:
170,195,81817,1,2,2:0:0:0:
191,184,81919,1,2,2:0:0:0:
214,180,82022,1,10,2:0:0:0:
307,200,82228,1,2,2:0:0:0:
228,213,82433,1,2,3:2:0:0:
132,173,82639,1,2,2:0:0:0:
69,94,82844,1,10,2:0:0:0:
69,94,83050,1,2,2:0:0:0:
94,286,83255,5,4,3:2:0:0:
94,286,83461,1,2,2:0:0:0:
108,278,83563,1,2,2:0:0:0:
124,275,83666,1,10,2:0:0:0:
188,289,83871,1,2,2:0:0:0:
133,298,84077,1,2,3:2:0:0:
67,270,84282,1,2,2:0:0:0:
24,216,84488,1,10,2:0:0:0:
24,216,84693,1,2,2:0:0:0:
0,372,84899,5,4,3:2:0:0:
170,195,85104,1,2,2:0:0:0:
191,184,85207,1,2,2:0:0:0:
214,180,85310,1,10,2:0:0:0:
307,200,85515,1,2,2:0:0:0:
228,213,85721,1,2,3:2:0:0:
132,173,85926,1,2,2:0:0:0:
69,94,86132,1,10,2:0:0:0:
69,94,86337,1,2,2:0:0:0:
94,286,86543,5,6,3:2:0:0:
228,213,86748,5,6,3:2:0:0:
234,363,86954,5,6,3:2:0:0:
312,104,87159,5,6,3:2:0:0:
407,323,87365,5,6,3:2:0:0:
