osu file format v14

[General]
AudioFilename: audio.mp3
AudioLeadIn: 0
PreviewTime: 73062
Countdown: 0
SampleSet: Normal
StackLeniency: 0.7
Mode: 1
LetterboxInBreaks: 0
WidescreenStoryboard: 0

[Editor]
DistanceSpacing: 1.1
BeatDivisor: 4
GridSize: 4
TimelineZoom: 1

[Metadata]
Title:Holy Night
TitleUnicode:ホーリーナイト
Artist:Kugimiya Rie & Kitamura Eri
ArtistUnicode:釘宮理恵 & 喜多村英梨
Creator:Faputa
Version:Poii's Muzukashii
Source:とらドラ!
Tags:merry christmas xmas Poii Toradora! OST ending theme short version
BeatmapID:1445133
BeatmapSetID:682707

[Difficulty]
HPDrainRate:6
CircleSize:2
OverallDifficulty:4
ApproachRate:10
SliderMultiplier:1.4
SliderTickRate:2

[Events]
//Background and Video events
0,0,"Tora.jpg",0,60
//Break Periods
//Storyboard Layer 0 (Background)
//Storyboard Layer 1 (Fail)
//Storyboard Layer 2 (Pass)
//Storyboard Layer 3 (Foreground)
//Storyboard Sound Samples

[TimingPoints]
-574,545.454545454546,4,1,1,60,1,0
73607,-100,4,1,1,60,0,1
95426,-100,4,1,1,40,0,0

[HitObjects]
256,192,1062,5,8,0:0:0:0:
256,196,1607,5,8,0:0:0:0:
256,192,2698,1,0,0:0:0:0:
256,192,3789,1,0,0:0:0:0:
256,192,4880,1,8,0:0:0:0:
256,192,5426,1,8,0:0:0:0:
256,192,5971,1,4,0:0:0:0:
256,192,6244,1,8,0:0:0:0:
256,196,7335,1,0,0:0:0:0:
256,196,8153,1,0,0:0:0:0:
256,196,8426,1,0,0:0:0:0:
256,196,8698,1,8,0:0:0:0:
256,196,9244,1,0,0:0:0:0:
256,188,10335,1,0,0:0:0:0:
256,196,10880,1,8,0:0:0:0:
256,196,11153,1,8,0:0:0:0:
256,188,11426,1,0,0:0:0:0:
256,188,12516,1,0,0:0:0:0:
256,188,13062,1,8,0:0:0:0:
256,188,13607,1,8,0:0:0:0:
256,196,14153,1,8,0:0:0:0:
256,196,14698,1,0,0:0:0:0:
256,196,14971,1,8,0:0:0:0:
256,196,16062,1,0,0:0:0:0:
256,196,16880,1,8,0:0:0:0:
256,196,17426,1,8,0:0:0:0:
256,196,17698,1,8,0:0:0:0:
256,196,17971,1,0,0:0:0:0:
256,196,19062,1,0,0:0:0:0:
256,188,21244,5,8,0:0:0:0:
256,192,23426,1,0,0:0:0:0:
256,192,24516,1,8,0:0:0:0:
256,192,25607,1,0,0:0:0:0:
256,192,26698,1,0,0:0:0:0:
256,192,26835,1,0,0:0:0:0:
256,192,26971,1,0,0:0:0:0:
256,192,27244,1,8,0:0:0:0:
256,192,27516,1,8,0:0:0:0:
256,192,27789,1,12,0:0:0:0:
256,192,28335,1,8,0:0:0:0:
256,192,28880,1,0,0:0:0:0:
256,192,29153,1,0,0:0:0:0:
256,192,29426,1,8,0:0:0:0:
256,192,29971,1,0,0:0:0:0:
256,192,30516,1,8,0:0:0:0:
256,192,31062,1,8,0:0:0:0:
256,192,31335,1,0,0:0:0:0:
256,192,31607,1,0,0:0:0:0:
256,192,32153,1,0,0:0:0:0:
256,192,32698,1,8,0:0:0:0:
256,192,33244,1,8,0:0:0:0:
256,192,33516,1,0,0:0:0:0:
256,192,33789,1,8,0:0:0:0:
256,192,34335,1,0,0:0:0:0:
256,192,34880,1,8,0:0:0:0:
256,192,35426,1,0,0:0:0:0:
256,192,35698,1,8,0:0:0:0:
256,192,35971,1,0,0:0:0:0:
256,192,36516,1,12,0:0:0:0:
256,192,36789,1,0,0:0:0:0:
256,192,37062,1,8,0:0:0:0:
256,192,37335,1,0,0:0:0:0:
256,192,37880,1,8,0:0:0:0:
256,192,38426,1,8,0:0:0:0:
256,192,38698,1,8,0:0:0:0:
256,192,38971,1,0,0:0:0:0:
256,192,39244,1,8,0:0:0:0:
256,192,39516,1,0,0:0:0:0:
256,192,40062,1,8,0:0:0:0:
256,192,40880,1,0,0:0:0:0:
256,192,41153,1,0,0:0:0:0:
256,192,41426,1,8,0:0:0:0:
256,192,41698,1,8,0:0:0:0:
256,192,41971,1,0,0:0:0:0:
256,192,42244,1,8,0:0:0:0:
256,192,42789,1,8,0:0:0:0:
256,192,43062,1,8,0:0:0:0:
256,192,43335,1,0,0:0:0:0:
256,192,43607,1,8,0:0:0:0:
256,192,44153,1,0,0:0:0:0:
256,188,45244,5,0,0:0:0:0:
256,188,45789,1,8,0:0:0:0:
256,188,46335,1,0,0:0:0:0:
248,180,46880,1,8,0:0:0:0:
248,180,47153,1,8,0:0:0:0:
248,180,47426,1,0,0:0:0:0:
248,180,47698,1,0,0:0:0:0:
248,180,47971,1,8,0:0:0:0:
248,180,48244,1,0,0:0:0:0:
248,180,48789,1,8,0:0:0:0:
256,192,49607,1,0,0:0:0:0:
256,192,49880,1,8,0:0:0:0:
256,192,50698,1,8,0:0:0:0:
256,192,50971,1,0,0:0:0:0:
256,192,51244,1,0,0:0:0:0:
256,192,51516,1,8,0:0:0:0:
256,192,51789,1,0,0:0:0:0:
256,192,52335,1,8,0:0:0:0:
256,192,52880,1,8,0:0:0:0:
256,192,53153,1,0,0:0:0:0:
256,192,53426,1,8,0:0:0:0:
256,192,53562,1,8,0:0:0:0:
256,192,53698,1,8,0:0:0:0:
256,192,53971,1,0,0:0:0:0:
256,192,54516,1,8,0:0:0:0:
256,192,55062,1,0,0:0:0:0:
256,192,55607,1,8,0:0:0:0:
256,192,56153,1,8,0:0:0:0:
256,192,56698,1,8,0:0:0:0:
256,192,56971,1,0,0:0:0:0:
256,192,57244,1,8,0:0:0:0:
256,192,58335,1,0,0:0:0:0:
256,192,58880,1,8,0:0:0:0:
256,192,59153,1,8,0:0:0:0:
256,192,59426,1,0,0:0:0:0:
256,192,59971,1,8,0:0:0:0:
256,192,60516,1,8,0:0:0:0:
256,192,61062,1,0,0:0:0:0:
256,192,61607,1,8,0:0:0:0:
256,192,62426,1,0,0:0:0:0:
256,192,62698,1,0,0:0:0:0:
256,192,62971,1,8,0:0:0:0:
256,192,63244,1,8,0:0:0:0:
256,192,64062,1,8,0:0:0:0:
256,192,64335,1,8,0:0:0:0:
256,192,64607,1,8,0:0:0:0:
256,192,64880,1,0,0:0:0:0:
256,192,65426,1,8,0:0:0:0:
248,196,65971,1,0,0:0:0:0:
248,196,66516,1,8,0:0:0:0:
248,196,67062,1,0,0:0:0:0:
248,196,67607,1,8,0:0:0:0:
248,196,67880,1,8,0:0:0:0:
248,196,68153,1,0,0:0:0:0:
248,196,68698,1,8,0:0:0:0:
248,196,68971,1,0,0:0:0:0:
248,196,69244,1,8,0:0:0:0:
248,196,69789,1,8,0:0:0:0:
248,196,70335,1,0,0:0:0:0:
248,196,70607,1,0,0:0:0:0:
248,196,70880,1,8,0:0:0:0:
256,196,71426,1,8,0:0:0:0:
256,196,72516,1,0,0:0:0:0:
256,196,72789,1,0,0:0:0:0:
256,192,73062,1,8,0:0:0:0:
256,196,73198,1,8,0:0:0:0:
256,192,73335,1,8,0:0:0:0:
256,192,73607,1,4,0:0:0:0:
256,192,73880,1,8,0:0:0:0:
256,196,74971,1,0,0:0:0:0:
256,196,75516,1,8,0:0:0:0:
256,196,75789,1,0,0:0:0:0:
256,196,76062,1,0,0:0:0:0:
256,196,76335,1,8,0:0:0:0:
256,196,76607,1,0,0:0:0:0:
256,196,76880,1,8,0:0:0:0:
256,188,77698,1,0,0:0:0:0:
256,188,77971,1,0,0:0:0:0:
256,188,78244,1,0,0:0:0:0:
256,196,78516,1,8,0:0:0:0:
256,188,78789,1,8,0:0:0:0:
256,188,79062,1,0,0:0:0:0:
256,188,79607,1,8,0:0:0:0:
256,188,80153,1,0,0:0:0:0:
256,188,80698,1,8,0:0:0:0:
256,188,81244,1,8,0:0:0:0:
256,196,81789,1,8,0:0:0:0:
256,196,82062,1,8,0:0:0:0:
256,196,82335,1,0,0:0:0:0:
256,196,82607,1,8,0:0:0:0:
256,196,83698,1,0,0:0:0:0:
256,196,84244,1,8,0:0:0:0:
256,196,84516,1,0,0:0:0:0:
256,196,84789,1,0,0:0:0:0:
256,196,85062,1,8,0:0:0:0:
256,196,85335,1,8,0:0:0:0:
256,196,85607,1,0,0:0:0:0:
256,196,86426,1,0,0:0:0:0:
256,196,86698,1,0,0:0:0:0:
256,196,86971,1,0,0:0:0:0:
256,196,87244,1,8,0:0:0:0:
256,196,87789,1,0,0:0:0:0:
256,196,88062,1,0,0:0:0:0:
256,196,88335,1,8,0:0:0:0:
256,188,88607,1,8,0:0:0:0:
256,188,88880,1,0,0:0:0:0:
256,188,89426,1,8,0:0:0:0:
256,200,89971,1,0,0:0:0:0:
256,200,90244,1,0,0:0:0:0:
256,200,90516,1,8,0:0:0:0:
256,192,91062,1,4,0:0:0:0:
256,192,91607,1,8,0:0:0:0:
256,192,91880,1,0,0:0:0:0:
256,192,92153,1,8,0:0:0:0:
256,192,92698,1,8,0:0:0:0:
256,192,93244,1,4,0:0:0:0:
256,192,94335,1,8,0:0:0:0:
256,200,95426,1,12,0:0:0:0:
256,192,95971,1,8,0:0:0:0:
256,192,96516,1,0,0:0:0:0:
256,192,96789,1,0,0:0:0:0:
256,192,97062,1,8,0:0:0:0:
256,192,97607,1,0,0:0:0:0:
256,192,98152,1,8,0:0:0:0:
256,192,99243,1,8,0:0:0:0:
256,192,99789,1,0,0:0:0:0:
256,192,100334,1,8,0:0:0:0:
256,192,100880,1,8,0:0:0:0:
256,192,101153,1,0,0:0:0:0:
256,192,101426,1,8,0:0:0:0:
256,192,101971,1,0,0:0:0:0:
