osu file format v14

[General]
AudioFilename: audio.mp3
AudioLeadIn: 0
PreviewTime: 73062
Countdown: 0
SampleSet: Normal
StackLeniency: 0.7
Mode: 1
LetterboxInBreaks: 0
WidescreenStoryboard: 0

[Editor]
DistanceSpacing: 1
BeatDivisor: 4
GridSize: 4
TimelineZoom: 1

[Metadata]
Title:Holy Night
TitleUnicode:ホーリーナイト
Artist:Kugimiya Rie & Kitamura Eri
ArtistUnicode:釘宮理恵 & 喜多村英梨
Creator:Faputa
Version:Kantan
Source:とらドラ!
Tags:merry christmas xmas Poii Toradora! OST ending theme short version
BeatmapID:1443740
BeatmapSetID:682707

[Difficulty]
HPDrainRate:8
CircleSize:5
OverallDifficulty:2
ApproachRate:5
SliderMultiplier:1.4
SliderTickRate:1

[Events]
//Background and Video events
0,0,"Tora.jpg",0,60
//Break Periods
//Storyboard Layer 0 (Background)
//Storyboard Layer 1 (Fail)
//Storyboard Layer 2 (Pass)
//Storyboard Layer 3 (Foreground)
//Storyboard Sound Samples

[TimingPoints]
-574,545.454545454546,4,1,1,60,1,0
73607,-100,4,1,1,60,0,1
95426,-100,4,1,1,40,0,0

[HitObjects]
256,192,1607,5,8,0:0:0:0:
256,192,2699,1,0,0:0:0:0:
256,192,3789,1,2,0:0:0:0:
256,192,4880,1,2,0:0:0:0:
256,192,5971,1,4,0:0:0:0:
256,192,8153,1,2,0:0:0:0:
256,192,10335,1,0,0:0:0:0:
256,192,11426,1,0,0:0:0:0:
256,192,12517,1,2,0:0:0:0:
256,192,13608,1,2,0:0:0:0:
256,192,14699,1,0,0:0:0:0:
256,192,16880,1,2,0:0:0:0:
256,192,19062,1,0,0:0:0:0:
256,192,21244,1,2,0:0:0:0:
260,188,23426,1,0,0:0:0:0:
256,188,24516,1,8,0:0:0:0:
248,192,25607,1,0,0:0:0:0:
312,204,26698,1,8,0:0:0:0:
256,192,27789,1,6,0:0:0:0:
256,192,28335,1,0,0:0:0:0:
256,192,28880,1,2,0:0:0:0:
256,192,29971,1,0,0:0:0:0:
256,192,30517,1,2,0:0:0:0:
256,192,31062,1,0,0:0:0:0:
256,192,32153,1,0,0:0:0:0:
256,192,32699,1,0,0:0:0:0:
256,192,33244,1,2,0:0:0:0:
256,192,34335,1,0,0:0:0:0:
256,192,34880,1,2,0:0:0:0:
256,192,35426,1,2,0:0:0:0:
256,192,36517,1,6,0:0:0:0:
256,192,37608,1,0,0:0:0:0:
256,192,38699,1,2,0:0:0:0:
256,192,39244,1,2,0:0:0:0:
256,192,39789,1,0,0:0:0:0:
256,192,40880,1,0,0:0:0:0:
256,192,41971,1,2,0:0:0:0:
256,192,43062,1,0,0:0:0:0:
256,192,43608,1,8,0:0:0:0:
256,192,44153,1,2,0:0:0:0:
256,192,45244,1,0,0:0:0:0:
256,192,46335,1,2,0:0:0:0:
256,192,47426,1,0,0:0:0:0:
256,192,47971,1,2,0:0:0:0:
256,192,48517,1,0,0:0:0:0:
256,192,49608,1,0,0:0:0:0:
256,192,50699,1,2,0:0:0:0:
248,344,51244,1,0,0:0:0:0:
256,192,51789,1,2,0:0:0:0:
256,192,52880,1,2,0:0:0:0:
256,192,53426,1,8,0:0:0:0:
256,192,53971,1,0,0:0:0:0:
256,192,55062,1,0,0:0:0:0:
256,192,56153,1,2,0:0:0:0:
256,192,57244,1,8,0:0:0:0:
256,192,58335,1,0,0:0:0:0:
256,192,59426,1,2,0:0:0:0:
256,192,59971,1,0,0:0:0:0:
256,192,60517,1,0,0:0:0:0:
256,192,61608,1,2,0:0:0:0:
256,192,62699,1,0,0:0:0:0:
256,192,63789,1,2,0:0:0:0:
328,328,64335,1,0,0:0:0:0:
256,192,64880,1,0,0:0:0:0:
256,192,65971,1,2,0:0:0:0:
256,192,67062,1,0,0:0:0:0:
256,192,68153,1,0,0:0:0:0:
256,192,69244,1,2,0:0:0:0:
256,192,71426,1,2,0:0:0:0:
188,328,71971,1,2,0:0:0:0:
256,192,72517,1,0,0:0:0:0:
256,192,73062,1,0,0:0:0:0:
256,192,73608,1,6,0:0:0:0:
256,192,74699,1,0,0:0:0:0:
256,192,75789,1,2,0:0:0:0:
256,192,76335,1,2,0:0:0:0:
256,192,76880,1,0,0:0:0:0:
256,192,77971,1,0,0:0:0:0:
192,332,78516,1,2,0:0:0:0:
256,192,79062,1,2,0:0:0:0:
256,192,79607,1,0,0:0:0:0:
256,192,80153,1,0,0:0:0:0:
256,192,80699,1,2,0:0:0:0:
256,192,81244,1,2,0:0:0:0:
256,192,82335,1,2,0:0:0:0:
256,192,83426,1,0,0:0:0:0:
224,344,83971,1,0,0:0:0:0:
256,192,84517,1,2,0:0:0:0:
256,192,85062,1,2,0:0:0:0:
256,192,85608,1,0,0:0:0:0:
256,192,86699,1,2,0:0:0:0:
256,192,87244,1,8,0:0:0:0:
240,272,87789,1,0,0:0:0:0:
256,192,88880,1,2,0:0:0:0:
256,192,89426,1,0,0:0:0:0:
256,192,89971,1,2,0:0:0:0:
256,192,91062,1,4,0:0:0:0:
256,192,92153,1,2,0:0:0:0:
256,192,93244,1,4,0:0:0:0:
256,192,94335,1,2,0:0:0:0:
256,192,94880,1,8,0:0:0:0:
256,192,95426,1,4,0:0:0:0:
276,260,96516,1,2,0:0:0:0:
12,104,97607,1,0,0:0:0:0:
276,260,98698,1,2,0:0:0:0:
276,260,99789,1,0,0:0:0:0:
252,192,100880,1,2,0:0:0:0:
252,192,101426,1,8,0:0:0:0:
252,192,101971,1,2,0:0:0:0:
