osu file format v14

[General]
AudioFilename: audio.mp3
AudioLeadIn: 0
PreviewTime: 588
Countdown: 0
SampleSet: Soft
StackLeniency: 0.7
Mode: 0
LetterboxInBreaks: 0
WidescreenStoryboard: 1

[Editor]
DistanceSpacing: 1.2
BeatDivisor: 4
GridSize: 4
TimelineZoom: 1

[Metadata]
Title:Those Words I Want to Say
TitleUnicode:Those Words I Want to Say
Artist:KuensanP
ArtistUnicode:クエン酸P
Creator:bima fajar
Version:Normal
Source:家有大貓
Tags:nekojishi guardian cat sad music box jiā yǒu dà māo jia you da mao mau vn visual novel
BeatmapID:2202561
BeatmapSetID:1054077

[Difficulty]
HPDrainRate:3
CircleSize:4
OverallDifficulty:3
ApproachRate:4
SliderMultiplier:1.4
SliderTickRate:1

[Events]
//Background and Video events
0,0,"leopard cat.jpg",0,0
//Break Periods
//Storyboard Layer 0 (Background)
//Storyboard Layer 1 (Fail)
//Storyboard Layer 2 (Pass)
//Storyboard Layer 3 (Foreground)
//Storyboard Layer 4 (Overlay)
//Storyboard Sound Samples

[TimingPoints]
-2178,790.357636830666,4,2,0,20,1,0
588,-100,4,2,1,20,0,0

[Colours]
Combo1 : 255,128,0
Combo2 : 0,255,0
Combo3 : 128,0,255
Combo4 : 255,0,0
Combo5 : 0,0,255

[HitObjects]
62,192,588,6,0,L|145:192,1,70,0|8,0:0|0:0,0:0:0:0:
196,245,1378,1,0,0:0:0:0:
249,180,1773,1,0,0:0:0:0:
205,108,2168,1,0,0:0:0:0:
65,13,2959,1,2,0:0:0:0:
148,13,3354,1,2,0:0:0:0:
231,13,3749,6,0,L|314:12,1,70,0|8,0:0|0:0,0:0:0:0:
360,71,4540,1,0,0:0:0:0:
360,154,4935,1,0,0:0:0:0:
307,219,5330,1,0,0:0:0:0:
170,121,6120,5,2,0:0:0:0:
111,60,6515,1,2,0:0:0:0:
185,20,6911,2,0,L|276:20,1,70,0|8,0:0|0:0,0:0:0:0:
338,20,7701,1,0,0:0:0:0:
310,99,8096,1,0,0:0:0:0:
279,177,8491,2,0,P|232:186|185:174,1,70
142,133,9282,1,0,0:0:0:0:
184,60,9677,1,0,0:0:0:0:
276,201,10467,5,12,0:0:0:0:
238,275,10862,1,0,0:0:0:0:
186,208,11258,1,0,0:0:0:0:
138,277,11653,1,0,0:0:0:0:
89,208,12048,1,4,0:0:0:0:
296,350,13233,6,0,P|340:359|386:345,1,70,0|8,0:0|0:0,0:0:0:0:
360,270,14024,1,0,0:0:0:0:
323,194,14419,1,0,0:0:0:0:
252,148,14814,1,0,0:0:0:0:
168,148,15209,2,8,L|70:148,2,70
213,77,16395,2,0,L|302:77,1,70,8|8,0:0|0:0,0:0:0:0:
319,152,17185,5,0,0:0:0:0:
273,222,17580,1,0,0:0:0:0:
228,293,17976,2,4,L|134:293,2,70,4|4|0,0:0|0:0|0:0,0:0:0:0:
311,293,19161,1,0,0:0:0:0:
355,364,19556,6,0,L|452:364,1,70,0|8,0:0|0:0,0:0:0:0:
477,298,20347,1,0,0:0:0:0:
429,228,20742,1,0,0:0:0:0:
353,191,21137,1,0,0:0:0:0:
272,167,21532,2,4,L|174:167,2,70
343,123,22718,1,4,0:0:0:0:
422,151,23113,6,8,P|428:198|417:247,1,70,8|0,0:0|0:0,0:0:0:0:
385,294,23903,1,0,0:0:0:0:
301,294,24298,1,0,0:0:0:0:
216,294,24694,2,4,P|190:212|220:148,1,140
291,163,25879,6,0,P|305:205|298:241,1,70,0|8,0:0|0:0,0:0:0:0:
287,312,26670,1,0,0:0:0:0:
214,353,27065,1,0,0:0:0:0:
154,293,27460,1,0,0:0:0:0:
90,347,27855,1,2,0:0:0:0:
178,204,28645,5,0,0:0:0:0:
262,204,29041,6,0,L|354:204,1,70,0|8,0:0|0:0,0:0:0:0:
415,204,29831,1,0,0:0:0:0:
469,140,30226,1,0,0:0:0:0:
413,76,30621,1,0,0:0:0:0:
359,140,31017,1,2,0:0:0:0:
207,213,31807,5,0,0:0:0:0:
207,129,32202,6,0,P|201:92|215:53,1,70,0|8,0:0|0:0,0:0:0:0:
286,26,32992,1,0,0:0:0:0:
333,95,33388,1,0,0:0:0:0:
333,178,33783,2,0,P|333:222|312:263,1,70
280,317,34573,1,0,0:0:0:0:
200,342,34968,1,0,0:0:0:0:
101,205,35759,5,12,0:0:0:0:
25,168,36154,1,0,0:0:0:0:
88,112,36549,1,0,0:0:0:0:
16,68,36944,1,0,0:0:0:0:
90,28,37339,1,4,0:0:0:0:
233,115,38130,5,4,0:0:0:0:
233,198,38525,6,0,P|233:245|219:282,1,70,0|8,0:0|0:0,0:0:0:0:
156,313,39315,1,0,0:0:0:0:
72,325,39710,1,0,0:0:0:0:
17,260,40106,1,0,0:0:0:0:
17,176,40501,2,4,P|17:135|32:104,2,70
90,215,41686,1,4,0:0:0:0:
171,234,42082,5,8,0:0:0:0:
215,162,42477,1,0,0:0:0:0:
178,86,42872,1,0,0:0:0:0:
119,26,43267,2,4,P|77:16|35:35,1,70
28,103,44057,1,0,0:0:0:0:
78,170,44453,1,0,0:0:0:0:
143,222,44848,6,0,P|168:251|217:250,1,70,0|8,0:0|0:0,0:0:0:0:
281,256,45638,1,0,0:0:0:0:
327,186,46033,1,0,0:0:0:0:
313,103,46428,1,12,0:0:0:0:
262,35,46824,1,4,0:0:0:0:
247,202,47614,5,0,0:0:0:0:
317,246,48009,1,0,0:0:0:0:
329,329,48404,2,0,P|290:351|245:351,2,70,4|0|0,0:0|0:0|0:0,0:0:0:0:
388,269,49590,1,0,0:0:0:0:
388,185,49985,1,2,0:0:0:0:
388,185,51566,6,0,L|333:262,1,70,12|0,0:0|0:0,0:0:0:0:
286,183,52356,1,0,0:0:0:0:
258,262,52751,1,0,0:0:0:0:
181,226,53147,2,4,P|156:203|156:153,2,70
257,190,54332,2,0,L|313:123,1,70,4|8,0:0|0:0,0:0:0:0:
342,62,55122,5,0,0:0:0:0:
268,20,55518,1,0,0:0:0:0:
229,94,55913,1,4,0:0:0:0:
172,32,56308,1,4,0:0:0:0:
242,183,57098,5,2,0:0:0:0:
318,218,57494,1,2,0:0:0:0:
359,291,57889,2,0,L|299:352,1,70,12|0,0:0|0:0,0:0:0:0:
242,290,58679,1,0,0:0:0:0:
183,350,59074,1,0,0:0:0:0:
123,290,59469,2,4,P|90:262|90:217,2,70
186,235,60655,2,0,L|220:153,1,70,4|8,0:0|0:0,0:0:0:0:
152,111,61445,5,0,0:0:0:0:
196,39,61840,1,0,0:0:0:0:
115,13,62236,1,4,0:0:0:0:
73,86,62631,1,4,0:0:0:0:
192,204,63421,5,0,0:0:0:0:
275,204,63816,6,0,L|355:204,1,70,0|8,0:0|0:0,0:0:0:0:
429,204,64607,1,0,0:0:0:0:
479,271,65002,1,0,0:0:0:0:
404,308,65397,2,0,L|334:344,1,70,0|8,0:0|0:0,0:0:0:0:
272,292,66187,1,0,0:0:0:0:
223,222,66583,1,0,0:0:0:0:
186,146,66978,6,0,P|227:125|274:125,1,70,0|8,0:0|0:0,0:0:0:0:
334,122,67768,1,0,0:0:0:0:
378,193,68163,1,0,0:0:0:0:
350,272,68559,1,0,0:0:0:0:
302,341,68954,2,0,P|261:358|216:338,1,70,8|0,0:0|0:0,0:0:0:0:
181,290,69744,1,0,0:0:0:0:
152,210,70139,1,0,0:0:0:0:
204,144,70534,6,0,L|146:86,1,70,12|0,0:0|0:0,0:0:0:0:
212,33,71325,1,0,0:0:0:0:
269,94,71720,1,0,0:0:0:0:
319,161,72115,2,0,P|323:210|310:250,2,70
269,94,73301,1,0,0:0:0:0:
212,32,73696,1,2,0:0:0:0:
420,38,75277,5,8,0:0:0:0:
252,38,76067,1,0,0:0:0:0:
252,121,76462,2,0,L|252:217,1,70,0|8,0:0|0:0,0:0:0:0:
252,274,77252,1,0,0:0:0:0:
329,241,77648,1,0,0:0:0:0:
329,157,78043,1,0,0:0:0:0:
193,58,78833,5,2,0:0:0:0:
143,125,79228,1,2,0:0:0:0:
209,177,79624,6,0,L|273:114,1,70,0|8,0:0|0:0,0:0:0:0:
327,79,80414,1,0,0:0:0:0:
375,147,80809,1,0,0:0:0:0:
376,230,81204,1,0,0:0:0:0:
257,348,81995,5,2,0:0:0:0:
173,348,82390,1,2,0:0:0:0:
109,292,82785,6,0,L|45:228,1,70,0|8,0:0|0:0,0:0:0:0:
15,170,83575,1,0,0:0:0:0:
81,119,83970,1,0,0:0:0:0:
137,181,84366,2,0,P|159:217|215:222,1,70
245,170,85156,1,0,0:0:0:0:
311,221,85551,1,0,0:0:0:0:
425,97,86342,5,8,0:0:0:0:
360,42,86737,1,0,0:0:0:0:
306,106,87132,1,0,0:0:0:0:
248,44,87527,1,0,0:0:0:0:
192,107,87922,1,4,0:0:0:0:
70,328,89108,6,0,L|172:328,1,70,0|8,0:0|0:0,0:0:0:0:
223,327,89898,1,0,0:0:0:0:
286,272,90293,1,0,0:0:0:0:
284,187,90689,1,0,0:0:0:0:
219,132,91084,2,4,L|125:132,2,70
302,132,92269,2,0,L|396:132,1,70,4|8,0:0|0:0,0:0:0:0:
456,132,93060,5,0,0:0:0:0:
456,215,93455,1,0,0:0:0:0:
456,298,93850,2,4,L|362:298,1,70
302,298,94640,1,0,0:0:0:0:
218,298,95035,1,0,0:0:0:0:
133,298,95431,6,0,P|106:264|106:218,1,70,0|8,0:0|0:0,0:0:0:0:
102,154,96221,1,0,0:0:0:0:
147,83,96616,1,0,0:0:0:0:
208,140,97011,1,0,0:0:0:0:
267,199,97407,6,4,L|326:258,2,70
271,115,98592,1,4,0:0:0:0:
353,129,98987,2,0,L|413:189,1,70,8|0,0:0|0:0,0:0:0:0:
462,238,99778,1,0,0:0:0:0:
406,300,100173,1,0,0:0:0:0:
326,271,100568,1,4,0:0:0:0:
255,118,101358,5,0,0:0:0:0:
170,118,101754,6,0,L|81:118,1,70,0|8,0:0|0:0,0:0:0:0:
16,118,102544,1,0,0:0:0:0:
50,194,102939,1,0,0:0:0:0:
133,194,103334,1,0,0:0:0:0:
216,194,103729,1,2,0:0:0:0:
84,89,104520,5,0,0:0:0:0:
167,89,104915,2,0,L|255:89,1,70,0|8,0:0|0:0,0:0:0:0:
320,89,105705,1,0,0:0:0:0:
381,146,106100,1,0,0:0:0:0:
378,230,106496,1,0,0:0:0:0:
314,284,106891,1,2,0:0:0:0:
210,151,107681,5,0,0:0:0:0:
210,234,108076,2,0,L|210:328,1,70,0|8,0:0|0:0,0:0:0:0:
143,356,108867,1,0,0:0:0:0:
73,308,109262,1,0,0:0:0:0:
73,224,109657,2,0,P|73:177|94:135,1,70
136,92,110447,1,0,0:0:0:0:
70,39,110843,1,0,0:0:0:0:
199,145,111633,5,8,0:0:0:0:
233,221,112028,1,0,0:0:0:0:
291,161,112423,1,0,0:0:0:0:
329,235,112819,1,0,0:0:0:0:
388,175,113214,1,4,0:0:0:0:
388,7,114004,5,4,0:0:0:0:
304,7,114399,6,0,L|209:7,1,70,0|8,0:0|0:0,0:0:0:0:
149,7,115190,1,0,0:0:0:0:
89,66,115585,1,0,0:0:0:0:
89,149,115980,1,0,0:0:0:0:
89,232,116375,2,4,L|89:326,2,70
173,232,117561,2,0,L|173:318,1,70,4|8,0:0|0:0,0:0:0:0:
256,302,118351,5,0,0:0:0:0:
339,302,118746,1,0,0:0:0:0:
422,302,119141,2,4,P|442:263|433:209,1,70
420,156,119932,1,0,0:0:0:0:
355,102,120327,1,0,0:0:0:0:
300,165,120722,6,0,P|260:182|206:171,1,70,0|8,0:0|0:0,0:0:0:0:
150,181,121512,1,0,0:0:0:0:
107,108,121908,1,0,0:0:0:0:
158,41,122303,1,4,0:0:0:0:
74,41,122698,1,4,0:0:0:0:
241,41,123488,5,0,0:0:0:0:
282,114,123884,1,0,0:0:0:0:
316,190,124279,2,0,L|297:274,1,70,8|0,0:0|0:0,0:0:0:0:
249,325,125069,1,0,0:0:0:0:
188,382,125464,1,0,0:0:0:0:
119,333,125859,1,2,0:0:0:0:
455,333,127440,6,0,L|375:287,1,70,8|0,0:0|0:0,0:0:0:0:
415,216,128231,1,0,0:0:0:0:
353,158,128626,1,0,0:0:0:0:
353,74,129021,2,4,P|312:59|261:70,2,70
422,121,130206,2,0,L|422:204,1,70,4|8,0:0|0:0,0:0:0:0:
422,275,130997,5,0,0:0:0:0:
369,340,131392,1,0,0:0:0:0:
308,281,131787,1,0,0:0:0:0:
245,337,132182,1,0,0:0:0:0:
77,345,132973,5,0,0:0:0:0:
129,279,133368,1,0,0:0:0:0:
129,195,133763,6,0,L|220:165,1,70,8|0,0:0|0:0,0:0:0:0:
274,143,134553,1,0,0:0:0:0:
217,80,134949,1,0,0:0:0:0:
147,33,135344,2,4,P|103:17|71:36,2,70
217,80,136529,2,0,L|193:175,1,70,4|8,0:0|0:0,0:0:0:0:
179,229,137320,1,0,0:0:0:0:
205,308,137715,1,0,0:0:0:0:
280,344,138110,1,4,0:0:0:0:
280,260,138505,1,4,0:0:0:0:
280,91,139296,5,0,0:0:0:0:
196,91,139691,2,0,L|105:91,1,70,0|8,0:0|0:0,0:0:0:0:
42,91,140481,1,0,0:0:0:0:
42,174,140876,1,0,0:0:0:0:
42,257,141271,2,0,L|111:325,1,70,0|8,0:0|0:0,0:0:0:0:
170,277,142062,5,0,0:0:0:0:
215,347,142457,1,0,0:0:0:0:
298,347,142852,6,0,P|333:312|331:264,1,70,0|8,0:0|0:0,0:0:0:0:
270,242,143642,1,0,0:0:0:0:
270,157,144038,1,0,0:0:0:0:
353,157,144433,1,0,0:0:0:0:
436,157,144828,6,0,L|436:243,1,70,8|0,0:0|0:0,0:0:0:0:
436,310,145618,1,0,0:0:0:0:
361,350,146014,2,0,P|317:361|277:328,1,70,0|8,0:0|0:0,0:0:0:0:
236,293,146804,5,0,0:0:0:0:
203,215,147199,1,0,0:0:0:0:
170,137,147594,2,0,P|198:117|231:105,2,70
110,196,148780,1,0,0:0:0:0:
110,279,149175,1,0,0:0:0:0:
110,362,149570,1,2,0:0:0:0:
400,193,151151,5,8,0:0:0:0:
232,193,151941,1,0,0:0:0:0:
256,192,152732,12,0,161426,0:0:0:0:
