osu file format v14

[General]
AudioFilename: audio.mp3
AudioLeadIn: 0
PreviewTime: 2533
Countdown: 0
SampleSet: Soft
StackLeniency: 0.3
Mode: 0
LetterboxInBreaks: 0
WidescreenStoryboard: 0

[Editor]
DistanceSpacing: 1
BeatDivisor: 4
GridSize: 8
TimelineZoom: 0.8

[Metadata]
Title:A Sunny Day is Watching over You (Sad)
TitleUnicode:A Sunny Day is Watching over You (Sad)
Artist:KuensanP
ArtistUnicode:クエン酸P
Creator:Joe Castle
Version:Solitude
Source:家有大貓
Tags:-Harpuia- Nekojishi Original Soundtrack Orange Juice Dog Triodust Ju Tou San Chi Tian Qi Qing Piano Visual Novel VN Yaoi Furry
BeatmapID:1572604
BeatmapSetID:708607

[Difficulty]
HPDrainRate:6
CircleSize:5.3
OverallDifficulty:6
ApproachRate:6.5
SliderMultiplier:1.4
SliderTickRate:1

[Events]
//Background and Video events
0,0,"Nekojishi isnt that good.jpg",0,0
//Break Periods
//Storyboard Layer 0 (Background)
//Storyboard Layer 1 (Fail)
//Storyboard Layer 2 (Pass)
//Storyboard Layer 3 (Foreground)
//Storyboard Sound Samples

[TimingPoints]
2533.42126732119,600,4,2,1,20,1,0
48733,-100,4,2,1,15,0,0
49333,-100,4,2,1,10,0,0
49933,-100,4,2,1,5,0,0

[Colours]
Combo1 : 128,64,0
Combo2 : 0,64,0
Combo3 : 0,128,128
Combo4 : 128,128,0

[HitObjects]
35,374,1033,6,0,P|75:358|107:270,1,140,2|2,0:0|0:0,0:0:0:0:
83,206,1933,1,2,0:0:0:0:
197,47,2533,6,0,P|245:47|277:15,1,70,2|0,0:0|0:0,0:0:0:0:
322,0,3133,1,0,0:0:0:0:
325,69,3433,2,0,P|339:113|441:157,1,140,2|2,0:0|0:0,0:0:0:0:
486,165,4333,1,2,0:0:0:0:
438,353,4933,6,0,L|368:360,1,70,2|0,0:0|0:0,0:0:0:0:
301,339,5533,2,0,L|231:332,1,70
167,360,6133,1,2,0:0:0:0:
12,239,6733,1,2,0:0:0:0:
194,165,7333,6,0,P|201:130|194:96,1,70,2|0,0:0|0:0,0:0:0:0:
132,63,7933,2,0,P|124:96|130:130,1,70,2|0,0:0|0:0,0:0:0:0:
132,201,8533,2,0,P|178:235|265:184,1,140,2|2,0:0|0:0,0:0:0:0:
298,158,9433,1,2,0:0:0:0:
344,210,9733,6,0,P|393:205|430:218,2,70
294,259,10633,1,2,0:0:0:0:
265,323,10933,1,2,0:0:0:0:
203,356,11233,2,0,P|177:369|79:324,1,140,2|0,0:0|0:0,0:0:0:0:
36,277,12133,6,0,L|34:201,1,70,2|0,0:0|0:0,0:0:0:0:
77,151,12733,2,0,L|84:75,1,70,2|0,0:0|0:0,0:0:0:0:
129,28,13333,1,2,0:0:0:0:
324,14,13933,1,2,0:0:0:0:
293,76,14233,1,2,0:0:0:0:
363,71,14533,6,0,P|410:64|445:81,2,70
332,134,15433,1,2,0:0:0:0:
295,193,15733,1,2,0:0:0:0:
308,262,16033,2,0,P|324:304|413:336,1,140,2|2,0:0|0:0,0:0:0:0:
470,367,16933,6,0,P|476:332|465:301,1,70,2|0,0:0|0:0,0:0:0:0:
429,239,17533,2,0,P|423:204|434:173,1,70,2|0,0:0|0:0,0:0:0:0:
483,122,18133,1,2,0:0:0:0:
324,6,18733,1,2,0:0:0:0:
286,64,19033,1,0,0:0:0:0:
216,59,19333,6,0,P|183:70|149:64,1,70,2|0,0:0|0:0,0:0:0:0:
95,109,19933,1,0,0:0:0:0:
101,178,20233,1,2,0:0:0:0:
142,236,20533,1,2,0:0:0:0:
136,305,20833,1,2,0:0:0:0:
325,356,21433,1,2,0:0:0:0:
297,291,21733,6,0,P|290:256|297:222,1,70,2|0,0:0|0:0,0:0:0:0:
330,162,22333,1,0,0:0:0:0:
283,110,22633,2,0,P|245:124|159:72,1,140,2|2,0:0|0:0,0:0:0:0:
145,13,23533,1,2,0:0:0:0:
330,75,24133,6,0,P|342:110|331:145,1,70,2|0,0:0|0:0,0:0:0:0:
289,195,24733,2,0,P|280:228|292:260,1,70
322,324,25333,1,2,0:0:0:0:
504,250,25933,1,2,0:0:0:0:
349,131,26533,6,0,P|318:123|282:136,1,70,2|0,0:0|0:0,0:0:0:0:
225,174,27133,2,0,P|194:182|158:169,1,70,2|0,0:0|0:0,0:0:0:0:
125,108,27733,2,0,P|94:145|122:229,1,140,2|2,0:0|0:0,0:0:0:0:
147,290,28633,1,2,0:0:0:0:
120,354,28933,6,0,L|51:365,2,70
189,343,29833,1,2,0:0:0:0:
259,354,30133,1,2,0:0:0:0:
327,342,30433,2,0,P|385:291|389:226,1,140,2|0,0:0|0:0,0:0:0:0:
364,167,31333,6,0,P|356:132|362:99,1,70,2|0,0:0|0:0,0:0:0:0:
424,65,31933,2,0,P|432:98|425:132,1,70,2|0,0:0|0:0,0:0:0:0:
364,167,32533,1,2,0:0:0:0:
197,62,33133,1,2,0:0:0:0:
143,107,33433,1,2,0:0:0:0:
135,177,33733,6,0,P|118:247|69:267,1,70
69,289,34333,2,0,L|77:360,1,70,2|0,0:0|0:0,0:0:0:0:
146,363,34933,2,0,P|220:338|245:264,1,140,2|2,0:0|0:0,0:0:0:0:
415,188,36133,6,0,P|407:221|414:255,2,70,2|0|0,0:0|0:0|0:0,0:0:0:0:
465,138,37033,2,0,B|435:110|397:120|397:120|360:127|336:103,1,140,0|2,0:0|0:0,0:0:0:0:
150,38,38233,1,2,0:0:0:0:
113,97,38533,6,0,L|106:166,1,70
77,231,39133,2,0,L|85:320,1,70,2|0,0:0|0:0,0:0:0:0:
140,342,39733,1,2,0:0:0:0:
209,347,40033,1,2,0:0:0:0:
271,315,40333,1,0,0:0:0:0:
295,249,40633,1,0,0:0:0:0:
360,225,40933,6,0,P|393:216|427:224,1,70,2|0,0:0|0:0,0:0:0:0:
461,285,41533,2,0,P|428:294|394:286,1,70,2|0,0:0|0:0,0:0:0:0:
360,225,42133,2,0,P|339:150|358:85,1,140,2|2,0:0|0:0,0:0:0:0:
298,49,43033,1,2,0:0:0:0:
234,78,43333,5,0,0:0:0:0:
175,265,43933,2,0,P|114:286|35:258,2,140,2|2|2,0:0|0:0|0:0,0:0:0:0:
222,213,45433,1,2,0:0:0:0:
380,328,46033,5,0,0:0:0:0:
338,272,46333,2,0,L|331:202,1,70,2|0,0:0|0:0,0:0:0:0:
388,161,46933,2,0,L|394:91,1,70,2|0,0:0|0:0,0:0:0:0:
357,32,47533,1,2,0:0:0:0:
290,13,47833,1,0,0:0:0:0:
223,31,48133,5,2,0:0:0:0:
256,192,48283,12,0,50233,0:0:0:0:
