osu file format v14

[General]
AudioFilename: audio.mp3
AudioLeadIn: 0
PreviewTime: 2533
Countdown: 0
SampleSet: Soft
StackLeniency: 0.3
Mode: 0
LetterboxInBreaks: 0
WidescreenStoryboard: 0

[Editor]
Bookmarks: 2537,12137,21737,31337,40937
DistanceSpacing: 1
BeatDivisor: 4
GridSize: 8
TimelineZoom: 0.8

[Metadata]
Title:A Sunny Day is Watching over You (Sad)
TitleUnicode:A Sunny Day is Watching over You (Sad)
Artist:KuensanP
ArtistUnicode:クエン酸P
Creator:Joe Castle
Version:Collab Normal
Source:家有大貓
Tags:-Harpuia- Nekojishi Original Soundtrack Orange Juice Dog Triodust Ju Tou San Chi Tian Qi Qing Piano Visual Novel VN Yaoi Furry
BeatmapID:1498016
BeatmapSetID:708607

[Difficulty]
HPDrainRate:4
CircleSize:4.2
OverallDifficulty:5
ApproachRate:5
SliderMultiplier:1.2
SliderTickRate:1

[Events]
//Background and Video events
0,0,"Nekojishi isnt that good.jpg",0,0
//Break Periods
//Storyboard Layer 0 (Background)
//Storyboard Layer 1 (Fail)
//Storyboard Layer 2 (Pass)
//Storyboard Layer 3 (Foreground)
//Storyboard Sound Samples

[TimingPoints]
2533.42126732119,600,4,2,1,20,1,0
48733,-100,4,2,1,15,0,0
49333,-100,4,2,1,10,0,0
49933,-100,4,2,1,5,0,0

[Colours]
Combo1 : 128,64,0
Combo2 : 0,64,0
Combo3 : 0,128,128
Combo4 : 128,128,0

[HitObjects]
50,323,1033,6,0,P|110:330|170:280,1,120,2|2,0:0|0:0,0:0:0:0:
194,251,1933,1,2,0:0:0:0:
288,325,2533,6,0,L|298:188,1,120,2|0,0:0|0:0,0:0:0:0:
308,146,3433,2,0,P|357:103|431:108,1,120,2|2,0:0|0:0,0:0:0:0:
467,117,4333,1,2,0:0:0:0:
397,214,4933,2,0,L|412:353,1,120,2|0,0:0|0:0,0:0:0:0:
369,378,5833,1,0,0:0:0:0:
309,384,6133,2,0,P|249:386|188:355,1,120,2|2,0:0|0:0,0:0:0:0:
209,241,7333,6,0,P|148:243|102:281,2,120,2|2|2,0:0|0:0|0:0,0:0:0:0:
323,275,9133,2,0,P|328:232|312:192,1,60,2|2,0:0|0:0,0:0:0:0:
312,157,9733,2,0,P|309:98|368:45,1,120
403,33,10633,1,2,0:0:0:0:
458,56,10933,1,2,0:0:0:0:
480,111,11233,2,0,P|483:170|424:223,1,120,2|0,0:0|0:0,0:0:0:0:
394,246,12133,6,0,P|338:227|280:239,2,120,2|2|2,0:0|0:0|0:0,0:0:0:0:
449,353,13933,2,0,P|478:333|500:300,1,60,2|2,0:0|0:0,0:0:0:0:
506,255,14533,2,0,P|489:176|438:138,1,120
408,125,15433,1,2,0:0:0:0:
348,128,15733,1,2,0:0:0:0:
302,167,16033,2,0,P|245:185|188:169,1,120,2|2,0:0|0:0,0:0:0:0:
139,135,16933,6,0,P|82:117|27:134,2,120,2|2|2,0:0|0:0|0:0,0:0:0:0:
138,255,18733,1,2,0:0:0:0:
243,198,19333,2,0,P|313:166|412:207,1,180,2|2,0:0|0:0,0:0:0:0:
441,247,20533,1,2,0:0:0:0:
437,306,20833,2,0,L|305:284,1,120,2|2,0:0|0:0,0:0:0:0:
259,278,21733,6,0,P|196:265|166:218,1,120,2|0,0:0|0:0,0:0:0:0:
161,162,22633,2,0,P|174:111|148:42,1,120,2|2,0:0|0:0,0:0:0:0:
103,14,23533,1,2,0:0:0:0:
35,113,24133,2,0,L|46:245,1,120,2|0,0:0|0:0,0:0:0:0:
44,292,25033,1,0,0:0:0:0:
79,340,25333,2,0,P|138:341|189:312,1,120,2|2,0:0|0:0,0:0:0:0:
248,206,26533,6,0,P|296:243|311:301,2,120,2|2|2,0:0|0:0|0:0,0:0:0:0:
130,179,28333,2,0,P|150:134|178:115,1,60,2|2,0:0|0:0,0:0:0:0:
207,94,28933,2,0,P|275:93|341:129,1,120
357,162,29833,1,2,0:0:0:0:
367,221,30133,1,2,0:0:0:0:
344,276,30433,2,0,P|313:308|229:326,1,120,2|0,0:0|0:0,0:0:0:0:
184,311,31333,6,0,P|119:295|64:314,2,120,2|2|2,0:0|0:0|0:0,0:0:0:0:
247,208,33133,2,0,P|242:170|221:137,1,60,2|2,0:0|0:0,0:0:0:0:
194,104,33733,2,0,L|208:26,1,60
263,31,34333,2,0,P|322:47|393:19,2,120,2|2|2,0:0|0:0|0:0,0:0:0:0:
197,131,36133,6,0,P|138:115|67:143,1,120,2|0,0:0|0:0,0:0:0:0:
39,172,37033,2,0,L|39:305,1,120,0|2,0:0|0:0,0:0:0:0:
144,233,38233,1,2,0:0:0:0:
196,262,38533,2,0,L|267:262,1,60
309,235,39133,2,0,L|380:235,1,60,2|0,0:0|0:0,0:0:0:0:
422,208,39733,1,2,0:0:0:0:
474,179,40033,2,0,L|474:59,1,120,2|0,0:0|0:0,0:0:0:0:
425,24,40933,6,0,P|364:9|304:27,2,120,2|2|2,0:0|0:0|0:0,0:0:0:0:
367,129,42733,2,0,L|367:212,1,60,2|2,0:0|0:0,0:0:0:0:
367,249,43333,1,0,0:0:0:0:
277,328,43933,2,0,L|277:200,1,120,2|2,0:0|0:0,0:0:0:0:
367,129,45133,1,2,0:0:0:0:
308,115,45433,2,0,P|242:117|193:155,1,120,2|0,0:0|0:0,0:0:0:0:
171,200,46333,5,2,0:0:0:0:
128,241,46633,1,0,0:0:0:0:
71,260,46933,2,0,P|26:252|0:225,1,60,2|0,0:0|0:0,0:0:0:0:
5,185,47533,2,0,L|7:101,1,60,2|0,0:0|0:0,0:0:0:0:
26,68,48133,1,2,0:0:0:0:
256,192,48283,12,0,50233,0:0:0:0:
