osu file format v14

[General]
AudioFilename: audio.mp3
AudioLeadIn: 0
PreviewTime: 40174
Countdown: 0
SampleSet: Normal
StackLeniency: 0.7
Mode: 1
LetterboxInBreaks: 0
WidescreenStoryboard: 0

[Editor]
DistanceSpacing: 1.2
BeatDivisor: 4
GridSize: 32
TimelineZoom: 1.8

[Metadata]
Title:Nilgiri
TitleUnicode:ニルギリ
Artist:Kudou Chitose
ArtistUnicode:久遠千歳
Creator:_Rise
Version:senfla's Inner Oni
Source:
Tags:taiko_ryuki senfla nyanmi-1828 vtuber virtual youtuber バーチャルyoutuber 2434 Nijisanji にじさんじ 宇志海いちご Ushimi Ichigo 雨森小夜 Amemori Sayo ハチ hachi 抱きしめたトゥナイト dakishimeta tonight らさ lasah japanese pop 23- jpop j-pop cover
BeatmapID:2417245
BeatmapSetID:1158131

[Difficulty]
HPDrainRate:6
CircleSize:5
OverallDifficulty:5.5
ApproachRate:5
SliderMultiplier:1.4
SliderTickRate:1

[Events]
//Background and Video events
0,0,"bg.jpg",0,50
//Break Periods
//Storyboard Layer 0 (Background)
//Storyboard Layer 1 (Fail)
//Storyboard Layer 2 (Pass)
//Storyboard Layer 3 (Foreground)
//Storyboard Layer 4 (Overlay)
//Storyboard Sound Samples

[TimingPoints]
2323,480,4,1,0,65,1,0
9514,480,4,1,0,65,1,8
9514,-96.1538461538461,4,1,0,65,0,0
9754,-94.3396226415094,4,1,0,65,0,0
9874,-92.5925925925926,4,1,0,65,0,0
9994,480,4,1,0,75,1,0
9994,-90.9090909090909,4,1,0,75,0,0
39754,-89.2857142857143,4,1,0,75,0,0
39874,-88.4955752212389,4,1,0,75,0,0
39994,-87.719298245614,4,1,0,75,0,0
40114,-86.9565217391304,4,1,0,75,0,0
40234,-86.2068965517241,4,1,0,75,0,0
40354,-85.4700854700855,4,1,0,75,0,0
40474,-84.7457627118644,4,1,0,75,0,0
40594,-84.0336134453781,4,1,0,75,0,0
40709,480,4,1,0,85,1,1
40709,-83.3333333333333,4,1,0,85,0,1
71429,-83.3333333333333,4,1,0,75,0,0
71915,480,4,1,0,75,1,8
71915,-90.9090909090909,4,1,0,75,0,0
73355,480,4,1,0,65,1,0
73355,-100,4,1,0,65,0,0

[HitObjects]
248,192,2323,5,0,0:0:0:0:
248,192,2563,1,0,0:0:0:0:
248,192,3283,1,0,0:0:0:0:
248,192,3523,1,0,0:0:0:0:
248,192,4243,1,2,0:0:0:0:
248,192,4483,1,2,0:0:0:0:
248,192,5203,1,2,0:0:0:0:
248,192,5443,1,2,0:0:0:0:
248,192,6163,1,0,0:0:0:0:
248,192,6403,1,0,0:0:0:0:
248,192,7123,1,0,0:0:0:0:
248,192,7363,1,0,0:0:0:0:
248,192,8083,1,2,0:0:0:0:
248,192,8323,1,2,0:0:0:0:
248,192,9043,1,2,0:0:0:0:
248,192,9283,1,2,0:0:0:0:
248,192,9514,1,0,0:0:0:0:
248,192,9754,1,2,0:0:0:0:
248,192,9874,1,2,0:0:0:0:
248,192,9994,1,0,0:0:0:0:
248,192,10234,1,0,0:0:0:0:
248,192,10474,1,2,0:0:0:0:
248,192,10834,1,2,0:0:0:0:
248,192,10954,1,0,0:0:0:0:
248,192,11194,1,0,0:0:0:0:
248,192,11434,1,2,0:0:0:0:
248,192,11794,1,0,0:0:0:0:
248,192,11914,1,0,0:0:0:0:
248,192,12154,1,2,0:0:0:0:
248,192,12274,1,2,0:0:0:0:
248,192,12394,1,2,0:0:0:0:
248,192,12634,1,0,0:0:0:0:
248,192,12874,1,2,0:0:0:0:
248,192,13114,1,2,0:0:0:0:
248,192,13234,1,2,0:0:0:0:
248,192,13354,1,0,0:0:0:0:
248,192,13594,1,2,0:0:0:0:
248,192,13834,1,0,0:0:0:0:
248,192,14074,1,0,0:0:0:0:
248,192,14314,1,2,0:0:0:0:
248,192,14674,1,2,0:0:0:0:
248,192,14794,1,0,0:0:0:0:
248,192,15034,1,0,0:0:0:0:
248,192,15274,1,2,0:0:0:0:
248,192,15634,1,0,0:0:0:0:
248,192,15754,1,2,0:0:0:0:
248,192,15994,1,2,0:0:0:0:
248,192,16114,1,0,0:0:0:0:
248,192,16234,1,0,0:0:0:0:
248,192,16474,1,2,0:0:0:0:
248,192,16714,1,0,0:0:0:0:
248,192,17194,1,0,0:0:0:0:
248,192,17434,1,0,0:0:0:0:
248,192,17674,1,2,0:0:0:0:
248,192,17914,1,0,0:0:0:0:
248,192,18154,1,2,0:0:0:0:
248,192,18394,1,2,0:0:0:0:
248,192,18514,1,0,0:0:0:0:
248,192,18634,1,0,0:0:0:0:
248,192,18874,1,0,0:0:0:0:
248,192,19114,1,2,0:0:0:0:
248,192,19354,1,2,0:0:0:0:
248,192,19474,1,2,0:0:0:0:
248,192,19594,1,0,0:0:0:0:
248,192,19834,1,0,0:0:0:0:
248,192,19954,1,0,0:0:0:0:
248,192,20074,1,2,0:0:0:0:
248,192,20314,1,0,0:0:0:0:
248,192,20554,1,6,0:0:0:0:
248,192,21034,1,2,0:0:0:0:
248,192,21274,1,2,0:0:0:0:
248,192,21394,1,2,0:0:0:0:
248,192,21514,1,0,0:0:0:0:
248,192,21994,1,2,0:0:0:0:
248,192,22234,1,0,0:0:0:0:
248,192,22354,1,2,0:0:0:0:
248,192,22474,1,0,0:0:0:0:
248,192,22714,1,0,0:0:0:0:
248,192,22954,1,2,0:0:0:0:
248,192,23194,1,0,0:0:0:0:
248,192,23434,1,0,0:0:0:0:
248,192,23674,1,0,0:0:0:0:
248,192,24394,1,0,0:0:0:0:
248,192,24634,1,0,0:0:0:0:
248,192,25354,1,0,0:0:0:0:
248,192,25594,1,0,0:0:0:0:
248,192,25834,1,2,0:0:0:0:
248,192,26194,1,2,0:0:0:0:
248,192,26314,1,0,0:0:0:0:
248,192,26554,1,0,0:0:0:0:
248,192,26794,1,2,0:0:0:0:
248,192,27154,1,0,0:0:0:0:
248,192,27274,1,0,0:0:0:0:
248,192,27514,1,0,0:0:0:0:
248,192,27634,1,0,0:0:0:0:
248,192,27754,1,2,0:0:0:0:
248,192,27994,1,0,0:0:0:0:
248,192,28234,1,2,0:0:0:0:
248,192,28474,1,0,0:0:0:0:
248,192,28594,1,0,0:0:0:0:
248,192,28714,1,0,0:0:0:0:
248,192,28954,1,2,0:0:0:0:
248,192,29194,1,0,0:0:0:0:
248,192,29434,1,0,0:0:0:0:
248,192,29674,1,2,0:0:0:0:
248,192,30034,1,2,0:0:0:0:
248,192,30154,1,0,0:0:0:0:
248,192,30394,1,0,0:0:0:0:
248,192,30634,1,2,0:0:0:0:
248,192,30994,1,0,0:0:0:0:
248,192,31114,1,2,0:0:0:0:
248,192,31354,1,0,0:0:0:0:
248,192,31474,1,0,0:0:0:0:
248,192,31594,1,0,0:0:0:0:
248,192,31834,1,2,0:0:0:0:
248,192,32074,1,0,0:0:0:0:
248,192,32554,1,0,0:0:0:0:
248,192,32794,1,0,0:0:0:0:
248,192,33034,1,2,0:0:0:0:
248,192,33274,1,0,0:0:0:0:
248,192,33514,1,2,0:0:0:0:
248,192,33754,1,0,0:0:0:0:
248,192,33874,1,2,0:0:0:0:
248,192,33994,1,2,0:0:0:0:
248,192,34234,1,0,0:0:0:0:
248,192,34474,1,2,0:0:0:0:
248,192,34714,1,0,0:0:0:0:
248,192,34834,1,0,0:0:0:0:
248,192,34954,1,2,0:0:0:0:
248,192,35194,1,2,0:0:0:0:
248,192,35314,1,0,0:0:0:0:
248,192,35434,1,2,0:0:0:0:
248,192,35674,1,2,0:0:0:0:
248,192,35914,1,4,0:0:0:0:
248,192,36394,1,0,0:0:0:0:
248,192,36634,1,2,0:0:0:0:
248,192,36754,1,2,0:0:0:0:
248,192,36874,1,0,0:0:0:0:
248,192,37354,1,2,0:0:0:0:
248,192,37594,1,0,0:0:0:0:
248,192,37714,1,2,0:0:0:0:
248,192,37834,1,0,0:0:0:0:
248,192,38074,1,0,0:0:0:0:
248,192,38314,1,2,0:0:0:0:
248,192,38554,1,0,0:0:0:0:
248,192,38794,1,0,0:0:0:0:
248,192,38914,1,0,0:0:0:0:
248,192,39034,1,2,0:0:0:0:
248,192,39154,1,0,0:0:0:0:
248,192,39274,1,2,0:0:0:0:
248,192,39514,1,0,0:0:0:0:
248,192,39754,1,2,0:0:0:0:
248,192,39874,1,2,0:0:0:0:
248,192,39994,1,0,0:0:0:0:
248,192,40114,1,0,0:0:0:0:
248,192,40234,1,2,0:0:0:0:
248,192,40354,1,0,0:0:0:0:
248,192,40474,1,0,0:0:0:0:
248,192,40594,1,0,0:0:0:0:
248,192,40709,1,6,0:0:0:0:
248,192,41069,1,0,0:0:0:0:
248,192,41189,1,2,0:0:0:0:
248,192,41429,1,0,0:0:0:0:
248,192,41549,1,0,0:0:0:0:
248,192,41669,1,2,0:0:0:0:
248,192,41789,1,0,0:0:0:0:
248,192,41909,1,0,0:0:0:0:
248,192,42149,1,2,0:0:0:0:
248,192,42389,1,2,0:0:0:0:
248,192,42509,1,2,0:0:0:0:
248,192,42629,1,0,0:0:0:0:
248,192,42989,1,0,0:0:0:0:
248,192,43109,1,2,0:0:0:0:
248,192,43349,1,0,0:0:0:0:
248,192,43469,1,2,0:0:0:0:
248,192,43589,1,2,0:0:0:0:
248,192,43709,1,2,0:0:0:0:
248,192,43829,1,0,0:0:0:0:
248,192,44069,1,2,0:0:0:0:
248,192,44309,1,0,0:0:0:0:
248,192,44549,1,2,0:0:0:0:
248,192,44789,1,0,0:0:0:0:
248,192,44909,1,0,0:0:0:0:
248,192,45029,1,2,0:0:0:0:
248,192,45269,1,0,0:0:0:0:
248,192,45509,1,2,0:0:0:0:
248,192,45629,1,2,0:0:0:0:
248,192,45749,1,0,0:0:0:0:
248,192,45869,1,0,0:0:0:0:
248,192,45989,1,2,0:0:0:0:
248,192,46229,1,2,0:0:0:0:
248,192,46469,1,0,0:0:0:0:
248,192,46709,1,0,0:0:0:0:
248,192,46949,1,2,0:0:0:0:
248,192,47189,1,2,0:0:0:0:
248,192,47309,1,2,0:0:0:0:
248,192,47429,1,0,0:0:0:0:
248,192,47549,1,2,0:0:0:0:
248,192,47669,1,0,0:0:0:0:
248,192,47909,1,2,0:0:0:0:
248,192,48149,1,2,0:0:0:0:
248,192,48269,1,2,0:0:0:0:
248,192,48389,1,0,0:0:0:0:
248,192,48749,1,0,0:0:0:0:
248,192,48869,1,2,0:0:0:0:
248,192,49109,1,0,0:0:0:0:
248,192,49229,1,0,0:0:0:0:
248,192,49349,1,2,0:0:0:0:
248,192,49469,1,0,0:0:0:0:
248,192,49589,1,0,0:0:0:0:
248,192,49829,1,2,0:0:0:0:
248,192,50069,1,2,0:0:0:0:
248,192,50189,1,2,0:0:0:0:
248,192,50309,1,0,0:0:0:0:
248,192,50669,1,0,0:0:0:0:
248,192,50789,1,2,0:0:0:0:
248,192,51029,1,0,0:0:0:0:
248,192,51149,1,0,0:0:0:0:
248,192,51269,1,2,0:0:0:0:
248,192,51389,1,2,0:0:0:0:
248,192,51509,1,0,0:0:0:0:
248,192,51749,1,2,0:0:0:0:
248,192,51989,1,2,0:0:0:0:
248,192,52109,1,2,0:0:0:0:
248,192,52229,1,0,0:0:0:0:
248,192,52469,1,0,0:0:0:0:
248,192,52589,1,0,0:0:0:0:
248,192,52709,1,2,0:0:0:0:
248,192,52949,1,2,0:0:0:0:
248,192,53069,1,0,0:0:0:0:
248,192,53189,1,2,0:0:0:0:
248,192,53309,1,2,0:0:0:0:
248,192,53429,1,0,0:0:0:0:
248,192,53669,1,0,0:0:0:0:
248,192,53909,1,2,0:0:0:0:
248,192,54149,1,0,0:0:0:0:
248,192,54389,1,0,0:0:0:0:
248,192,54629,1,2,0:0:0:0:
248,192,54869,1,0,0:0:0:0:
248,192,54989,1,0,0:0:0:0:
248,192,55109,1,0,0:0:0:0:
248,192,55229,1,2,0:0:0:0:
248,192,55349,1,0,0:0:0:0:
248,192,55469,1,0,0:0:0:0:
248,192,55589,1,2,0:0:0:0:
248,192,55709,1,2,0:0:0:0:
248,192,55829,1,0,0:0:0:0:
248,192,56069,1,2,0:0:0:0:
248,192,56429,1,0,0:0:0:0:
248,192,56549,1,2,0:0:0:0:
248,192,56789,1,0,0:0:0:0:
248,192,56909,1,0,0:0:0:0:
248,192,57029,1,2,0:0:0:0:
248,192,57149,1,0,0:0:0:0:
248,192,57269,1,0,0:0:0:0:
248,192,57509,1,2,0:0:0:0:
248,192,57749,1,2,0:0:0:0:
248,192,57869,1,2,0:0:0:0:
248,192,57989,1,0,0:0:0:0:
248,192,58349,1,0,0:0:0:0:
248,192,58469,1,2,0:0:0:0:
248,192,58709,1,0,0:0:0:0:
248,192,58829,1,2,0:0:0:0:
248,192,58949,1,2,0:0:0:0:
248,192,59069,1,2,0:0:0:0:
248,192,59189,1,0,0:0:0:0:
248,192,59429,1,2,0:0:0:0:
248,192,59669,1,2,0:0:0:0:
248,192,59789,1,0,0:0:0:0:
248,192,59909,1,0,0:0:0:0:
248,192,60149,1,0,0:0:0:0:
248,192,60389,1,2,0:0:0:0:
248,192,60629,1,2,0:0:0:0:
248,192,60749,1,2,0:0:0:0:
248,192,60869,1,0,0:0:0:0:
248,192,61109,1,0,0:0:0:0:
248,192,61349,1,2,0:0:0:0:
248,192,61589,1,2,0:0:0:0:
248,192,61829,1,0,0:0:0:0:
248,192,62069,1,0,0:0:0:0:
248,192,62309,1,2,0:0:0:0:
248,192,62549,1,0,0:0:0:0:
248,192,62669,1,0,0:0:0:0:
248,192,62789,1,2,0:0:0:0:
248,192,62909,1,2,0:0:0:0:
248,192,63029,1,0,0:0:0:0:
248,192,63269,1,2,0:0:0:0:
248,192,63509,1,2,0:0:0:0:
248,192,63629,1,2,0:0:0:0:
248,192,63749,1,0,0:0:0:0:
248,192,64109,1,0,0:0:0:0:
248,192,64229,1,2,0:0:0:0:
248,192,64469,1,2,0:0:0:0:
248,192,64589,1,0,0:0:0:0:
248,192,64709,1,2,0:0:0:0:
248,192,64829,1,2,0:0:0:0:
248,192,64949,1,0,0:0:0:0:
248,192,65189,1,0,0:0:0:0:
248,192,65429,1,2,0:0:0:0:
248,192,65549,1,0,0:0:0:0:
248,192,65669,1,0,0:0:0:0:
248,192,66029,1,0,0:0:0:0:
248,192,66149,1,2,0:0:0:0:
248,192,66389,1,0,0:0:0:0:
248,192,66509,1,0,0:0:0:0:
248,192,66629,1,2,0:0:0:0:
248,192,66749,1,2,0:0:0:0:
248,192,66869,1,0,0:0:0:0:
248,192,67109,1,2,0:0:0:0:
248,192,67349,1,2,0:0:0:0:
248,192,67469,1,2,0:0:0:0:
248,192,67589,1,0,0:0:0:0:
248,192,67829,1,0,0:0:0:0:
248,192,67949,1,0,0:0:0:0:
248,192,68069,1,2,0:0:0:0:
248,192,68309,1,2,0:0:0:0:
248,192,68429,1,2,0:0:0:0:
248,192,68549,1,0,0:0:0:0:
248,192,68669,1,2,0:0:0:0:
248,192,68789,1,0,0:0:0:0:
248,192,69029,1,2,0:0:0:0:
248,192,69269,1,0,0:0:0:0:
248,192,69509,1,0,0:0:0:0:
248,192,69749,1,0,0:0:0:0:
248,192,69869,1,0,0:0:0:0:
248,192,69989,1,2,0:0:0:0:
248,192,70229,1,2,0:0:0:0:
248,192,70349,1,2,0:0:0:0:
248,192,70469,1,0,0:0:0:0:
248,192,70589,1,0,0:0:0:0:
248,192,70709,1,2,0:0:0:0:
248,192,70949,1,2,0:0:0:0:
248,192,71069,1,2,0:0:0:0:
248,192,71189,1,2,0:0:0:0:
248,192,71309,1,2,0:0:0:0:
248,192,71429,1,4,0:0:0:0:
248,192,72395,1,6,0:0:0:0:
248,192,73355,1,0,0:0:0:0:
248,192,73595,1,0,0:0:0:0:
248,192,74075,1,0,0:0:0:0:
248,192,74195,1,0,0:0:0:0:
248,192,74315,1,2,0:0:0:0:
248,192,74555,1,2,0:0:0:0:
248,192,75035,1,2,0:0:0:0:
248,192,75155,1,2,0:0:0:0:
248,192,75275,1,0,0:0:0:0:
248,192,75635,1,0,0:0:0:0:
248,192,75995,1,0,0:0:0:0:
248,192,76115,1,0,0:0:0:0:
248,192,76235,1,2,0:0:0:0:
248,192,76475,1,2,0:0:0:0:
248,192,77195,1,0,0:0:0:0:
248,192,77435,1,0,0:0:0:0:
248,192,77915,1,0,0:0:0:0:
248,192,78035,1,0,0:0:0:0:
248,192,78155,1,2,0:0:0:0:
248,192,78395,1,2,0:0:0:0:
248,192,78875,1,2,0:0:0:0:
248,192,78995,1,2,0:0:0:0:
248,192,79115,1,0,0:0:0:0:
248,192,79475,1,0,0:0:0:0:
248,192,79835,1,0,0:0:0:0:
248,192,79955,1,0,0:0:0:0:
248,192,80075,1,2,0:0:0:0:
248,192,80315,1,2,0:0:0:0:
248,192,81035,1,0,0:0:0:0:
248,192,81275,1,0,0:0:0:0:
