osu file format v14

[General]
AudioFilename: audio.mp3
AudioLeadIn: 0
PreviewTime: 40174
Countdown: 0
SampleSet: Normal
StackLeniency: 0.7
Mode: 1
LetterboxInBreaks: 0
WidescreenStoryboard: 0

[Editor]
DistanceSpacing: 1.2
BeatDivisor: 4
GridSize: 32
TimelineZoom: 1.7

[Metadata]
Title:Nilgiri
TitleUnicode:ニルギリ
Artist:Kudou Chitose
ArtistUnicode:久遠千歳
Creator:_Rise
Version:Inner Oni
Source:
Tags:taiko_ryuki senfla nyanmi-1828 vtuber virtual youtuber バーチャルyoutuber 2434 Nijisanji にじさんじ 宇志海いちご Ushimi Ichigo 雨森小夜 Amemori Sayo ハチ hachi 抱きしめたトゥナイト dakishimeta tonight らさ lasah japanese pop 23- jpop j-pop cover
BeatmapID:2416944
BeatmapSetID:1158131

[Difficulty]
HPDrainRate:6
CircleSize:5
OverallDifficulty:5.5
ApproachRate:5
SliderMultiplier:1.4
SliderTickRate:1

[Events]
//Background and Video events
0,0,"bg.jpg",0,50
//Break Periods
//Storyboard Layer 0 (Background)
//Storyboard Layer 1 (Fail)
//Storyboard Layer 2 (Pass)
//Storyboard Layer 3 (Foreground)
//Storyboard Layer 4 (Overlay)
//Storyboard Sound Samples

[TimingPoints]
2323,480,4,1,0,65,1,0
9514,480,4,1,0,65,1,8
9934,-100,4,1,0,75,0,8
9994,480,4,1,0,75,1,0
40654,-100,4,1,0,85,0,0
40709,480,4,1,0,85,1,1
40709,-100,4,1,0,85,0,1
71369,-100,4,1,0,75,0,1
71429,-100,4,1,0,75,0,0
71915,480,4,1,0,75,1,8
71915,-100,4,1,0,75,0,8
73295,-100,4,1,0,65,0,0
73355,480,4,1,0,65,1,0
73355,-100,4,1,0,65,0,0

[HitObjects]
263,194,2323,5,0,0:0:0:0:
263,194,2563,1,0,0:0:0:0:
263,194,3283,1,0,0:0:0:0:
263,194,3523,1,0,0:0:0:0:
263,194,4243,1,2,0:0:0:0:
263,194,4483,1,2,0:0:0:0:
263,194,5203,1,2,0:0:0:0:
263,194,5443,1,2,0:0:0:0:
263,194,6163,1,0,0:0:0:0:
263,194,6403,1,0,0:0:0:0:
263,194,7123,1,0,0:0:0:0:
263,194,7363,1,0,0:0:0:0:
249,185,8083,1,2,0:0:0:0:
249,185,8323,1,2,0:0:0:0:
251,168,9043,1,2,0:0:0:0:
251,168,9283,1,2,0:0:0:0:
251,181,9514,1,0,0:0:0:0:
251,181,9754,1,2,0:0:0:0:
251,181,9874,1,2,0:0:0:0:
251,181,9994,1,0,0:0:0:0:
249,208,10234,1,0,0:0:0:0:
249,208,10474,1,2,0:0:0:0:
251,216,10834,1,2,0:0:0:0:
251,216,10954,1,0,0:0:0:0:
251,216,11194,1,0,0:0:0:0:
251,216,11434,1,2,0:0:0:0:
256,223,11794,1,2,0:0:0:0:
265,211,11914,1,0,0:0:0:0:
265,211,12154,1,0,0:0:0:0:
265,211,12394,1,2,0:0:0:0:
273,221,12634,1,0,0:0:0:0:
273,221,12754,1,0,0:0:0:0:
273,221,12874,1,2,0:0:0:0:
265,211,13114,1,0,0:0:0:0:
265,211,13354,1,2,0:0:0:0:
265,211,13594,1,2,0:0:0:0:
265,211,13834,1,0,0:0:0:0:
289,215,14074,1,0,0:0:0:0:
289,215,14314,1,2,0:0:0:0:
269,222,14674,1,2,0:0:0:0:
269,222,14794,1,0,0:0:0:0:
269,222,15034,1,0,0:0:0:0:
271,213,15274,1,2,0:0:0:0:
263,189,15634,1,0,0:0:0:0:
281,205,15754,1,2,0:0:0:0:
267,192,15994,1,0,0:0:0:0:
267,192,16234,1,2,0:0:0:0:
281,205,16474,1,2,0:0:0:0:
281,205,16594,1,2,0:0:0:0:
281,205,16714,1,0,0:0:0:0:
278,201,16834,1,2,0:0:0:0:
278,201,16954,1,0,0:0:0:0:
278,201,17194,1,2,0:0:0:0:
278,210,17434,1,2,0:0:0:0:
278,210,17674,1,0,0:0:0:0:
271,208,18034,1,0,0:0:0:0:
293,212,18154,1,2,0:0:0:0:
282,193,18394,1,0,0:0:0:0:
282,193,18514,1,0,0:0:0:0:
282,193,18634,1,2,0:0:0:0:
276,184,18874,1,0,0:0:0:0:
282,193,19114,1,2,0:0:0:0:
280,201,19354,1,2,0:0:0:0:
282,193,19474,1,2,0:0:0:0:
282,193,19594,1,0,0:0:0:0:
287,203,19834,1,2,0:0:0:0:
288,210,19954,1,2,0:0:0:0:
296,192,20074,1,2,0:0:0:0:
310,204,20314,1,0,0:0:0:0:
310,204,20554,1,6,0:0:0:0:
280,207,21034,1,0,0:0:0:0:
284,200,21274,1,2,0:0:0:0:
284,200,21394,1,2,0:0:0:0:
284,200,21514,1,0,0:0:0:0:
287,205,21994,1,2,0:0:0:0:
287,205,22234,1,0,0:0:0:0:
287,205,22354,1,2,0:0:0:0:
287,205,22474,1,0,0:0:0:0:
270,202,22714,1,0,0:0:0:0:
299,192,22834,1,0,0:0:0:0:
299,192,22954,1,2,0:0:0:0:
299,192,23194,1,2,0:0:0:0:
272,200,23434,1,0,0:0:0:0:
280,194,23674,1,0,0:0:0:0:
260,184,24394,1,0,0:0:0:0:
260,184,24634,1,0,0:0:0:0:
293,219,25354,1,0,0:0:0:0:
274,207,25594,1,0,0:0:0:0:
284,214,25834,1,2,0:0:0:0:
280,214,26194,1,2,0:0:0:0:
280,214,26314,1,0,0:0:0:0:
280,214,26554,1,0,0:0:0:0:
284,214,26794,1,2,0:0:0:0:
301,221,27154,1,2,0:0:0:0:
301,221,27274,1,0,0:0:0:0:
306,219,27514,1,0,0:0:0:0:
302,221,27754,1,2,0:0:0:0:
291,217,27994,1,0,0:0:0:0:
280,207,28114,1,2,0:0:0:0:
280,207,28234,1,0,0:0:0:0:
280,207,28474,1,0,0:0:0:0:
280,207,28714,1,2,0:0:0:0:
280,207,28954,1,2,0:0:0:0:
280,207,29194,1,0,0:0:0:0:
280,207,29434,1,0,0:0:0:0:
280,207,29674,1,2,0:0:0:0:
275,232,30034,1,2,0:0:0:0:
275,232,30154,1,0,0:0:0:0:
275,232,30394,1,0,0:0:0:0:
275,232,30634,1,2,0:0:0:0:
282,224,30994,1,0,0:0:0:0:
282,224,31114,1,2,0:0:0:0:
282,224,31354,1,0,0:0:0:0:
282,205,31594,1,2,0:0:0:0:
282,205,31834,1,0,0:0:0:0:
282,205,31954,1,2,0:0:0:0:
282,205,32074,1,0,0:0:0:0:
282,205,32194,1,0,0:0:0:0:
282,205,32314,1,2,0:0:0:0:
312,225,32554,1,2,0:0:0:0:
289,211,32794,1,2,0:0:0:0:
288,203,33034,1,0,0:0:0:0:
291,209,33394,1,0,0:0:0:0:
291,209,33514,1,2,0:0:0:0:
289,211,33754,1,0,0:0:0:0:
291,209,33874,1,0,0:0:0:0:
291,209,33994,1,2,0:0:0:0:
291,209,34234,1,0,0:0:0:0:
291,209,34474,1,2,0:0:0:0:
296,214,34714,1,2,0:0:0:0:
296,214,34834,1,2,0:0:0:0:
296,214,34954,1,0,0:0:0:0:
300,219,35194,1,2,0:0:0:0:
300,219,35314,1,0,0:0:0:0:
300,219,35434,1,2,0:0:0:0:
280,199,35674,1,2,0:0:0:0:
280,199,35914,1,4,0:0:0:0:
274,193,36394,1,0,0:0:0:0:
274,193,36634,1,2,0:0:0:0:
274,193,36754,1,2,0:0:0:0:
274,193,36874,1,0,0:0:0:0:
272,198,37354,1,2,0:0:0:0:
268,201,37594,1,0,0:0:0:0:
268,201,37714,1,2,0:0:0:0:
272,199,37834,1,0,0:0:0:0:
260,199,38074,1,0,0:0:0:0:
260,199,38194,1,0,0:0:0:0:
260,199,38314,1,2,0:0:0:0:
269,203,38554,1,2,0:0:0:0:
271,197,38794,1,0,0:0:0:0:
273,199,39034,1,2,0:0:0:0:
264,196,39154,1,2,0:0:0:0:
264,196,39274,1,0,0:0:0:0:
271,197,39514,1,2,0:0:0:0:
271,197,39634,1,0,0:0:0:0:
271,197,39754,1,2,0:0:0:0:
273,199,39874,1,2,0:0:0:0:
273,199,39994,1,0,0:0:0:0:
273,199,40114,1,0,0:0:0:0:
273,199,40234,1,2,0:0:0:0:
271,197,40474,1,2,0:0:0:0:
271,197,40709,1,4,0:0:0:0:
276,212,41069,1,0,0:0:0:0:
276,212,41189,1,2,0:0:0:0:
265,212,41429,1,0,0:0:0:0:
270,212,41549,1,0,0:0:0:0:
270,212,41669,1,2,0:0:0:0:
265,212,41909,1,0,0:0:0:0:
251,197,42149,1,2,0:0:0:0:
251,197,42389,1,2,0:0:0:0:
253,185,42509,1,2,0:0:0:0:
251,197,42629,1,0,0:0:0:0:
251,199,42869,1,0,0:0:0:0:
251,197,43109,1,2,0:0:0:0:
263,205,43349,1,0,0:0:0:0:
279,199,43469,1,2,0:0:0:0:
266,187,43709,1,2,0:0:0:0:
263,205,43829,1,0,0:0:0:0:
251,197,44069,1,2,0:0:0:0:
247,195,44309,1,0,0:0:0:0:
247,195,44429,1,0,0:0:0:0:
269,201,44549,1,0,0:0:0:0:
269,201,44789,1,0,0:0:0:0:
269,201,45029,1,2,0:0:0:0:
253,192,45269,1,2,0:0:0:0:
253,192,45389,1,2,0:0:0:0:
253,192,45509,1,0,0:0:0:0:
253,192,45629,1,2,0:0:0:0:
253,192,45749,1,0,0:0:0:0:
253,192,45989,1,2,0:0:0:0:
253,192,46229,1,2,0:0:0:0:
253,192,46349,1,2,0:0:0:0:
252,194,46469,1,0,0:0:0:0:
252,194,46709,1,0,0:0:0:0:
252,194,46949,1,2,0:0:0:0:
252,194,47189,1,0,0:0:0:0:
252,194,47309,1,2,0:0:0:0:
252,194,47549,1,2,0:0:0:0:
252,194,47669,1,0,0:0:0:0:
272,194,47789,1,0,0:0:0:0:
252,194,47909,1,2,0:0:0:0:
273,203,48149,1,2,0:0:0:0:
273,203,48389,1,0,0:0:0:0:
276,212,48749,1,0,0:0:0:0:
276,212,48869,1,2,0:0:0:0:
273,203,49109,1,2,0:0:0:0:
273,203,49229,1,2,0:0:0:0:
273,203,49349,1,0,0:0:0:0:
265,212,49589,1,0,0:0:0:0:
251,197,49829,1,2,0:0:0:0:
256,208,50069,1,0,0:0:0:0:
253,185,50189,1,2,0:0:0:0:
251,197,50309,1,0,0:0:0:0:
272,203,50549,1,0,0:0:0:0:
272,203,50669,1,0,0:0:0:0:
272,203,50789,1,2,0:0:0:0:
272,203,51029,1,0,0:0:0:0:
272,203,51149,1,2,0:0:0:0:
272,203,51389,1,2,0:0:0:0:
272,203,51509,1,0,0:0:0:0:
272,203,51749,1,2,0:0:0:0:
264,196,51989,1,0,0:0:0:0:
264,196,52109,1,0,0:0:0:0:
264,196,52229,1,2,0:0:0:0:
270,183,52469,1,0,0:0:0:0:
270,183,52709,1,2,0:0:0:0:
259,177,52949,1,0,0:0:0:0:
259,177,53069,1,2,0:0:0:0:
259,177,53189,1,2,0:0:0:0:
265,177,53309,1,2,0:0:0:0:
259,177,53429,1,0,0:0:0:0:
259,177,53669,1,2,0:0:0:0:
265,178,53909,1,2,0:0:0:0:
265,178,54029,1,2,0:0:0:0:
265,178,54149,1,0,0:0:0:0:
268,190,54389,1,0,0:0:0:0:
268,190,54629,1,2,0:0:0:0:
268,190,54749,1,0,0:0:0:0:
268,190,54869,1,0,0:0:0:0:
268,190,54989,1,2,0:0:0:0:
268,190,55229,1,2,0:0:0:0:
268,190,55349,1,0,0:0:0:0:
271,184,55589,1,2,0:0:0:0:
268,190,55709,1,0,0:0:0:0:
268,190,55829,1,2,0:0:0:0:
268,190,55949,1,2,0:0:0:0:
268,190,56069,1,0,0:0:0:0:
276,212,56429,1,0,0:0:0:0:
276,212,56549,1,2,0:0:0:0:
258,212,56789,1,2,0:0:0:0:
258,212,56909,1,2,0:0:0:0:
258,212,57029,1,0,0:0:0:0:
265,212,57269,1,0,0:0:0:0:
251,197,57509,1,2,0:0:0:0:
248,196,57749,1,0,0:0:0:0:
253,185,57869,1,2,0:0:0:0:
251,197,57989,1,0,0:0:0:0:
251,199,58229,1,0,0:0:0:0:
251,197,58469,1,2,0:0:0:0:
263,205,58709,1,0,0:0:0:0:
279,199,58829,1,2,0:0:0:0:
266,187,59069,1,2,0:0:0:0:
263,205,59189,1,0,0:0:0:0:
251,197,59429,1,2,0:0:0:0:
262,197,59669,1,2,0:0:0:0:
262,197,59789,1,2,0:0:0:0:
269,201,59909,1,0,0:0:0:0:
269,201,60149,1,0,0:0:0:0:
269,201,60389,1,2,0:0:0:0:
278,192,60509,1,2,0:0:0:0:
278,192,60629,1,0,0:0:0:0:
278,192,60749,1,0,0:0:0:0:
275,181,60869,1,2,0:0:0:0:
253,192,61109,1,0,0:0:0:0:
266,190,61229,1,0,0:0:0:0:
253,192,61349,1,2,0:0:0:0:
253,192,61589,1,2,0:0:0:0:
252,194,61829,1,0,0:0:0:0:
252,194,62069,1,0,0:0:0:0:
252,194,62309,1,2,0:0:0:0:
252,194,62549,1,0,0:0:0:0:
252,194,62669,1,2,0:0:0:0:
252,194,62909,1,2,0:0:0:0:
252,194,63029,1,0,0:0:0:0:
272,194,63149,1,0,0:0:0:0:
252,194,63269,1,2,0:0:0:0:
273,203,63509,1,2,0:0:0:0:
273,203,63749,1,0,0:0:0:0:
276,212,64109,1,0,0:0:0:0:
276,212,64229,1,2,0:0:0:0:
247,210,64469,1,0,0:0:0:0:
247,210,64589,1,0,0:0:0:0:
247,210,64709,1,2,0:0:0:0:
265,212,64949,1,0,0:0:0:0:
251,197,65189,1,2,0:0:0:0:
263,210,65429,1,2,0:0:0:0:
253,185,65549,1,2,0:0:0:0:
251,197,65669,1,0,0:0:0:0:
272,203,65909,1,0,0:0:0:0:
272,203,66029,1,0,0:0:0:0:
272,203,66149,1,2,0:0:0:0:
272,203,66389,1,0,0:0:0:0:
272,203,66509,1,2,0:0:0:0:
272,203,66749,1,2,0:0:0:0:
272,203,66869,1,0,0:0:0:0:
272,203,67109,1,2,0:0:0:0:
283,204,67349,1,2,0:0:0:0:
264,196,67469,1,0,0:0:0:0:
264,196,67589,1,2,0:0:0:0:
270,183,67829,1,0,0:0:0:0:
270,183,68069,1,2,0:0:0:0:
259,177,68309,1,0,0:0:0:0:
259,177,68429,1,2,0:0:0:0:
266,183,68549,1,0,0:0:0:0:
270,183,68669,1,0,0:0:0:0:
270,183,68789,1,2,0:0:0:0:
270,183,68909,1,0,0:0:0:0:
259,177,69029,1,2,0:0:0:0:
265,178,69269,1,2,0:0:0:0:
265,178,69389,1,2,0:0:0:0:
265,178,69509,1,0,0:0:0:0:
268,190,69749,1,0,0:0:0:0:
268,190,69989,1,2,0:0:0:0:
268,190,70109,1,0,0:0:0:0:
268,190,70229,1,0,0:0:0:0:
268,190,70349,1,2,0:0:0:0:
271,185,70589,1,0,0:0:0:0:
271,185,70709,1,2,0:0:0:0:
268,181,70829,1,0,0:0:0:0:
271,184,70949,1,2,0:0:0:0:
268,181,71069,1,2,0:0:0:0:
271,185,71189,1,0,0:0:0:0:
256,183,71309,1,0,0:0:0:0:
256,183,71429,1,2,0:0:0:0:
271,185,72155,1,2,0:0:0:0:
273,181,72275,1,2,0:0:0:0:
273,181,72395,1,0,0:0:0:0:
269,200,73355,1,0,0:0:0:0:
269,200,73595,1,0,0:0:0:0:
259,194,74075,1,0,0:0:0:0:
259,194,74195,1,0,0:0:0:0:
261,196,74315,1,2,0:0:0:0:
261,196,74555,1,2,0:0:0:0:
271,208,75035,1,2,0:0:0:0:
267,202,75155,1,0,0:0:0:0:
271,203,75275,1,0,0:0:0:0:
258,179,75515,1,0,0:0:0:0:
270,199,75635,1,2,0:0:0:0:
276,201,75995,1,2,0:0:0:0:
271,179,76115,1,0,0:0:0:0:
271,181,76235,1,2,0:0:0:0:
271,182,76475,1,2,0:0:0:0:
274,192,77195,1,0,0:0:0:0:
276,192,77435,1,0,0:0:0:0:
275,180,77915,1,0,0:0:0:0:
275,180,78035,1,0,0:0:0:0:
275,180,78155,1,2,0:0:0:0:
275,180,78395,1,2,0:0:0:0:
276,173,78875,1,2,0:0:0:0:
276,173,78995,1,0,0:0:0:0:
276,173,79115,1,0,0:0:0:0:
260,175,79355,1,0,0:0:0:0:
276,173,79475,1,2,0:0:0:0:
276,173,79835,1,2,0:0:0:0:
276,173,79955,1,0,0:0:0:0:
276,173,80075,1,2,0:0:0:0:
276,173,80315,1,2,0:0:0:0:
276,173,81035,1,0,0:0:0:0:
276,173,81275,1,0,0:0:0:0:
