osu file format v14

[General]
AudioFilename: audio.mp3
AudioLeadIn: 0
PreviewTime: 40174
Countdown: 0
SampleSet: Normal
StackLeniency: 0.7
Mode: 1
LetterboxInBreaks: 0
WidescreenStoryboard: 0

[Editor]
DistanceSpacing: 1.2
BeatDivisor: 4
GridSize: 32
TimelineZoom: 1.7

[Metadata]
Title:Nilgiri
TitleUnicode:ニルギリ
Artist:Kudou Chitose
ArtistUnicode:久遠千歳
Creator:_Rise
Version:23-'s Kantan
Source:
Tags:taiko_ryuki senfla nyanmi-1828 vtuber virtual youtuber バーチャルyoutuber 2434 Nijisanji にじさんじ 宇志海いちご Ushimi Ichigo 雨森小夜 Amemori Sayo ハチ hachi 抱きしめたトゥナイト dakishimeta tonight らさ lasah japanese pop 23- jpop j-pop cover
BeatmapID:2420878
BeatmapSetID:1158131

[Difficulty]
HPDrainRate:9
CircleSize:5
OverallDifficulty:3
ApproachRate:5
SliderMultiplier:1.4
SliderTickRate:1

[Events]
//Background and Video events
0,0,"bg.jpg",0,50
//Break Periods
//Storyboard Layer 0 (Background)
//Storyboard Layer 1 (Fail)
//Storyboard Layer 2 (Pass)
//Storyboard Layer 3 (Foreground)
//Storyboard Layer 4 (Overlay)
//Storyboard Sound Samples

[TimingPoints]
2323,480,4,1,0,65,1,0
9514,480,4,1,0,65,1,8
9934,-100,4,1,0,75,0,8
9994,480,4,1,0,75,1,0
40654,-100,4,1,0,85,0,0
40709,480,4,1,0,85,1,1
40709,-100,4,1,0,85,0,1
71369,-100,4,1,0,75,0,1
71429,-100,4,1,0,75,0,0
71915,480,4,1,0,75,1,8
71915,-100,4,1,0,75,0,8
73295,-100,4,1,0,65,0,0
73355,480,4,1,0,65,1,0
73355,-100,4,1,0,65,0,0

[HitObjects]
251,188,2323,5,0,0:0:0:0:
251,188,3283,1,0,0:0:0:0:
259,192,4243,1,2,0:0:0:0:
259,192,5203,1,2,0:0:0:0:
259,192,6163,1,0,0:0:0:0:
259,192,7123,1,0,0:0:0:0:
259,192,8083,1,2,0:0:0:0:
259,192,9043,1,2,0:0:0:0:
332,204,10474,1,8,0:0:0:0:
269,192,11434,1,2,0:0:0:0:
276,193,12394,1,2,0:0:0:0:
276,193,12874,1,2,0:0:0:0:
276,193,13354,1,0,0:0:0:0:
280,195,14314,1,2,0:0:0:0:
280,195,15274,1,2,0:0:0:0:
280,195,15754,1,2,0:0:0:0:
280,195,16234,1,0,0:0:0:0:
285,199,16714,1,0,0:0:0:0:
240,161,17674,1,2,0:0:0:0:
264,179,18634,1,2,0:0:0:0:
260,167,19594,1,2,0:0:0:0:
382,211,20074,1,8,0:0:0:0:
260,167,20554,1,4,0:0:0:0:
272,199,21514,1,0,0:0:0:0:
272,199,22474,1,2,0:0:0:0:
272,199,22954,1,2,0:0:0:0:
272,199,23434,1,0,0:0:0:0:
319,204,24394,1,0,0:0:0:0:
269,192,25834,1,2,0:0:0:0:
269,192,26794,1,2,0:0:0:0:
276,193,27754,1,2,0:0:0:0:
276,193,28234,1,0,0:0:0:0:
280,185,28714,1,0,0:0:0:0:
280,195,29674,1,2,0:0:0:0:
280,195,30634,1,2,0:0:0:0:
286,187,31114,1,2,0:0:0:0:
269,180,31594,1,0,0:0:0:0:
285,199,32074,1,0,0:0:0:0:
276,192,33034,1,2,0:0:0:0:
286,190,33994,1,2,0:0:0:0:
282,194,34954,1,2,0:0:0:0:
397,200,35434,1,8,0:0:0:0:
286,190,35914,1,4,0:0:0:0:
296,194,36874,1,8,0:0:0:0:
296,194,37354,1,0,0:0:0:0:
296,194,37834,1,2,0:0:0:0:
296,194,38314,1,2,0:0:0:0:
276,197,38794,1,0,0:0:0:0:
253,202,40709,5,4,0:0:0:0:
253,202,41189,1,2,0:0:0:0:
253,202,41669,1,0,0:0:0:0:
253,202,42629,1,0,0:0:0:0:
253,202,43109,1,2,0:0:0:0:
259,198,43589,1,0,0:0:0:0:
253,202,44549,1,0,0:0:0:0:
262,187,45029,1,2,0:0:0:0:
332,205,45509,1,2,0:0:0:0:
270,185,45989,1,2,0:0:0:0:
262,187,46469,1,0,0:0:0:0:
368,259,47429,1,0,0:0:0:0:
248,172,48389,1,0,0:0:0:0:
253,202,48869,1,2,0:0:0:0:
253,202,49349,1,8,0:0:0:0:
253,202,50309,1,0,0:0:0:0:
253,202,50789,1,2,0:0:0:0:
256,193,51269,1,8,0:0:0:0:
264,190,52229,1,2,0:0:0:0:
264,190,52709,1,0,0:0:0:0:
264,190,53189,1,2,0:0:0:0:
322,191,53669,1,2,0:0:0:0:
262,187,54149,1,0,0:0:0:0:
253,202,56069,5,4,0:0:0:0:
253,202,56549,1,2,0:0:0:0:
253,202,57029,1,0,0:0:0:0:
253,202,57989,1,0,0:0:0:0:
253,202,58469,1,2,0:0:0:0:
259,198,58949,1,0,0:0:0:0:
253,202,59909,1,0,0:0:0:0:
262,187,60389,1,2,0:0:0:0:
334,210,60869,1,2,0:0:0:0:
264,216,61349,1,2,0:0:0:0:
262,187,61829,1,0,0:0:0:0:
251,171,62789,1,0,0:0:0:0:
248,172,63749,1,0,0:0:0:0:
253,202,64229,1,2,0:0:0:0:
253,202,64709,1,8,0:0:0:0:
253,202,65669,1,0,0:0:0:0:
253,202,66149,1,2,0:0:0:0:
229,183,66629,1,8,0:0:0:0:
253,202,67589,1,0,0:0:0:0:
262,187,68069,1,2,0:0:0:0:
262,187,68549,1,0,0:0:0:0:
264,169,69029,1,0,0:0:0:0:
262,187,69509,1,0,0:0:0:0:
246,171,71429,5,4,0:0:0:0:
246,171,72395,1,6,0:0:0:0:
246,171,73355,1,0,0:0:0:0:
246,171,74315,1,2,0:0:0:0:
246,171,75275,1,0,0:0:0:0:
246,171,76235,1,2,0:0:0:0:
246,171,77195,1,0,0:0:0:0:
251,172,78155,1,2,0:0:0:0:
251,172,79115,1,0,0:0:0:0:
251,172,80075,1,2,0:0:0:0:
251,172,81035,1,0,0:0:0:0:
