osu file format v14

[General]
AudioFilename: audio.mp3
AudioLeadIn: 0
PreviewTime: 40109
Countdown: 0
SampleSet: Soft
StackLeniency: 0.3
Mode: 0
LetterboxInBreaks: 0
WidescreenStoryboard: 0

[Editor]
DistanceSpacing: 1.1
BeatDivisor: 4
GridSize: 32
TimelineZoom: 1.5

[Metadata]
Title:Nilgiri
TitleUnicode:ニルギリ
Artist:Kudou Chitose
ArtistUnicode:久遠千歳
Creator:Yugu
Version:Tt's Hard
Source:
Tags:Vtuber virtual youtuber バーチャルyoutuber 2434 Nijisanji にじさんじ 宇志海いちご Ushimi Ichigo 雨森小夜 Amemori Sayo ハチ 抱きしめたトゥナイト japanese pop TT Mouse TtmnZk TT_Mouse
BeatmapID:2156271
BeatmapSetID:1030692

[Difficulty]
HPDrainRate:4.4
CircleSize:4.2
OverallDifficulty:6.6
ApproachRate:7.5
SliderMultiplier:1.4
SliderTickRate:1

[Events]
//Background and Video events
Video,0,"Nilgiri.mp4"
0,0,"Kudou.png",0,0
//Break Periods
//Storyboard Layer 0 (Background)
//Storyboard Layer 1 (Fail)
//Storyboard Layer 2 (Pass)
//Storyboard Layer 3 (Foreground)
//Storyboard Layer 4 (Overlay)
//Storyboard Sound Samples

[TimingPoints]
2334,480,4,2,1,30,1,0
2334,-133.333333333333,4,2,1,42,0,0
3294,-133.333333333333,4,2,1,38,0,0
4254,-133.333333333333,4,2,1,26,0,0
5214,-133.333333333333,4,2,1,18,0,0
6174,-133.333333333333,4,2,1,42,0,0
7134,-133.333333333333,4,2,1,38,0,0
8094,-133.333333333333,4,2,1,26,0,0
9054,-133.333333333333,4,2,1,18,0,0
9510,479.846449136276,4,2,1,30,1,0
9989,480,4,2,1,53,1,0
20549,-133.333333333333,4,2,1,53,0,0
21509,-100,4,2,1,53,0,0
25349,-100,4,2,1,53,0,0
35909,-133.333333333333,4,2,1,53,0,0
38789,-100,4,2,1,53,0,0
40709,-90.9090909090909,4,2,1,75,0,0
71429,-66.6666666666667,4,2,1,30,0,0
73349,-133.333333333333,4,2,1,30,0,0
77189,-133.333333333333,4,2,1,18,0,0

[Colours]
Combo1 : 252,252,194
Combo2 : 219,217,217
Combo3 : 255,181,218

[HitObjects]
117,84,2334,6,0,P|139:73|167:69,1,52.5000020027161,2|2,0:0|0:0,0:0:0:0:
156,199,3294,2,0,P|157:174|168:148,1,52.5000020027161,2|2,0:0|0:0,0:0:0:0:
270,227,4254,2,0,P|249:213|232:191,1,52.5000020027161,2|2,0:0|0:0,0:0:0:0:
349,135,5214,2,0,P|327:146|299:149,1,52.5000020027161,2|2,0:0|0:0,0:0:0:0:
236,348,6174,6,0,P|258:359|286:363,1,52.5000020027161,2|2,0:0|0:0,0:0:0:0:
275,233,7134,2,0,P|276:257|287:283,1,52.5000020027161,2|2,0:0|0:0,0:0:0:0:
389,205,8094,2,0,P|368:218|351:240,1,52.5000020027161,2|2,0:0|0:0,0:0:0:0:
468,297,9054,2,0,P|446:286|418:282,1,52.5000020027161,2|2,0:0|0:0,0:0:0:0:
421,198,9510,1,2,3:0:0:0:
496,171,9749,21,2,3:0:0:0:
496,171,9869,1,2,3:0:0:0:
496,171,9989,2,0,P|491:127|497:93,1,70,0|0,3:0|3:0,0:0:0:0:
419,100,10469,2,0,P|377:72|283:54,1,140,0|2,1:0|3:0,0:0:0:0:
226,104,11189,1,0,3:0:0:0:
169,49,11429,2,0,L|163:178,1,105,0|0,1:0|0:0,0:0:0:0:
171,169,11909,5,0,3:0:0:0:
238,217,12149,1,0,3:0:0:0:
309,175,12389,1,0,1:0:0:0:
397,191,12629,1,2,3:0:0:0:
397,191,12749,1,0,0:0:0:0:
397,191,12869,2,0,L|375:331,1,140,2|0,3:0|1:0,0:0:0:0:
189,359,13829,22,0,P|160:326|130:317,1,70,0|0,3:0|3:0,0:0:0:0:
148,240,14309,2,0,B|119:230|82:250|82:250|42:269|2:251,1,140,0|2,1:0|3:0,0:0:0:0:
44,177,15029,1,0,3:0:0:0:
126,158,15269,2,0,L|142:33,1,105,0|0,1:0|0:0,0:0:0:0:
142,41,15749,5,0,3:0:0:0:
223,71,15989,1,0,3:0:0:0:
292,25,16229,1,0,1:0:0:0:
363,83,16469,1,2,3:0:0:0:
358,93,16709,2,0,L|325:181,1,70,2|0,3:0|3:0,0:0:0:0:
249,158,17189,2,0,P|201:154|192:201,1,105,0|0,1:0|0:0,0:0:0:0:
199,219,17669,22,0,P|260:234|337:279,2,140,0|0|0,3:0|1:0|3:0,0:0:0:0:
43,335,19109,2,0,P|72:307|103:294,1,70,0|2,1:0|3:0,0:0:0:0:
81,205,19589,2,0,P|59:171|44:129,1,70,0|0,3:0|3:0,0:0:0:0:
127,90,20069,2,0,P|135:50|154:10,1,70,0|0,1:0|0:0,0:0:0:0:
264,55,20549,2,0,P|300:34|367:26,1,105.000004005432,4|4,3:2|3:2,0:0:0:0:
407,89,21269,1,2,3:0:0:0:
347,166,21509,6,0,P|345:198|362:238,1,70,0|0,3:0|0:0,0:0:0:0:
421,281,21989,1,0,1:0:0:0:
366,344,22229,2,0,L|361:379,2,35,0|0|0,3:0|1:0|3:0,0:0:0:0:
303,293,22709,1,0,3:0:0:0:
176,368,22949,2,0,P|211:350|258:348,1,70,0|0,1:0|0:0,0:0:0:0:
242,237,23429,21,0,3:0:0:0:
242,228,23669,1,0,3:0:0:0:
238,49,24389,1,0,3:0:0:0:
238,40,24629,1,0,3:0:0:0:
251,377,25349,5,0,3:0:0:0:
251,368,25589,1,0,3:0:0:0:
251,358,25829,2,0,P|308:321|393:303,1,140,0|2,1:0|3:0,0:0:0:0:
436,257,26549,1,0,3:0:0:0:
495,307,26789,2,0,P|489:244|497:191,1,105,0|0,1:0|0:0,0:0:0:0:
499,192,27269,21,0,3:0:0:0:
459,117,27509,1,0,3:0:0:0:
378,134,27749,1,0,1:0:0:0:
366,222,27989,1,2,3:0:0:0:
366,222,28109,1,0,0:0:0:0:
366,222,28229,2,0,P|314:189|222:181,1,140,2|0,3:0|1:0,0:0:0:0:
176,22,29189,6,0,P|133:36|106:64,1,70,0|0,3:0|3:0,0:0:0:0:
44,119,29669,2,0,L|85:257,1,140,0|2,1:0|3:0,0:0:0:0:
161,215,30389,1,0,3:0:0:0:
230,267,30629,2,0,P|199:283|176:353,1,105,0|0,1:0|0:0,0:0:0:0:
188,360,31109,21,0,3:0:0:0:
272,345,31349,1,0,3:0:0:0:
344,303,31589,1,0,1:0:0:0:
423,329,31829,1,2,3:0:0:0:
429,315,32069,2,0,L|462:228,1,70,2|0,3:0|3:0,0:0:0:0:
429,125,32549,2,0,P|430:167|410:189,1,70,0|2,1:0|3:0,0:0:0:0:
313,225,33029,6,0,P|251:202|169:204,2,140,0|0|0,3:0|1:0|3:0,0:0:0:0:
305,48,34469,1,0,1:0:0:0:
338,125,34709,1,0,0:0:0:0:
258,113,34949,2,0,P|254:71|264:31,1,70,0|0,3:0|3:0,0:0:0:0:
174,139,35429,2,0,P|153:109|139:58,1,70,0|0,1:0|0:0,0:0:0:0:
143,225,35909,2,0,P|93:214|49:184,1,105.000004005432,4|0,3:2|3:0,0:0:0:0:
256,132,36869,21,4,3:2:0:0:
208,361,37349,1,0,1:0:0:0:
283,311,37589,1,0,3:0:0:0:
283,311,37709,1,0,1:0:0:0:
283,311,37829,2,0,P|283:279|296:253,1,52.5000020027161,0|0,3:0|3:0,0:0:0:0:
362,304,38309,2,0,P|380:285|411:271,1,52.5000020027161,0|0,1:0|0:0,0:0:0:0:
455,352,38789,5,2,0:0:0:0:
477,256,39029,1,2,3:2:0:0:
479,250,39149,1,0,1:0:0:0:
480,244,39269,2,0,L|498:167,1,70,2|0,3:2|1:0,0:0:0:0:
404,136,39749,2,0,L|379:109,1,35,2|0,1:2|1:0,0:0:0:0:
270,232,40229,1,2,0:0:0:0:
200,192,40469,1,2,0:0:0:0:
149,257,40709,6,0,P|103:233|29:237,1,115.50000352478,4|0,3:2|0:0,0:0:0:0:
35,247,41189,2,0,P|39:298|81:359,1,115.50000352478,0|8,1:0|0:0,0:0:0:0:
101,351,41669,1,0,3:0:0:0:
200,323,41909,1,0,3:0:0:0:
283,376,42149,1,0,1:0:0:0:
283,376,42389,1,2,3:2:0:0:
290,275,42629,6,0,P|272:226|286:153,1,115.50000352478,0|0,3:0|0:0,0:0:0:0:
289,156,43109,2,0,P|339:167|393:217,1,115.50000352478,0|8,1:0|0:0,0:0:0:0:
384,228,43589,1,0,3:0:0:0:
465,261,43829,1,0,3:0:0:0:
467,177,44069,2,0,P|459:141|474:94,1,77.0000023498536,0|2,1:0|3:2,0:0:0:0:
389,7,44549,5,2,3:0:0:0:
388,135,44789,1,2,3:0:0:0:
462,29,45029,1,2,1:3:0:0:
341,69,45269,1,2,3:0:0:0:
216,34,45509,2,0,P|248:14|299:19,1,77.0000023498536,0|0,3:0|3:0,0:0:0:0:
249,155,45989,1,0,1:0:0:0:
181,119,46229,1,2,3:2:0:0:
116,164,46469,6,0,P|111:204|129:245,1,77.0000023498536,0|0,3:0|3:0,0:0:0:0:
78,313,46949,1,0,1:0:0:0:
186,287,47189,1,0,3:0:0:0:
184,292,47309,1,8,0:0:0:0:
183,300,47429,2,0,L|166:382,1,77.0000023498536,0|0,3:0|3:0,0:0:0:0:
276,342,47909,1,0,1:0:0:0:
352,368,48149,1,2,3:2:0:0:
405,306,48389,6,0,P|426:258|418:185,1,115.50000352478,4|0,3:2|0:0,0:0:0:0:
412,187,48869,2,0,P|355:195|309:229,1,115.50000352478,0|8,1:0|0:0,0:0:0:0:
308,250,49349,1,0,3:0:0:0:
233,198,49589,1,0,3:0:0:0:
289,125,49829,1,0,1:0:0:0:
289,125,50069,1,2,3:2:0:0:
198,116,50309,6,0,P|209:59|193:4,1,115.50000352478,0|0,3:0|0:0,0:0:0:0:
185,2,50789,2,0,P|130:19|87:58,1,115.50000352478,0|8,1:0|0:0,0:0:0:0:
89,74,51269,1,0,3:0:0:0:
116,153,51509,1,0,3:0:0:0:
54,221,51749,2,0,L|137:231,1,77.0000023498536,0|2,1:0|3:2,0:0:0:0:
259,233,52229,5,2,3:0:0:0:
154,304,52469,1,2,3:0:0:0:
196,183,52709,1,2,1:3:0:0:
237,313,52949,1,2,3:0:0:0:
360,328,53189,2,0,P|371:291|367:253,1,77.0000023498536,0|0,3:0|3:0,0:0:0:0:
330,141,53669,5,0,1:0:0:0:
404,173,53909,1,2,3:2:0:0:
459,105,54149,2,0,P|453:63|420:24,1,77.0000023498536,0|0,3:0|3:0,0:0:0:0:
354,55,54629,2,0,P|317:34|273:34,1,77.0000023498536,0|0,1:0|3:0,0:0:0:0:
251,101,55109,2,0,P|208:102|166:131,1,77.0000023498536,0|0,3:0|3:0,0:0:0:0:
136,252,55589,1,0,1:0:0:0:
193,197,55829,1,2,3:2:0:0:
257,238,56069,6,0,B|265:266|240:290|240:290|214:319|238:358,1,115.50000352478,4|0,3:2|0:0,0:0:0:0:
236,349,56549,2,0,B|257:369|290:348|290:348|318:329|344:341,1,115.50000352478,0|8,1:0|0:0,0:0:0:0:
349,350,57029,1,0,3:0:0:0:
426,308,57269,1,0,3:0:0:0:
402,223,57509,1,0,1:0:0:0:
402,223,57749,1,2,3:2:0:0:
308,180,57989,6,0,B|312:151|344:139|344:139|380:123|374:78,1,115.50000352478,0|0,3:0|0:0,0:0:0:0:
370,84,58469,2,0,B|358:57|320:62|320:62|286:68|268:47,1,115.50000352478,0|8,1:0|0:0,0:0:0:0:
269,37,58949,1,0,3:0:0:0:
181,20,59189,1,0,3:0:0:0:
131,97,59429,2,0,P|155:131|150:170,1,77.0000023498536,0|2,1:0|3:2,0:0:0:0:
271,208,59909,5,2,3:0:0:0:
150,241,60149,1,2,3:0:0:0:
227,139,60389,1,2,1:3:0:0:
224,276,60629,1,2,3:0:0:0:
90,298,60869,2,0,P|125:266|165:259,1,77.0000023498536,0|0,3:0|3:0,0:0:0:0:
222,355,61349,1,0,1:0:0:0:
222,355,61589,1,2,3:2:0:0:
319,336,61829,6,0,L|328:244,1,77.0000023498536,0|0,3:0|3:0,0:0:0:0:
334,175,62309,1,0,1:0:0:0:
421,186,62549,1,0,3:0:0:0:
431,188,62669,1,8,0:0:0:0:
440,190,62789,2,0,P|421:147|421:106,1,77.0000023498536,0|0,3:0|3:0,0:0:0:0:
340,45,63269,1,0,1:0:0:0:
315,120,63509,1,2,3:2:0:0:
230,133,63749,6,0,B|221:107|244:81|244:81|269:51|251:27,1,115.50000352478,4|0,3:2|0:0,0:0:0:0:
243,18,64228,2,0,B|222:-2|188:17|188:17|160:35|134:22,1,115.50000352478,0|8,1:0|0:0,0:0:0:0:
119,10,64708,1,0,3:0:0:0:
62,73,64949,1,0,3:0:0:0:
98,151,65189,1,0,1:0:0:0:
98,151,65429,1,2,3:2:0:0:
181,139,65669,6,0,B|189:164|166:190|166:190|141:220|159:244,1,115.50000352478,0|0,3:0|0:0,0:0:0:0:
168,254,66149,2,0,B|188:274|222:254|222:254|250:236|276:249,1,115.50000352478,0|8,1:0|0:0,0:0:0:0:
287,268,66629,1,0,3:0:0:0:
312,352,66869,1,0,3:0:0:0:
228,364,67109,2,0,P|189:341|145:341,1,77.0000023498536,0|2,1:0|3:2,0:0:0:0:
10,353,67589,5,2,3:0:0:0:
68,270,67829,1,2,3:0:0:0:
89,381,68069,1,2,1:3:0:0:
65,255,68309,1,2,3:0:0:0:
146,229,68549,2,0,L|126:154,1,77.0000023498536,0|0,3:0|3:0,0:0:0:0:
240,147,69029,1,0,1:0:0:0:
281,81,69269,1,2,3:2:0:0:
356,111,69509,6,0,P|391:115|435:95,1,77.0000023498536,0|0,3:0|3:0,0:0:0:0:
368,201,69989,2,0,P|382:233|421:261,1,77.0000023498536,0|0,1:0|3:0,0:0:0:0:
310,272,70469,2,0,P|289:300|284:348,1,77.0000023498536,0|0,3:0|3:0,0:0:0:0:
221,259,70949,2,0,P|186:255|142:275,1,77.0000023498536,0|0,1:0|3:0,0:0:0:0:
81,355,71429,5,4,1:2:0:0:
111,175,72149,1,0,1:0:0:0:
111,175,72269,1,0,1:0:0:0:
111,175,72389,1,4,3:2:0:0:
139,21,73349,5,2,3:2:0:0:
269,128,74069,2,0,L|277:91,2,26.2500010013581,0|0|2,1:0|1:0|3:2,0:0:0:0:
155,295,75029,1,0,1:0:0:0:
155,295,75149,1,0,1:0:0:0:
155,295,75269,2,0,L|134:210,1,78.7500030040742,2|0,3:2|1:0,0:0:0:0:
309,369,75989,2,0,L|317:332,2,26.2500010013581,0|0|2,1:0|1:0|3:2,0:0:0:0:
139,363,77189,5,2,3:2:0:0:
249,287,77909,2,0,L|257:324,2,26.2500010013581,0|0|2,1:0|1:0|3:2,0:0:0:0:
242,138,78869,1,0,1:0:0:0:
242,138,78989,1,0,1:0:0:0:
242,138,79109,2,0,L|225:52,1,78.7500030040742,2|0,3:2|1:0,0:0:0:0:
369,59,79829,2,0,L|377:96,2,26.2500010013581,0|0|2,1:0|1:0|3:2,0:0:0:0:
256,191,81029,5,2,0:0:0:0:
256,191,81269,1,2,0:0:0:0:
