osu file format v14

[General]
AudioFilename: audio.mp3
AudioLeadIn: 0
PreviewTime: 40109
Countdown: 0
SampleSet: Soft
StackLeniency: 0.3
Mode: 0
LetterboxInBreaks: 0
WidescreenStoryboard: 0

[Editor]
DistanceSpacing: 1.2
BeatDivisor: 4
GridSize: 32
TimelineZoom: 1.5

[Metadata]
Title:Nilgiri
TitleUnicode:ニルギリ
Artist:Kudou Chitose
ArtistUnicode:久遠千歳
Creator:Yugu
Version:Just an Ordinary Girl.
Source:
Tags:Vtuber virtual youtuber バーチャルyoutuber 2434 Nijisanji にじさんじ 宇志海いちご Ushimi Ichigo 雨森小夜 Amemori Sayo ハチ 抱きしめたトゥナイト japanese pop TT Mouse TtmnZk TT_Mouse
BeatmapID:2155470
BeatmapSetID:1030692

[Difficulty]
HPDrainRate:6
CircleSize:4
OverallDifficulty:7.5
ApproachRate:8.5
SliderMultiplier:1.8
SliderTickRate:1

[Events]
//Background and Video events
Video,0,"Nilgiri.mp4"
0,0,"Kudou.png",0,0
//Break Periods
//Storyboard Layer 0 (Background)
//Storyboard Layer 1 (Fail)
//Storyboard Layer 2 (Pass)
//Storyboard Layer 3 (Foreground)
//Storyboard Layer 4 (Overlay)
//Storyboard Sound Samples

[TimingPoints]
2334,480,4,2,1,40,1,0
8094,-133.333333333333,4,2,1,40,0,0
9510,479.846449136276,4,2,1,40,1,0
9989,480,4,2,1,60,1,0
20549,-133.333333333333,4,2,1,70,0,0
23429,-133.333333333333,4,2,1,60,0,0
25349,-100,4,2,1,60,0,0
33029,-133.333333333333,4,2,1,50,0,0
33989,-133.333333333333,4,2,1,60,0,0
34949,-133.333333333333,4,2,1,70,0,0
38789,-100,4,2,1,70,0,0
40709,-74.0740740740741,4,2,1,85,0,0
54149,-74.0740740740741,4,2,1,70,0,0
54629,-74.0740740740741,4,2,1,75,0,0
55109,-74.0740740740741,4,2,1,80,0,0
55589,-74.0740740740741,4,2,1,85,0,0
71429,-66.6666666666667,4,2,1,70,0,0
73349,-133.333333333333,4,2,1,50,0,0

[Colours]
Combo1 : 252,252,194
Combo2 : 219,217,217
Combo3 : 255,181,218

[HitObjects]
101,59,2334,5,2,0:0:0:0:
127,65,2574,1,2,0:0:0:0:
230,130,3294,5,2,0:0:0:0:
256,124,3534,1,2,0:0:0:0:
385,65,4254,5,2,0:0:0:0:
411,71,4494,1,2,0:0:0:0:
282,130,5214,5,2,0:0:0:0:
256,124,5454,1,2,0:0:0:0:
178,253,6174,5,2,0:0:0:0:
186,278,6414,1,2,0:0:0:0:
334,253,7134,5,2,0:0:0:0:
326,278,7374,1,2,0:0:0:0:
127,308,8094,6,0,P|159:298|185:277,1,67.5000025749208,2|2,0:0|0:0,0:0:0:0:
385,308,9054,2,0,P|352:298|326:277,1,67.5000025749208,2|2,0:0|0:0,0:0:0:0:
249,217,9510,5,2,3:0:0:0:
256,224,9749,1,2,3:0:0:0:
256,224,9869,1,2,3:0:0:0:
256,224,9989,6,0,L|256:114,1,90,0|0,3:0|3:0,0:0:0:0:
187,29,10469,2,0,B|153:37|136:70|136:70|119:108|83:116,1,135,0|0,1:0|0:0,0:0:0:0:
57,109,10949,2,0,P|99:121|131:152,1,90,2|0,3:0|3:0,0:0:0:0:
99,302,11429,2,0,P|52:257|57:191,1,135,0|0,1:0|0:0,0:0:0:0:
82,211,11909,5,0,3:0:0:0:
180,93,12149,1,0,3:0:0:0:
232,235,12389,2,0,L|219:334,1,90,0|2,1:0|3:0,0:0:0:0:
406,384,12869,2,0,P|432:348|436:304,1,90,2|0,3:0|3:0,0:0:0:0:
329,157,13349,2,0,L|348:294,1,135,0|0,1:0|0:0,0:0:0:0:
353,321,13829,6,0,P|327:284|323:240,1,90,0|0,3:0|3:0,0:0:0:0:
472,116,14309,2,0,P|424:162|358:169,1,135,0|0,1:0|0:0,0:0:0:0:
329,157,14789,2,0,P|285:167|250:201,1,90,2|0,3:0|3:0,0:0:0:0:
186,343,15269,2,0,P|127:376|61:377,1,135,0|0,1:0|0:0,0:0:0:0:
36,357,15749,5,0,3:0:0:0:
96,252,15989,1,0,3:0:0:0:
36,147,16229,1,0,1:0:0:0:
88,276,16469,1,2,3:0:0:0:
174,166,16709,2,0,P|216:152|260:158,1,90,2|0,3:0|3:0,0:0:0:0:
451,231,17189,6,0,L|292:223,1,135,0|0,1:0|0:0,0:0:0:0:
291,204,17669,2,0,P|285:148|325:97,1,90,0|0,3:0|3:0,0:0:0:0:
449,1,18149,2,0,P|485:56|492:123,1,135,0|0,1:0|0:0,0:0:0:0:
475,150,18629,2,0,P|449:185|450:230,1,90,0|0,3:0|3:0,0:0:0:0:
500,358,19109,1,0,1:0:0:0:
377,292,19349,1,2,3:0:0:0:
377,292,19469,1,2,3:0:0:0:
377,292,19589,5,0,3:0:0:0:
257,365,19829,1,0,3:0:0:0:
293,185,20069,2,0,P|230:206|195:262,1,135,0|0,1:0|0:0,0:0:0:0:
146,367,20549,6,0,P|144:334|129:304,1,67.5000025749208,4|0,3:2|0:0,0:0:0:0:
2,235,21029,2,0,P|35:236|65:252,1,67.5000025749208,4|2,3:2|3:0,0:0:0:0:
107,151,21389,1,2,3:0:0:0:
107,151,21509,6,0,P|157:147|201:123,1,101.250003862381,0|0,3:0|0:0,0:0:0:0:
287,76,21989,1,0,1:0:0:0:
180,13,22229,2,0,P|170:26|167:43,1,33.7500012874604,0|0,3:0|1:0,0:0:0:0:
287,76,22469,2,0,P|318:91|351:94,1,67.5000025749208,0|0,3:0|3:0,0:0:0:0:
493,0,22949,2,0,P|453:30|430:75,1,101.250003862381,0|0,1:0|0:0,0:0:0:0:
436,108,23429,5,0,3:0:0:0:
436,108,23669,1,0,3:0:0:0:
482,188,24389,5,0,3:0:0:0:
482,188,24629,1,0,3:0:0:0:
436,268,25349,6,0,P|465:301|479:343,1,90,0|0,3:0|3:0,0:0:0:0:
345,194,25829,2,0,L|328:340,1,135,0|0,1:0|0:0,0:0:0:0:
326,359,26309,2,0,P|292:329|250:315,1,90,2|0,3:0|3:0,0:0:0:0:
51,344,26789,2,0,P|117:342|172:304,1,135,0|0,1:0|0:0,0:0:0:0:
161,275,27269,5,0,3:0:0:0:
187,126,27509,1,0,3:0:0:0:
44,176,27749,2,0,P|82:198|127:202,1,90,0|2,1:0|3:0,0:0:0:0:
128,61,28229,2,0,P|150:99|186:125,1,90,2|0,3:0|3:0,0:0:0:0:
292,219,28709,6,0,B|330:224|356:198|356:198|379:169|416:174,1,135,0|0,1:0|0:0,0:0:0:0:
434,197,29189,2,0,L|446:91,1,90,0|0,3:0|3:0,0:0:0:0:
281,3,29669,2,0,P|278:69|313:125,1,135,0|0,1:0|0:0,0:0:0:0:
341,109,30149,2,0,L|235:97,1,90,2|0,3:0|3:0,0:0:0:0:
118,238,30629,2,0,P|184:240|244:211,1,135,0|0,1:0|0:0,0:0:0:0:
250,179,31109,5,0,3:0:0:0:
118,149,31349,1,0,3:0:0:0:
26,248,31589,1,0,1:0:0:0:
146,144,31829,1,2,3:0:0:0:
40,81,32069,2,0,P|26:123|37:166,1,90,2|0,3:0|3:0,0:0:0:0:
61,338,32549,2,0,P|92:306|135:294,1,90,0|2,1:0|3:0,0:0:0:0:
256,192,33029,5,0,3:0:0:0:
256,192,33269,1,0,3:0:0:0:
350,338,33509,2,0,P|348:288|321:247,1,101.250003862381,0|0,1:0|0:0,0:0:0:0:
256,157,33989,5,0,3:0:0:0:
256,157,34229,1,2,3:0:0:0:
161,303,34469,2,0,P|163:253|190:211,1,101.250003862381,0|2,1:0|3:0,0:0:0:0:
256,122,34949,5,0,3:0:0:0:
256,122,35189,1,0,3:0:0:0:
351,268,35429,2,0,P|348:218|321:176,1,101.250003862381,0|0,1:0|0:0,0:0:0:0:
249,80,35909,5,4,3:2:0:0:
249,80,36389,1,0,3:0:0:0:
256,87,36629,1,2,3:0:0:0:
256,87,36749,1,2,3:0:0:0:
256,87,36869,6,0,L|256:0,1,67.5000025749208,4|0,3:2|0:0,0:0:0:0:
172,145,37349,2,0,L|194:229,1,67.5000025749208,0|0,1:0|3:0,0:0:0:0:
340,200,37709,1,0,1:0:0:0:
340,200,37829,2,0,L|296:275,1,67.5000025749208,0|0,3:0|3:0,0:0:0:0:
172,291,38309,2,0,L|233:352,1,67.5000025749208,0|0,1:0|0:0,0:0:0:0:
340,381,38789,5,2,0:0:0:0:
172,291,39029,2,0,L|203:322,1,45,2|0,3:2|1:0,0:0:0:0:
340,200,39269,1,2,3:2:0:0:
172,145,39509,1,0,1:0:0:0:
256,19,39749,1,2,1:2:0:0:
256,19,39869,1,0,1:0:0:0:
256,19,39989,1,2,0:0:0:0:
106,96,40229,6,0,P|96:115|92:138,1,45,2|0,0:0|0:0,0:0:0:0:
171,289,40469,2,0,P|160:269|154:248,1,45,2|0,0:0|0:0,0:0:0:0:
14,219,40709,6,0,B|63:210|94:255|94:255|126:297|170:289,1,182.250000695229,4|0,3:2|0:0,0:0:0:0:
247,270,41189,2,0,P|303:293|332:346,1,121.500000463486,0|0,1:0|3:0,0:0:0:0:
440,378,41549,1,8,0:0:0:0:
440,378,41669,2,0,L|452:242,1,121.500000463486,0|0,3:0|3:0,0:0:0:0:
371,125,42149,1,0,1:0:0:0:
512,198,42389,2,0,L|504:116,1,60.7500002317429,2|2,3:2|0:0,0:0:0:0:
441,31,42629,6,0,B|413:9|359:12|342:60|350:89|350:89|391:158,1,182.250000695229,0|0,3:0|0:0,0:0:0:0:
359,203,43109,2,0,P|308:234|248:236,1,121.500000463486,0|0,1:0|3:0,0:0:0:0:
137,203,43469,1,8,0:0:0:0:
137,203,43589,2,0,P|197:204|248:236,1,121.500000463486,0|0,3:0|3:0,0:0:0:0:
152,377,44069,1,0,1:0:0:0:
31,293,44309,2,0,P|41:264|61:242,1,60.7500002317429,2|2,3:2|0:0,0:0:0:0:
83,97,44549,5,2,3:0:0:0:
61,242,44789,1,2,3:0:0:0:
7,58,45029,1,2,1:3:0:0:
137,203,45269,2,0,P|157:180|167:152,1,60.7500002317429,2|8,3:0|0:0,0:0:0:0:
235,19,45509,2,0,L|245:147,1,121.500000463486,0|0,3:0|3:0,0:0:0:0:
379,204,45989,1,0,1:0:0:0:
266,326,46229,1,2,3:2:0:0:
266,326,46349,1,2,0:0:0:0:
266,326,46469,5,0,3:0:0:0:
286,231,46709,1,0,3:0:0:0:
450,384,46949,1,0,1:0:0:0:
470,289,47189,1,0,3:0:0:0:
470,289,47309,1,8,0:0:0:0:
470,289,47429,1,0,3:0:0:0:
358,355,47669,1,0,3:0:0:0:
348,164,47909,5,0,1:0:0:0:
266,326,48149,2,0,P|256:297|258:267,1,60.7500002317429,2|2,3:2|0:0,0:0:0:0:
346,79,48389,6,0,P|329:163|244:182,1,182.250000695229,4|0,3:2|0:0,0:0:0:0:
186,128,48869,2,0,P|127:124|86:166,1,121.500000463486,0|0,1:0|3:0,0:0:0:0:
45,291,49229,1,8,0:0:0:0:
45,291,49349,2,0,P|102:274|137:225,1,121.500000463486,0|0,3:0|3:0,0:0:0:0:
35,107,49829,1,0,1:0:0:0:
11,308,50069,2,0,P|12:277|26:251,1,60.7500002317429,2|2,3:2|0:0,0:0:0:0:
137,226,50309,6,0,B|148:325|148:325|157:373|203:382,1,182.250000695229,0|0,3:0|0:0,0:0:0:0:
255,323,50789,2,0,P|291:278|347:291,1,121.500000463486,0|0,1:0|3:0,0:0:0:0:
500,312,51149,1,8,0:0:0:0:
500,312,51269,2,0,P|440:318|396:359,1,121.500000463486,0|0,3:0|3:0,0:0:0:0:
314,182,51749,1,0,1:0:0:0:
452,231,51989,2,0,P|481:224|506:207,1,60.7500002317429,2|2,3:2|0:0,0:0:0:0:
314,182,52229,5,2,3:0:0:0:
507,88,52469,1,2,3:0:0:0:
273,63,52709,1,2,1:3:0:0:
448,152,52949,2,0,P|457:123|454:93,1,60.7500002317429,2|8,3:0|0:0,0:0:0:0:
381,16,53189,2,0,P|321:27|273:63,1,121.500000463486,0|0,3:0|3:0,0:0:0:0:
90,129,53669,1,0,1:0:0:0:
240,172,53909,1,2,3:2:0:0:
240,172,54029,1,2,0:0:0:0:
240,172,54149,5,0,3:0:0:0:
182,96,54389,1,0,3:0:0:0:
297,247,54629,1,0,1:0:0:0:
148,204,54869,2,0,P|136:232|133:262,1,60.7500002317429,0|8,3:0|0:0,0:0:0:0:
289,141,55109,5,0,3:0:0:0:
49,241,55349,1,0,3:0:0:0:
107,32,55589,1,0,1:0:0:0:
212,256,55829,2,0,P|223:283|226:313,1,60.7500002317429,2|2,3:2|0:0,0:0:0:0:
289,141,56069,6,0,P|379:139|447:81,1,182.250000695229,4|0,3:2|0:0,0:0:0:0:
403,14,56549,2,0,P|370:63|379:122,1,121.500000463486,0|0,1:0|3:0,0:0:0:0:
471,182,56909,1,8,0:0:0:0:
471,182,57029,2,0,P|504:231|495:290,1,121.500000463486,0|0,3:0|3:0,0:0:0:0:
268,268,57509,1,0,1:0:0:0:
387,379,57749,2,0,P|415:367|436:346,1,60.7500002317429,2|2,3:2|0:0,0:0:0:0:
301,190,57989,6,0,P|214:201|187:290,1,182.250000695229,0|0,3:0|0:0,0:0:0:0:
234,345,58469,2,0,P|295:348|348:287,1,121.500000463486,0|0,1:0|3:0,0:0:0:0:
268,268,58829,1,8,0:0:0:0:
268,268,58949,2,0,L|144:240,1,121.500000463486,0|0,3:0|3:0,0:0:0:0:
0,309,59429,1,0,1:0:0:0:
82,140,59669,2,0,L|141:126,1,60.7500002317429,2|2,3:2|0:0,0:0:0:0:
9,70,59909,5,2,3:0:0:0:
221,108,60149,1,2,3:0:0:0:
130,15,60389,1,2,1:3:0:0:
74,233,60629,2,0,P|75:263|90:289,1,60.7500002317429,2|8,3:0|0:0,0:0:0:0:
217,339,60869,2,0,P|274:323|313:277,1,121.500000463486,0|0,3:0|3:0,0:0:0:0:
464,152,61349,1,0,1:0:0:0:
279,79,61589,1,2,3:2:0:0:
279,79,61709,1,2,0:0:0:0:
279,79,61829,5,0,3:0:0:0:
296,178,62069,1,0,3:0:0:0:
447,53,62309,1,0,1:0:0:0:
464,152,62549,1,0,3:0:0:0:
464,152,62669,1,8,0:0:0:0:
464,152,62789,1,0,3:0:0:0:
363,66,63029,1,0,3:0:0:0:
368,285,63269,5,0,1:0:0:0:
464,152,63509,2,0,P|467:181|459:210,1,60.7500002317429,2|2,3:2|0:0,0:0:0:0:
498,371,63749,6,0,P|454:294|367:285,1,182.250000695229,4|0,3:2|0:0,0:0:0:0:
310,339,64229,2,0,P|257:368|199:355,1,121.500000463486,0|0,1:0|3:0,0:0:0:0:
112,263,64589,1,8,0:0:0:0:
112,263,64709,2,0,P|169:249|222:278,1,121.500000463486,0|0,3:0|3:0,0:0:0:0:
85,380,65189,1,0,1:0:0:0:
52,200,65429,2,0,P|31:177|4:164,1,60.7500002317429,2|2,3:2|0:0,0:0:0:0:
118,38,65669,6,0,L|138:240,1,182.250000695229,0|0,3:0|0:0,0:0:0:0:
213,184,66149,2,0,P|234:128|275:83,1,121.500000463486,0|0,1:0|3:0,0:0:0:0:
394,38,66509,1,8,0:0:0:0:
394,38,66629,2,0,L|379:189,1,121.500000463486,0|0,3:0|3:0,0:0:0:0:
321,356,67109,1,0,1:0:0:0:
306,207,67349,2,0,L|311:267,1,60.7500002317429,2|2,3:2|0:0,0:0:0:0:
465,329,67589,5,2,3:0:0:0:
312,267,67829,1,2,3:0:0:0:
465,140,68069,1,2,1:3:0:0:
223,189,68309,2,0,L|228:249,1,60.7500002317429,2|8,3:0|0:0,0:0:0:0:
178,362,68549,2,0,L|191:229,1,121.500000463486,0|0,3:0|3:0,0:0:0:0:
11,167,69029,1,0,1:0:0:0:
45,275,69269,1,2,3:2:0:0:
45,275,69389,1,2,0:0:0:0:
45,275,69509,5,0,3:0:0:0:
122,191,69749,1,0,3:0:0:0:
178,362,69989,1,0,1:0:0:0:
122,190,70229,2,0,P|121:221|133:249,1,60.7500002317429,0|8,3:0|0:0,0:0:0:0:
295,284,70469,5,0,3:0:0:0:
66,355,70709,1,0,3:0:0:0:
316,364,70949,1,0,1:0:0:0:
45,275,71189,1,0,3:0:0:0:
269,156,71429,6,0,B|269:18|392:22|392:22|406:18|406:18|401:31|401:31|406:156|272:156|272:156,1,405.000015449525,4|0,1:2|1:0,0:0:0:0:
187,140,72269,1,0,1:0:0:0:
187,140,72389,2,0,B|325:140|320:263|320:263|325:276|325:276|312:272|312:272|187:276|187:143|187:143,1,405.000015449525,4|0,3:2|0:0,0:0:0:0:
74,226,73349,6,0,P|89:196|116:176,1,67.5000025749208,2|2,3:2|0:0,0:0:0:0:
56,105,74069,1,0,1:0:0:0:
56,105,74189,1,0,1:0:0:0:
56,105,74309,2,0,P|88:95|121:99,1,67.5000025749208,2|2,3:2|0:0,0:0:0:0:
129,8,75029,1,0,1:0:0:0:
129,8,75149,1,0,1:0:0:0:
129,8,75269,6,0,P|158:23|179:49,1,67.5000025749208,2|2,3:2|0:0,0:0:0:0:
211,59,75629,1,0,1:0:0:0:
383,8,75989,1,0,1:0:0:0:
383,8,76109,1,0,1:0:0:0:
383,8,76229,2,0,P|353:23|332:49,1,67.5000025749208,2|2,3:2|0:0,0:0:0:0:
487,298,77189,6,0,P|457:282|437:255,1,67.5000025749208,2|2,3:2|0:0,0:0:0:0:
366,316,77909,1,0,1:0:0:0:
366,316,78029,1,0,1:0:0:0:
366,316,78149,2,0,P|356:283|360:250,1,67.5000025749208,2|2,3:2|0:0,0:0:0:0:
268,244,78869,1,0,1:0:0:0:
268,244,78989,1,0,1:0:0:0:
268,244,79109,6,0,P|284:213|310:193,1,67.5000025749208,2|2,3:2|0:0,0:0:0:0:
321,161,79469,1,0,1:0:0:0:
137,103,79829,1,0,1:0:0:0:
137,103,79949,1,0,1:0:0:0:
137,103,80069,2,0,P|170:98|203:106,1,67.5000025749208,2|2,3:2|0:0,0:0:0:0:
256,32,81029,5,2,0:0:0:0:
256,32,81269,1,2,0:0:0:0:
