osu file format v14

[General]
AudioFilename: audio.mp3
AudioLeadIn: 0
PreviewTime: 1615
Countdown: 0
SampleSet: Normal
StackLeniency: 0.7
Mode: 0
LetterboxInBreaks: 0
WidescreenStoryboard: 1

[Editor]
DistanceSpacing: 2
BeatDivisor: 4
GridSize: 32
TimelineZoom: 2.1

[Metadata]
Title:I beg you
TitleUnicode:I beg you
Artist:Kudou Chitose
ArtistUnicode:久遠千歳
Creator:Yugu
Version:Normal
Source:Fate/stay night [Heaven's Feel] Ⅱ.lost butterfly
Tags:Vtuber virtual youtuber バーチャルyoutuber 2434 Nijisanji にじさんじ japanese pop Anime j-pop jpop aimer ending ed movie cover 梶浦由記 kajiura yuki II
BeatmapID:2542809
BeatmapSetID:1193273

[Difficulty]
HPDrainRate:4
CircleSize:3.5
OverallDifficulty:4
ApproachRate:5
SliderMultiplier:1.4
SliderTickRate:1

[Events]
//Background and Video events
0,0,"EJfvg7XU0AA1sWP.jpg",0,0
//Break Periods
//Storyboard Layer 0 (Background)
//Storyboard Layer 1 (Fail)
//Storyboard Layer 2 (Pass)
//Storyboard Layer 3 (Foreground)
//Storyboard Layer 4 (Overlay)
//Storyboard Sound Samples

[TimingPoints]
5834,468.75,4,2,0,40,1,0
5834,-111.111111111111,4,2,0,40,0,0
7005,-111.111111111111,4,2,0,40,0,0
9584,-111.111111111111,4,2,0,40,0,0
10755,-111.111111111111,4,2,0,40,0,0
13334,-111.111111111111,4,2,0,40,0,0
14037,-111.111111111111,4,2,0,40,0,0
26928,-111.111111111111,4,2,0,40,0,0
30209,-100,4,1,0,50,0,0
32084,-100,4,1,0,70,0,0
32552,-100,4,1,0,70,0,0
33021,-100,4,1,0,70,0,0
36302,-100,4,1,0,70,0,0
38177,-100,4,1,0,70,0,0
40052,-100,4,1,0,70,0,0
40521,-100,4,1,0,70,0,0
43802,-100,4,1,0,70,0,0
48958,-100,4,1,0,70,0,0
49427,-100,4,1,0,70,0,0
49896,-100,4,1,0,70,0,0
51302,-100,4,1,0,70,0,0
51771,-100,4,1,0,70,0,0
52240,-100,4,1,0,70,0,0
52708,-100,4,1,0,70,0,0
53177,-100,4,1,0,70,0,0
53646,-100,4,1,0,70,0,0
54115,-100,4,1,0,70,0,0
55990,-100,4,1,0,70,0,0
56458,-100,4,1,0,70,0,0
59271,-100,4,1,0,70,0,0
59740,-100,4,1,0,70,0,0
60208,-100,4,1,0,70,0,0
60677,-100,4,1,0,70,0,0
61146,-100,4,1,0,70,0,0
62552,-100,4,1,0,70,0,0
63021,-100,4,1,0,70,0,0
63490,-100,4,1,0,70,0,0
63959,-100,4,1,0,70,0,0
64427,-100,4,1,0,70,0,0
64896,-100,4,1,0,70,0,0
65365,-100,4,1,0,70,0,0
65834,-100,4,1,0,50,0,0
66068,-100,4,1,0,50,0,0
66302,-100,4,1,0,50,0,0
66771,-100,4,1,0,50,0,0
67005,-100,4,1,0,50,0,0
67240,-100,4,1,0,50,0,0

[Colours]
Combo1 : 255,244,32
Combo2 : 223,223,223
Combo3 : 85,85,85
Combo4 : 255,32,71

[HitObjects]
88,124,5834,6,0,P|119:132|147:145,1,62.9999980773926,2|0,0:2|0:0,0:0:0:0:
228,157,6302,2,0,P|236:187|235:218,1,62.9999980773926,2|0,0:2|0:0,0:0:0:0:
188,285,6771,1,2,0:2:0:0:
188,285,7005,1,2,0:2:0:0:
360,354,9584,6,0,L|368:275,1,62.9999980773926,2|2,0:2|0:2,0:0:0:0:
336,215,10052,2,0,L|344:136,1,62.9999980773926,2|2,0:2|0:2,0:0:0:0:
310,76,10521,1,2,0:2:0:0:
310,76,10755,1,2,0:2:0:0:
256,0,13334,38,0,L|256:192,1,188.999994232178,0|2,1:2|1:2,0:0:0:0:
201,249,14271,1,2,0:2:0:0:
132,205,14505,2,0,L|54:194,2,62.9999980773926,2|0|2,2:2|1:0|2:3,0:0:0:0:
226,339,15443,5,0,0:0:0:0:
226,339,15677,2,0,P|269:332|323:260,1,125.999996154785,0|0,0:0|0:0,0:0:0:0:
463,191,16615,1,0,0:0:0:0:
463,191,16849,1,0,0:0:0:0:
463,191,17084,38,0,L|441:53,1,125.999996154785,2|2,1:2|0:2,0:0:0:0:
369,30,17787,2,0,P|307:30|265:74,1,125.999996154785,2|2,0:2|0:2,0:0:0:0:
186,218,18724,6,0,P|124:211|80:168,1,125.999996154785,2|2,2:3|0:2,0:0:0:0:
37,98,19427,1,2,0:2:0:0:
99,44,19662,2,0,L|171:32,2,62.9999980773926,2|2|2,0:2|0:2|0:2,0:0:0:0:
108,207,20599,38,0,P|120:268|125:331,1,125.999996154785,0|2,0:0|0:2,0:0:0:0:
201,362,21302,1,2,0:2:0:0:
264,310,21537,2,0,L|338:301,2,62.9999980773926,2|2|2,0:2|0:2|2:3,0:0:0:0:
222,151,22474,6,0,P|260:103|321:104,1,125.999996154785,0|0,0:0|0:0,0:0:0:0:
378,163,23177,1,0,0:0:0:0:
440,109,23412,2,0,L|511:97,2,62.9999980773926,2|0|2,0:2|0:0|0:2,0:0:0:0:
365,255,24349,38,0,P|303:264|249:235,1,125.999996154785,2|2,2:3|0:2,0:0:0:0:
178,194,25052,1,2,0:2:0:0:
226,127,25287,2,0,P|224:98|199:55,1,62.9999980773926,2|2,1:2|0:2,0:0:0:0:
132,41,25755,1,2,0:2:0:0:
67,192,26224,6,0,P|78:281|163:311,1,188.999994232178,0|0,2:3|0:0,0:0:0:0:
233,355,27162,1,0,0:0:0:0:
233,355,27396,1,2,2:3:0:0:
418,193,28099,38,0,B|430:113|404:144|416:67,1,125.999996154785,0|2,0:0|0:2,0:0:0:0:
348,22,28802,1,2,0:2:0:0:
266,32,29037,2,0,L|200:41,2,62.9999980773926,2|2|2,1:2|0:2|0:2,0:0:0:0:
313,188,29974,1,0,0:0:0:0:
313,188,30209,22,0,P|242:195|208:132,2,140,4|4|4,0:3|0:3|0:3,0:0:0:0:
438,319,31615,1,8,0:3:0:0:
438,319,31849,1,8,0:3:0:0:
438,319,32084,6,0,P|443:264|460:178,1,140,6|8,1:2|0:0,0:0:0:0:
293,105,33021,2,0,P|288:160|271:246,1,140,2|8,1:2|0:0,0:0:0:0:
194,291,33724,1,0,0:0:0:0:
194,291,33959,38,0,L|102:269,1,70,2|2,1:2|1:2,0:0:0:0:
67,204,34427,2,0,L|89:112,1,70,8|0,0:0|0:0,0:0:0:0:
59,47,34896,2,0,P|127:51|173:101,1,140,2|8,1:2|0:0,0:0:0:0:
329,195,35834,6,0,B|424:171|366:164|456:139,1,140,2|8,1:2|0:0,0:0:0:0:
504,62,36537,1,2,1:2:0:0:
423,19,36771,2,0,L|266:8,1,140,2|8,1:2|0:0,0:0:0:0:
135,116,37709,38,0,B|140:193|158:162|164:252,1,140,2|8,1:2|0:0,0:0:0:0:
152,342,38412,2,0,B|229:337|198:319|288:312,1,140,0|2,0:0|1:2,0:0:0:0:
371,348,39115,1,8,0:0:0:0:
371,348,39349,1,2,1:2:0:0:
371,348,39584,6,0,P|428:329|424:241,1,140,2|8,1:2|0:0,0:0:0:0:
337,104,40521,2,0,P|280:123|284:211,1,140,2|8,1:2|0:0,0:0:0:0:
250,286,41224,1,0,0:0:0:0:
250,286,41459,38,0,L|179:303,1,70,2|2,1:2|1:2,0:0:0:0:
98,338,41927,2,0,L|27:321,1,70,8|0,0:0|0:0,0:0:0:0:
19,231,42396,2,0,P|47:169|112:150,1,140,2|8,1:2|0:0,0:0:0:0:
231,12,43334,6,0,P|298:5|347:52,1,140,2|8,1:2|0:0,0:0:0:0:
415,113,44037,1,2,1:2:0:0:
407,203,44271,2,0,L|393:351,1,140,2|8,1:2|0:0,0:0:0:0:
211,355,45209,38,0,P|209:320|213:285,1,70,2|2,1:2|1:2,0:0:0:0:
253,203,45677,2,0,P|250:133|240:63,1,140,8|2,0:0|1:2,0:0:0:0:
158,24,46380,1,2,1:2:0:0:
84,77,46615,2,0,P|83:111|88:146,1,70,8|2,0:0|1:2,0:0:0:0:
117,233,47084,6,0,L|97:390,2,140,6|8|2,1:2|0:0|1:2,0:0:0:0:
198,192,48255,1,2,1:2:0:0:
198,192,48490,1,8,0:0:0:0:
349,293,48959,38,0,P|417:288|473:246,2,140,2|8|2,1:2|0:0|1:2,0:0:0:0:
312,209,50130,1,2,1:2:0:0:
312,209,50365,2,0,L|318:112,1,70,8|2,0:0|3:3,0:0:0:0:
323,48,50834,1,6,1:2:0:0:
167,142,51302,6,0,P|150:209|164:277,1,140,2|2,1:2|1:2,0:0:0:0:
347,277,52240,2,0,P|360:208|344:141,1,140,8|2,0:0|1:2,0:0:0:0:
180,61,53177,2,0,L|34:48,2,140,2|2|8,1:2|1:2|0:0,0:0:0:0:
256,11,54349,1,0,0:0:0:0:
322,73,54584,38,0,P|343:137|336:220,1,140,2|2,1:2|1:2,0:0:0:0:
256,247,55287,1,2,1:2:0:0:
256,247,55521,2,0,P|305:293|373:292,1,140,0|8,0:0|0:0,0:0:0:0:
480,144,56459,6,0,P|407:128|315:112,1,140,2|2,1:2|1:2,0:0:0:0:
272,58,57162,1,0,0:0:0:0:
198,110,57396,1,0,1:2:0:0:
32,33,57865,1,8,0:0:0:0:
78,208,58334,1,6,1:2:0:0:
78,208,58802,38,0,P|75:155|109:73,1,140,2|2,1:2|1:2,0:0:0:0:
284,114,59740,2,0,P|285:184|256:247,1,140,8|2,0:0|1:2,0:0:0:0:
114,361,60677,2,0,L|106:213,2,140,2|2|8,1:2|1:2|0:0,0:0:0:0:
198,327,61849,1,0,0:0:0:0:
280,365,62084,6,0,P|346:348|394:297,1,140,2|2,1:2|1:2,0:0:0:0:
458,233,62787,1,2,1:2:0:0:
458,233,63021,2,0,P|453:161|446:76,1,140,2|8,1:2|0:0,0:0:0:0:
272,40,63959,38,0,P|277:112|284:197,1,140,2|2,1:2|1:2,0:0:0:0:
229,253,64662,1,0,0:0:0:0:
148,211,64896,1,2,1:2:0:0:
180,31,65365,1,8,0:0:0:0:
9,95,65834,5,2,1:1:0:0:
9,95,66068,2,0,P|16:134|30:163,1,70,2|2,0:1|1:1,0:0:0:0:
140,311,66771,1,2,1:1:0:0:
140,311,67005,2,0,P|163:285|179:253,1,70,2|2,0:1|1:1,0:0:0:0:
