osu file format v14

[General]
AudioFilename: audio.mp3
AudioLeadIn: 0
PreviewTime: 31615
Countdown: 0
SampleSet: Normal
StackLeniency: 0.7
Mode: 1
LetterboxInBreaks: 0
WidescreenStoryboard: 0

[Editor]
DistanceSpacing: 1.2
BeatDivisor: 4
GridSize: 32
TimelineZoom: 1.2

[Metadata]
Title:I beg you
TitleUnicode:I beg you
Artist:Kudou Chitose
ArtistUnicode:久遠千歳
Creator:Froskya
Version:Pray
Source:劇場版「Fate/stay night [Heaven's Feel]」 Ⅱ.lost butterfly
Tags:Vtuber virtual youtuber バーチャルyoutuber 2434 Nijisanji にじさんじ japanese pop Anime j-pop jpop aimer ending ed movie cover 梶浦由記 kajiura yuki II theme song revialink
BeatmapID:3190715
BeatmapSetID:1562463

[Difficulty]
HPDrainRate:6
CircleSize:2
OverallDifficulty:6
ApproachRate:10
SliderMultiplier:1.4
SliderTickRate:1

[Events]
//Background and Video events
0,0,"lalala.jpg",0,95
//Break Periods
//Storyboard Layer 0 (Background)
//Storyboard Layer 1 (Fail)
//Storyboard Layer 2 (Pass)
//Storyboard Layer 3 (Foreground)
//Storyboard Layer 4 (Overlay)
//Storyboard Sound Samples

[TimingPoints]
5834,468.75,4,1,0,40,1,0
5834,-125,4,1,0,40,0,0
28099,-121.951219512195,4,1,0,40,0,0
28216,-120.481927710843,4,1,0,40,0,0
28334,-119.047619047619,4,1,0,40,0,0
28568,-116.279069767442,4,1,0,40,0,0
28802,-113.636363636364,4,1,0,40,0,0
29037,-111.111111111111,4,1,0,40,0,0
29271,-108.695652173913,4,1,0,40,0,0
29388,-107.52688172043,4,1,0,40,0,0
29505,-106.382978723404,4,1,0,40,0,0
29740,-104.166666666667,4,1,0,40,0,0
29974,-102.040816326531,4,1,0,40,0,0
30209,-100,4,1,0,50,0,0
30443,-98.0392156862745,4,1,0,50,0,0
30521,-97.0873786407767,4,1,0,50,0,0
30599,-96.1538461538461,4,1,0,50,0,0
30677,-95.2380952380952,4,1,0,50,0,0
30912,-93.4579439252336,4,1,0,50,0,0
30990,-92.5925925925926,4,1,0,50,0,0
31068,-91.743119266055,4,1,0,50,0,0
31146,-90.9090909090909,4,1,0,50,0,0
31380,-89.2857142857143,4,1,0,50,0,0
31459,-88.4955752212389,4,1,0,50,0,0
31537,-87.719298245614,4,1,0,50,0,0
31615,-86.9565217391304,4,1,0,50,0,0
31732,-85.7632933104631,4,1,0,50,0,0
31849,-85.1063829787234,4,1,0,50,0,0
32084,-83.3333333333333,4,1,0,60,0,1
49896,-84.7457627118644,4,1,0,60,0,1
50130,-86.2068965517241,4,1,0,60,0,1
50365,-87.719298245614,4,1,0,60,0,1
50599,-89.2857142857143,4,1,0,60,0,1
50716,-90.0900900900901,4,1,0,60,0,1
50834,-90.9090909090909,4,1,0,50,0,0
64896,-92.5925925925926,4,1,0,40,0,0
65013,-93.4579439252336,4,1,0,40,0,0
65130,-94.3396226415094,4,1,0,40,0,0
65365,-96.1538461538461,4,1,0,40,0,0
65482,-97.0873786407767,4,1,0,40,0,0
65599,-98.0392156862745,4,1,0,40,0,0
65716,-99.009900990099,4,1,0,40,0,0
65834,-100,4,1,0,40,0,0

[HitObjects]
256,192,5834,5,0,0:0:0:0:
256,192,6068,1,0,0:0:0:0:
256,192,6302,1,8,0:0:0:0:
256,192,6537,1,0,0:0:0:0:
256,192,6771,1,8,0:0:0:0:
256,192,7005,1,0,0:0:0:0:
256,192,7474,1,0,0:0:0:0:
256,192,7709,1,8,0:0:0:0:
256,192,7943,1,8,0:0:0:0:
256,192,8177,1,0,0:0:0:0:
256,192,8294,1,0,0:0:0:0:
256,192,8412,1,8,0:0:0:0:
256,192,8880,1,8,0:0:0:0:
256,192,9349,1,8,0:0:0:0:
256,192,9466,1,8,0:0:0:0:
256,192,9584,1,0,0:0:0:0:
256,192,9818,1,0,0:0:0:0:
256,192,10052,1,8,0:0:0:0:
256,192,10287,1,0,0:0:0:0:
256,192,10521,1,8,0:0:0:0:
256,192,10638,1,8,0:0:0:0:
256,192,10755,1,8,0:0:0:0:
256,192,10990,1,0,0:0:0:0:
256,192,12162,1,0,0:0:0:0:
256,192,12396,1,8,0:0:0:0:
256,192,12630,1,8,0:0:0:0:
256,192,12865,1,0,0:0:0:0:
256,192,13334,1,0,0:0:0:0:
256,192,13568,1,8,0:0:0:0:
256,192,13802,1,8,0:0:0:0:
256,192,14037,1,0,0:0:0:0:
256,192,14271,1,8,0:0:0:0:
256,192,14505,1,0,0:0:0:0:
256,192,14740,1,0,0:0:0:0:
256,192,14857,1,0,0:0:0:0:
256,192,14974,1,8,0:0:0:0:
256,192,15443,1,8,0:0:0:0:
256,192,15677,1,0,0:0:0:0:
256,192,16146,1,8,0:0:0:0:
256,192,16615,1,8,0:0:0:0:
256,192,16849,1,8,0:0:0:0:
256,192,16966,1,8,0:0:0:0:
256,192,17084,1,0,0:0:0:0:
256,192,17318,1,0,0:0:0:0:
256,192,17552,1,8,0:0:0:0:
256,192,17787,1,8,0:0:0:0:
256,192,17904,1,8,0:0:0:0:
256,192,18021,1,0,0:0:0:0:
256,192,18255,1,8,0:0:0:0:
256,192,18724,1,8,0:0:0:0:
256,192,18841,1,8,0:0:0:0:
256,192,18959,1,0,0:0:0:0:
256,192,19193,1,0,0:0:0:0:
256,192,19427,1,8,0:0:0:0:
256,192,19662,1,0,0:0:0:0:
256,192,19896,1,0,0:0:0:0:
256,192,20013,1,0,0:0:0:0:
256,192,20130,1,8,0:0:0:0:
256,192,20599,1,8,0:0:0:0:
256,192,20716,1,8,0:0:0:0:
256,192,20834,1,0,0:0:0:0:
256,192,21068,1,8,0:0:0:0:
256,192,21302,1,8,0:0:0:0:
256,192,21537,1,0,0:0:0:0:
256,192,21771,1,8,0:0:0:0:
256,192,21888,1,8,0:0:0:0:
256,192,22005,1,0,0:0:0:0:
256,192,22474,1,0,0:0:0:0:
256,192,22943,1,0,0:0:0:0:
256,192,23177,1,8,0:0:0:0:
256,192,23412,1,8,0:0:0:0:
256,192,23529,1,8,0:0:0:0:
256,192,23646,1,0,0:0:0:0:
256,192,23880,1,8,0:0:0:0:
256,192,24349,1,8,0:0:0:0:
256,192,24466,1,8,0:0:0:0:
256,192,24584,1,0,0:0:0:0:
256,192,24818,1,0,0:0:0:0:
256,192,25052,1,8,0:0:0:0:
256,192,25287,1,0,0:0:0:0:
256,192,25521,1,8,0:0:0:0:
256,192,25638,1,8,0:0:0:0:
256,192,25755,1,8,0:0:0:0:
256,192,25990,1,0,0:0:0:0:
256,192,26224,1,8,0:0:0:0:
256,192,26341,1,8,0:0:0:0:
256,192,26459,1,0,0:0:0:0:
256,192,26927,1,0,0:0:0:0:
256,192,27162,1,0,0:0:0:0:
256,192,27396,1,8,0:0:0:0:
256,192,28099,1,8,0:0:0:0:
256,192,28216,1,8,0:0:0:0:
256,192,28334,1,0,0:0:0:0:
256,192,28568,1,0,0:0:0:0:
256,192,28802,1,8,0:0:0:0:
256,192,29037,1,0,0:0:0:0:
256,192,29271,1,8,0:0:0:0:
256,192,29388,1,8,0:0:0:0:
256,192,29505,1,8,0:0:0:0:
256,192,29740,1,0,0:0:0:0:
256,192,29974,1,8,0:0:0:0:
256,192,30209,1,8,0:0:0:0:
256,192,30443,1,0,0:0:0:0:
256,192,30521,1,0,0:0:0:0:
256,192,30599,1,8,0:0:0:0:
256,192,30677,1,8,0:0:0:0:
256,192,30912,1,0,0:0:0:0:
256,192,30990,1,0,0:0:0:0:
256,192,31068,1,8,0:0:0:0:
256,192,31146,1,8,0:0:0:0:
256,192,31380,1,0,0:0:0:0:
256,192,31459,1,0,0:0:0:0:
256,192,31537,1,8,0:0:0:0:
256,192,31615,1,8,0:0:0:0:
256,192,31732,1,0,0:0:0:0:
256,192,31849,1,0,0:0:0:0:
256,192,32084,1,12,0:0:0:0:
256,192,32552,1,8,0:0:0:0:
256,192,33021,1,8,0:0:0:0:
256,192,33138,1,0,0:0:0:0:
256,192,33255,1,0,0:0:0:0:
256,192,33490,1,8,0:0:0:0:
256,192,33724,1,8,0:0:0:0:
256,192,33959,1,0,0:0:0:0:
256,192,34193,1,8,0:0:0:0:
256,192,34310,1,0,0:0:0:0:
256,192,34427,1,8,0:0:0:0:
256,192,34662,1,8,0:0:0:0:
256,192,34896,1,0,0:0:0:0:
256,192,35013,1,8,0:0:0:0:
256,192,35130,1,0,0:0:0:0:
256,192,35365,1,8,0:0:0:0:
256,192,35599,1,0,0:0:0:0:
256,192,35716,1,0,0:0:0:0:
256,192,35834,1,8,0:0:0:0:
256,192,36302,1,8,0:0:0:0:
256,192,36537,1,8,0:0:0:0:
256,192,36654,1,8,0:0:0:0:
256,192,36771,1,0,0:0:0:0:
256,192,37005,1,0,0:0:0:0:
256,192,37240,1,8,0:0:0:0:
256,192,37474,1,0,0:0:0:0:
256,192,37592,1,0,0:0:0:0:
256,192,37709,1,8,0:0:0:0:
256,192,37943,1,0,0:0:0:0:
256,192,38177,1,8,0:0:0:0:
256,192,38294,1,0,0:0:0:0:
256,192,38412,1,8,0:0:0:0:
256,192,38646,1,8,0:0:0:0:
256,192,38880,1,0,0:0:0:0:
256,192,38998,1,0,0:0:0:0:
256,192,39115,1,8,0:0:0:0:
256,192,39233,1,0,0:0:0:0:
256,192,39350,1,8,0:0:0:0:
256,192,39467,1,8,0:0:0:0:
256,192,39584,1,0,0:0:0:0:
256,192,40052,1,8,0:0:0:0:
256,192,40521,1,0,0:0:0:0:
256,192,40638,1,0,0:0:0:0:
256,192,40755,1,0,0:0:0:0:
256,192,40990,1,8,0:0:0:0:
256,192,41224,1,8,0:0:0:0:
256,192,41341,1,8,0:0:0:0:
256,192,41459,1,0,0:0:0:0:
256,192,41693,1,8,0:0:0:0:
256,192,41810,1,0,0:0:0:0:
256,192,41927,1,8,0:0:0:0:
256,192,42162,1,8,0:0:0:0:
256,192,42396,1,0,0:0:0:0:
256,192,42513,1,0,0:0:0:0:
256,192,42630,1,8,0:0:0:0:
256,192,42748,1,0,0:0:0:0:
256,192,42865,1,8,0:0:0:0:
256,192,43099,1,0,0:0:0:0:
256,192,43334,1,8,0:0:0:0:
256,192,43802,1,8,0:0:0:0:
256,192,44037,1,8,0:0:0:0:
256,192,44154,1,8,0:0:0:0:
256,192,44271,1,0,0:0:0:0:
256,192,44505,1,0,0:0:0:0:
256,192,44740,1,8,0:0:0:0:
256,192,44974,1,0,0:0:0:0:
256,192,45091,1,0,0:0:0:0:
256,192,45209,1,8,0:0:0:0:
256,192,45443,1,0,0:0:0:0:
256,192,45677,1,8,0:0:0:0:
256,192,45912,1,0,0:0:0:0:
256,192,46146,1,0,0:0:0:0:
256,192,46263,1,8,0:0:0:0:
256,192,46380,1,0,0:0:0:0:
256,192,46615,1,8,0:0:0:0:
256,192,46732,1,8,0:0:0:0:
256,192,46849,1,0,0:0:0:0:
256,192,46966,1,0,0:0:0:0:
256,192,47084,1,12,0:0:0:0:
254,190,47552,1,8,0:0:0:0:
254,190,47787,1,8,0:0:0:0:
254,190,48021,1,0,0:0:0:0:
254,190,48138,1,8,0:0:0:0:
254,190,48255,1,0,0:0:0:0:
254,190,48490,1,8,0:0:0:0:
255,191,48959,1,0,0:0:0:0:
255,191,49427,1,8,0:0:0:0:
255,191,49896,1,0,0:0:0:0:
255,191,50130,1,0,0:0:0:0:
255,191,50365,1,8,0:0:0:0:
255,191,50599,1,0,0:0:0:0:
255,191,50716,1,0,0:0:0:0:
256,192,50834,1,12,0:0:0:0:
254,191,51302,1,0,0:0:0:0:
254,191,51537,1,8,0:0:0:0:
254,191,51771,1,8,0:0:0:0:
254,191,51888,1,0,0:0:0:0:
254,191,52005,1,8,0:0:0:0:
254,191,52240,1,0,0:0:0:0:
254,191,52474,1,8,0:0:0:0:
254,191,52709,1,0,0:0:0:0:
254,191,52826,1,0,0:0:0:0:
254,191,52943,1,8,0:0:0:0:
254,191,53177,1,0,0:0:0:0:
254,191,53646,1,8,0:0:0:0:
254,191,53763,1,0,0:0:0:0:
254,191,53880,1,8,0:0:0:0:
254,191,53998,1,8,0:0:0:0:
254,191,54115,1,0,0:0:0:0:
254,191,54349,1,8,0:0:0:0:
254,191,54584,1,0,0:0:0:0:
254,191,55052,1,0,0:0:0:0:
254,191,55287,1,8,0:0:0:0:
254,191,55521,1,0,0:0:0:0:
254,191,55638,1,0,0:0:0:0:
254,191,55755,1,8,0:0:0:0:
254,191,55990,1,0,0:0:0:0:
254,191,56224,1,8,0:0:0:0:
254,191,56459,1,8,0:0:0:0:
254,191,56576,1,0,0:0:0:0:
254,191,56693,1,8,0:0:0:0:
254,191,56927,1,0,0:0:0:0:
254,191,57162,1,8,0:0:0:0:
257,188,57396,1,8,0:0:0:0:
257,188,57513,1,8,0:0:0:0:
257,188,57631,1,0,0:0:0:0:
257,188,57865,1,8,0:0:0:0:
257,188,58099,1,0,0:0:0:0:
257,188,58334,1,12,0:0:0:0:
254,191,58802,1,0,0:0:0:0:
254,191,59037,1,8,0:0:0:0:
254,191,59271,1,0,0:0:0:0:
254,191,59388,1,0,0:0:0:0:
254,191,59505,1,8,0:0:0:0:
254,191,59740,1,0,0:0:0:0:
254,191,59974,1,8,0:0:0:0:
254,191,60209,1,0,0:0:0:0:
254,191,60326,1,0,0:0:0:0:
254,191,60443,1,8,0:0:0:0:
254,191,60677,1,0,0:0:0:0:
254,191,61146,1,8,0:0:0:0:
254,191,61263,1,0,0:0:0:0:
254,191,61380,1,8,0:0:0:0:
254,191,61498,1,8,0:0:0:0:
254,191,61615,1,0,0:0:0:0:
254,191,61849,1,8,0:0:0:0:
254,191,62084,1,0,0:0:0:0:
254,191,62552,1,0,0:0:0:0:
254,191,62787,1,8,0:0:0:0:
254,191,63021,1,8,0:0:0:0:
254,191,63138,1,8,0:0:0:0:
254,191,63255,1,0,0:0:0:0:
254,191,63490,1,8,0:0:0:0:
254,191,63724,1,0,0:0:0:0:
254,191,63959,1,8,0:0:0:0:
254,191,64076,1,0,0:0:0:0:
254,191,64193,1,0,0:0:0:0:
254,191,64427,1,8,0:0:0:0:
257,188,64662,1,0,0:0:0:0:
254,191,64896,1,0,0:0:0:0:
257,188,65013,1,0,0:0:0:0:
257,188,65130,1,0,0:0:0:0:
257,188,65365,1,8,0:0:0:0:
257,188,65482,1,0,0:0:0:0:
257,188,65599,1,8,0:0:0:0:
257,188,65716,1,8,0:0:0:0:
257,188,65834,1,0,0:0:0:0:
256,192,66302,1,8,0:0:0:0:
256,192,66654,1,0,0:0:0:0:
256,192,66771,1,8,0:0:0:0:
256,192,67005,1,0,0:0:0:0:
256,192,67240,1,8,0:0:0:0:
