osu file format v14

[General]
AudioFilename: audio.mp3
AudioLeadIn: 0
PreviewTime: 31615
Countdown: 0
SampleSet: Normal
StackLeniency: 0.7
Mode: 1
LetterboxInBreaks: 0
WidescreenStoryboard: 1

[Editor]
DistanceSpacing: 1.9
BeatDivisor: 2
GridSize: 32
TimelineZoom: 0.4999996

[Metadata]
Title:I beg you
TitleUnicode:I beg you
Artist:Kudou Chitose
ArtistUnicode:久遠千歳
Creator:Froskya
Version:Kantan
Source:劇場版「Fate/stay night [Heaven's Feel]」 Ⅱ.lost butterfly
Tags:Vtuber virtual youtuber バーチャルyoutuber 2434 Nijisanji にじさんじ japanese pop Anime j-pop jpop aimer ending ed movie cover 梶浦由記 kajiura yuki II theme song revialink
BeatmapID:3190713
BeatmapSetID:1562463

[Difficulty]
HPDrainRate:9
CircleSize:2
OverallDifficulty:3
ApproachRate:10
SliderMultiplier:1.4
SliderTickRate:1

[Events]
//Background and Video events
0,0,"lalala.jpg",0,95
//Break Periods
//Storyboard Layer 0 (Background)
//Storyboard Layer 1 (Fail)
//Storyboard Layer 2 (Pass)
//Storyboard Layer 3 (Foreground)
//Storyboard Layer 4 (Overlay)
//Storyboard Sound Samples

[TimingPoints]
5834,468.75,4,1,0,40,1,0
30209,-100,4,1,0,50,0,0
32084,-100,4,1,0,60,0,1
50834,-100,4,1,0,50,0,0
65834,-100,4,1,0,40,0,0

[HitObjects]
256,192,5834,5,0,0:0:0:0:
256,192,6302,1,8,0:0:0:0:
256,192,6771,1,8,0:0:0:0:
256,192,7709,1,0,0:0:0:0:
256,192,8880,1,8,0:0:0:0:
256,192,9584,1,0,0:0:0:0:
256,192,10521,1,8,0:0:0:0:
256,192,10990,1,0,0:0:0:0:
256,192,12396,1,0,0:0:0:0:
256,192,13334,1,8,0:0:0:0:
256,192,13802,1,8,0:0:0:0:
256,192,14271,1,8,0:0:0:0:
256,192,14974,1,0,0:0:0:0:
256,192,16146,1,0,0:0:0:0:
256,192,17084,1,0,0:0:0:0:
256,192,17552,1,0,0:0:0:0:
256,192,18021,1,8,0:0:0:0:
256,192,18959,1,0,0:0:0:0:
256,192,19427,1,0,0:0:0:0:
256,192,19896,1,8,0:0:0:0:
256,192,20834,1,8,0:0:0:0:
256,192,21302,1,8,0:0:0:0:
256,192,21771,1,0,0:0:0:0:
256,192,22474,1,8,0:0:0:0:
256,192,23646,1,0,0:0:0:0:
256,192,24584,1,0,0:0:0:0:
256,192,25052,1,0,0:0:0:0:
256,192,25521,1,8,0:0:0:0:
256,192,26459,1,0,0:0:0:0:
256,192,27396,1,8,0:0:0:0:
256,192,28334,1,0,0:0:0:0:
256,192,28802,1,0,0:0:0:0:
256,192,29271,1,8,0:0:0:0:
256,192,30209,1,8,0:0:0:0:
256,192,30677,1,8,0:0:0:0:
256,192,31146,1,8,0:0:0:0:
256,192,32084,1,12,0:0:0:0:
256,192,33021,1,0,0:0:0:0:
256,192,33490,1,0,0:0:0:0:
256,192,33959,1,8,0:0:0:0:
256,192,34427,1,8,0:0:0:0:
256,192,34896,1,0,0:0:0:0:
256,192,35834,1,8,0:0:0:0:
256,192,36302,1,8,0:0:0:0:
256,192,36771,1,0,0:0:0:0:
256,192,37709,1,8,0:0:0:0:
256,192,38177,1,8,0:0:0:0:
256,192,38646,1,0,0:0:0:0:
256,192,39115,1,0,0:0:0:0:
256,192,39584,1,8,0:0:0:0:
256,192,40521,1,0,0:0:0:0:
256,192,40990,1,0,0:0:0:0:
263,189,41459,1,8,0:0:0:0:
257,194,41927,1,8,0:0:0:0:
254,196,42396,1,0,0:0:0:0:
256,192,43334,1,8,0:0:0:0:
256,192,43802,1,8,0:0:0:0:
256,192,44271,1,0,0:0:0:0:
256,192,45209,1,8,0:0:0:0:
288,192,45677,1,8,0:0:0:0:
256,192,46146,1,0,0:0:0:0:
256,192,47084,1,12,0:0:0:0:
256,192,48021,1,0,0:0:0:0:
256,192,48490,1,8,0:0:0:0:
256,192,48959,1,0,0:0:0:0:
256,192,49427,1,8,0:0:0:0:
256,192,49896,1,0,0:0:0:0:
256,192,50834,1,12,0:0:0:0:
256,192,51771,1,0,0:0:0:0:
256,192,52240,1,0,0:0:0:0:
256,192,52709,1,8,0:0:0:0:
256,192,53646,1,0,0:0:0:0:
256,192,54584,1,8,0:0:0:0:
256,192,55052,1,8,0:0:0:0:
256,192,55521,1,0,0:0:0:0:
256,192,55990,1,0,0:0:0:0:
256,192,56459,1,8,0:0:0:0:
256,192,57396,1,0,0:0:0:0:
256,192,58334,1,12,0:0:0:0:
256,192,59271,1,0,0:0:0:0:
256,192,59740,1,0,0:0:0:0:
256,192,60209,1,8,0:0:0:0:
256,192,61146,1,0,0:0:0:0:
256,192,62084,1,8,0:0:0:0:
256,192,62552,1,8,0:0:0:0:
256,192,63021,1,0,0:0:0:0:
256,192,63490,1,0,0:0:0:0:
256,192,63959,1,8,0:0:0:0:
256,192,64896,1,0,0:0:0:0:
256,192,65365,1,0,0:0:0:0:
256,192,65834,1,8,0:0:0:0:
256,192,66771,1,0,0:0:0:0:
256,192,67240,1,8,0:0:0:0:
