osu file format v14

[General]
AudioFilename: audio.ogg
AudioLeadIn: 0
PreviewTime: 34264
Countdown: 0
SampleSet: Soft
StackLeniency: 0.7
Mode: 2
LetterboxInBreaks: 0
WidescreenStoryboard: 1

[Editor]
Bookmarks: 20153
DistanceSpacing: 1.9
BeatDivisor: 12
GridSize: 32
TimelineZoom: 1.7

[Metadata]
Title:FOREST
TitleUnicode:FOREST
Artist:Kudou Chitose
ArtistUnicode:久遠千歳
Creator:Secre
Version:PLATTER
Source:
Tags:chickenbible midorijeon 050 bigh bighzonda -Rustyy quix バーチャルyoutuber rei sirose 白瀬玲 dustcell ema em a Hiphop Hip Hop Hip-hop Japanese Rap にじさんじ 2434 Nijisanji Vtuber Virtual YouTuber
BeatmapID:4014002
BeatmapSetID:1926110

[Difficulty]
HPDrainRate:4
CircleSize:3.8
OverallDifficulty:8
ApproachRate:8
SliderMultiplier:1.93
SliderTickRate:2

[Events]
//Background and Video events
0,0,"84062031_p0.jpg",0,0
//Break Periods
//Storyboard Layer 0 (Background)
//Storyboard Layer 1 (Fail)
//Storyboard Layer 2 (Pass)
//Storyboard Layer 3 (Foreground)
//Storyboard Layer 4 (Overlay)
//Storyboard Sound Samples

[TimingPoints]
-1180,444.444444444444,4,2,1,55,1,0
375,-100,4,2,1,55,0,0
4594,-100,4,2,1,55,0,0
5039,-100,4,2,1,55,0,0
5187,-100,4,2,1,55,0,0
5335,-100,4,2,1,55,0,0
5483,-100,4,2,1,55,0,0
5631,-100,4,2,1,55,0,0
5779,-100,4,2,1,55,0,0
5921,-100,4,2,1,55,0,0
5928,-100,4,2,1,55,0,0
5931,-100,4,2,1,65,0,0
14264,-100,4,2,1,65,0,0
14375,-100,4,2,1,65,0,0
27153,-100,4,2,1,65,0,0
27264,-100,4,2,1,65,0,0
28486,-100,4,2,1,65,0,0
34365,-100,4,2,1,65,0,0
34375,-100,4,2,1,60,0,0
40597,-100,4,2,1,60,0,0
41153,-100,4,2,1,60,0,0
41476,-100,4,2,1,60,0,0
41486,-100,4,2,1,70,0,1
45819,-100,4,2,1,70,0,1
45931,-100,4,2,1,70,0,1
48931,-100,4,2,1,70,0,1
49042,-100,4,2,1,70,0,1
52931,-100,4,2,1,70,0,1
53042,-100,4,2,1,70,0,1
55039,-100,4,2,1,70,0,1
55261,-100,4,2,1,70,0,1
55409,-100,4,2,1,70,0,1
55557,-100,4,2,1,70,0,1
55708,-100,4,2,1,70,0,0
55931,-100,4,2,1,70,0,0
60931,-100,4,2,1,70,0,0
62708,-100,4,2,1,70,0,0

[Colours]
Combo1 : 207,169,222
Combo2 : 245,198,99
Combo3 : 88,70,247

[HitObjects]
288,231,3708,6,0,L|292:92,1,96.5,2|0,2:2|0:0,0:0:0:0:
193,113,4153,2,0,L|70:118,1,96.5
290,105,4597,2,0,P|341:112|356:220,1,144.75,2|0,2:2|0:0,0:0:0:0:
274,210,5042,5,8,2:2:0:0:
211,174,5190,1,8,2:2:0:0:
274,210,5338,1,8,2:2:0:0:
406,179,5486,1,10,2:2:0:0:
469,143,5634,1,8,2:2:0:0:
406,179,5782,1,8,2:2:0:0:
192,136,5931,6,0,L|79:139,1,96.5,6|0,1:2|0:0,0:0:0:0:
95,138,6375,2,0,L|158:137,2,48.25,2|2|2,2:2|2:2|2:2,0:0:0:0:
303,117,6819,2,0,L|443:116,1,96.5,10|2,2:2|2:2,0:0:0:0:
303,117,7264,2,0,L|300:240,1,96.5,2|8,1:2|1:2,0:0:0:0:
80,181,7708,6,0,L|78:48,1,96.5,2|8,2:2|2:2,0:0:0:0:
78,84,8153,1,2,2:2:0:0:
124,84,8264,1,2,2:2:0:0:
150,122,8375,1,2,2:2:0:0:
133,165,8486,1,2,2:2:0:0:
88,175,8597,2,0,L|210:172,1,96.5,10|2,2:2|1:2,0:0:0:0:
411,155,9042,1,10,1:2:0:0:
411,203,9153,1,8,2:2:0:0:
412,251,9264,1,8,2:2:0:0:
180,217,9486,5,2,1:2:0:0:
136,200,9597,1,2,2:2:0:0:
118,156,9708,1,2,1:2:0:0:
139,114,9819,1,2,2:2:0:0:
183,100,9930,1,2,2:2:0:0:
285,93,10153,2,0,L|333:93,2,48.25,2|2|10,2:2|2:2|2:2,0:0:0:0:
189,68,10597,2,0,L|140:68,2,48.25,2|2|2,2:2|2:2|1:2,0:0:0:0:
289,68,11042,2,0,L|293:124,1,48.25,10|2,1:2|2:2,0:0:0:0:
355,114,11264,6,0,L|354:52,1,48.25,2|2,1:2|2:2,0:0:0:0:
417,49,11486,2,0,L|421:190,1,96.5,10|2,2:2|2:2,0:0:0:0:
304,207,11931,2,0,L|228:210,1,48.25,2|2,2:2|2:2,0:0:0:0:
304,207,12153,2,0,L|355:205,2,48.25,10|2|2,2:2|2:2|1:2,0:0:0:0:
108,177,12597,1,2,1:2:0:0:
108,177,12819,6,0,L|179:173,2,48.25,2|2|2,2:2|2:2|1:2,0:0:0:0:
18,124,13264,2,0,L|10:48,1,48.25,2|2,1:2|2:2,0:0:0:0:
66,44,13486,2,0,L|182:32,1,96.5,2|2,2:2|2:2,0:0:0:0:
375,45,13931,2,0,P|428:51|404:147,1,144.75,10|0,2:2|0:0,0:0:0:0:
350,190,14375,2,0,L|225:192,1,96.5,2|8,1:2|1:2,0:0:0:0:
351,175,14819,5,2,2:2:0:0:
397,172,14930,1,2,2:2:0:0:
425,135,15041,1,10,2:2:0:0:
413,89,15152,1,2,2:2:0:0:
370,70,15264,2,0,L|254:68,1,96.5,2|2,2:2|2:2,0:0:0:0:
370,70,15708,2,0,L|375:192,1,96.5,10|0,2:2|1:1,0:0:0:0:
146,253,16153,2,0,L|53:246,2,48.25,10|8|8,1:2|2:2|2:2,0:0:0:0:
351,103,16597,6,0,L|358:184,1,48.25,2|2,1:2|2:2,0:0:0:0:
203,188,17042,2,0,L|142:177,1,48.25,2|2,2:2|2:2,0:0:0:0:
422,94,17486,1,10,2:2:0:0:
375,87,17597,1,2,2:2:0:0:
343,120,17708,1,2,2:2:0:0:
350,166,17819,1,2,2:2:0:0:
405,176,17931,2,0,L|458:168,1,48.25,2|2,1:2|2:2,0:0:0:0:
287,141,18375,6,0,L|285:266,1,96.5,2|10,1:2|2:2,0:0:0:0:
218,258,18708,1,2,2:2:0:0:
151,231,18819,2,0,L|149:103,1,96.5,2|2,2:2|2:2,0:0:0:0:
217,104,19153,1,2,2:2:0:0:
288,87,19264,1,10,2:2:0:0:
242,76,19375,1,2,2:2:0:0:
220,35,19486,1,2,1:2:0:0:
238,0,19597,1,0,0:0:0:0:
282,0,19708,1,10,2:1:0:0:
355,12,19857,1,8,2:1:0:0:
281,47,20005,1,8,2:1:0:0:
71,189,20153,5,2,1:2:0:0:
71,189,20375,2,0,L|143:178,1,48.25,2|2,1:2|2:2,0:0:0:0:
191,177,20597,2,0,L|198:95,1,48.25,2|2,2:2|2:2,0:0:0:0:
268,103,20819,2,0,L|276:20,1,48.25,2|2,2:2|2:2,0:0:0:0:
199,51,21042,1,2,2:2:0:0:
178,79,21264,2,0,L|267:68,1,48.25,2|2,2:2|2:2,0:0:0:0:
178,79,21486,2,0,L|114:86,1,48.25,2|2,2:2|2:2,0:0:0:0:
392,152,21931,5,2,1:2:0:0:
392,152,22153,2,0,L|312:141,1,48.25,10|2,2:2|2:2,0:0:0:0:
274,136,22375,2,0,L|263:250,1,96.5,2|2,2:2|2:2,0:0:0:0:
199,236,22708,1,2,2:2:0:0:
269,190,22819,2,0,L|280:116,1,48.25,10|2,2:2|2:2,0:0:0:0:
350,111,23042,2,0,L|354:39,1,48.25,2|0,1:2|0:0,0:0:0:0:
222,65,23264,2,0,L|167:80,2,48.25,10|10|8,1:2|2:2|2:2,0:0:0:0:
441,105,23708,6,0,L|442:236,1,96.5,2|2,1:2|1:2,0:0:0:0:
375,227,24042,1,2,2:2:0:0:
311,168,24153,2,0,L|245:170,1,48.25,2|2,2:2|2:2,0:0:0:0:
330,106,24375,2,0,L|393:93,1,48.25,2|0,2:2|0:0,0:0:0:0:
271,61,24597,1,10,2:2:0:0:
226,74,24708,1,2,2:2:0:0:
206,116,24819,1,2,2:2:0:0:
226,159,24931,1,2,2:2:0:0:
286,178,25042,2,0,L|353:168,1,48.25,2|2,1:2|2:2,0:0:0:0:
84,161,25486,6,0,L|71:90,1,48.25,2|2,1:2|2:2,0:0:0:0:
136,79,25708,2,0,L|216:63,1,48.25,10|2,2:2|2:2,0:0:0:0:
244,72,25931,1,2,2:2:0:0:
198,78,26042,1,0,0:0:0:0:
180,121,26153,1,2,2:2:0:0:
208,158,26264,1,2,2:2:0:0:
320,152,26375,2,0,L|332:77,1,48.25,10|0,2:2|0:0,0:0:0:0:
395,82,26597,2,0,L|404:18,1,48.25,2|2,1:2|2:2,0:0:0:0:
465,52,26819,2,0,L|470:-9,1,48.25,2|2,1:2|2:2,0:0:0:0:
68,112,27264,6,0,L|62:247,1,96.5,2|2,1:2|1:2,0:0:0:0:
162,231,27708,1,2,2:2:0:0:
113,226,27819,1,2,2:2:0:0:
65,222,27930,1,2,2:2:0:0:
162,231,28153,2,0,L|169:107,1,96.5,10|0,2:2|0:0,0:0:0:0:
377,103,28597,2,0,L|491:98,1,96.5,2|8,1:2|1:2,0:0:0:0:
275,76,29042,6,0,L|203:65,2,48.25,2|2|10,2:2|2:2|2:2,0:0:0:0:
341,87,29375,1,2,2:2:0:0:
341,87,29597,2,0,L|279:79,2,48.25,2|2|2,2:2|2:2|2:2,0:0:0:0:
457,104,29931,2,0,L|468:218,1,96.5,10|0,2:2|1:1,0:0:0:0:
270,227,30375,1,10,1:2:0:0:
318,222,30486,1,8,2:2:0:0:
366,218,30597,1,8,2:2:0:0:
168,123,30819,6,0,L|105:119,2,48.25,2|2|2,1:2|2:2|1:2,0:0:0:0:
282,133,31153,2,0,L|284:242,1,96.5,2|2,2:2|2:2,0:0:0:0:
228,240,31486,2,0,L|147:227,1,48.25,2|2,2:2|2:2,0:0:0:0:
310,166,31708,2,0,L|416:162,1,96.5,10|0,2:2|0:0,0:0:0:0:
188,170,32153,2,0,L|178:35,1,96.5,2|8,1:2|1:2,0:0:0:0:
390,82,32597,6,0,L|462:78,2,48.25,2|2|2,1:2|2:2|2:2,0:0:0:0:
329,93,32931,2,0,L|265:107,2,48.25,2|0|2,2:2|0:0|2:2,0:0:0:0:
390,69,33264,1,2,2:2:0:0:
390,69,33523,1,0,0:0:0:0:
486,178,33931,1,2,2:2:0:0:
114,218,34375,5,2,1:2:0:0:
160,227,34486,1,2,2:2:0:0:
201,204,34597,1,2,1:2:0:0:
218,160,34708,1,2,2:2:0:0:
201,116,34819,1,2,2:2:0:0:
159,96,34931,1,0,0:0:0:0:
114,102,35041,1,2,2:2:0:0:
284,61,35264,5,10,2:2:0:0:
330,66,35375,1,2,2:2:0:0:
363,101,35486,1,2,2:2:0:0:
365,148,35597,1,2,2:2:0:0:
314,173,35708,2,0,L|200:167,1,96.5,2|2,1:2|1:2,0:0:0:0:
431,200,36153,5,2,2:2:0:0:
387,185,36264,1,2,2:2:0:0:
383,140,36375,1,10,2:2:0:0:
423,118,36486,1,2,2:2:0:0:
483,113,36597,2,0,L|493:246,1,96.5,2|2,2:2|2:2,0:0:0:0:
305,94,37042,6,0,L|228:101,1,48.25,10|2,2:2|2:2,0:0:0:0:
305,94,37264,2,0,L|379:81,1,48.25,2|2,1:2|2:2,0:0:0:0:
305,94,37486,1,10,1:2:0:0:
256,95,37597,1,8,2:2:0:0:
208,96,37708,1,10,2:2:0:0:
393,46,37931,6,0,L|396:119,2,48.25,2|2|2,1:2|2:2|1:2,0:0:0:0:
393,46,38375,2,0,L|459:42,2,48.25,2|2|2,2:2|2:2|2:2,0:0:0:0:
218,116,38819,6,0,L|148:113,1,48.25,10|2,2:2|2:2,0:0:0:0:
218,116,39042,2,0,L|282:117,1,48.25,2|2,2:2|2:2,0:0:0:0:
218,116,39264,2,0,L|145:110,2,48.25,2|0|10,1:2|0:0|1:2,0:0:0:0:
323,122,39708,6,0,L|405:112,1,48.25,2|2,1:2|2:2,0:0:0:0:
323,122,39931,2,0,L|317:60,1,48.25,10|0,2:2|0:0,0:0:0:0:
260,69,40153,1,2,2:2:0:0:
218,88,40264,1,2,2:2:0:0:
219,134,40375,1,2,2:2:0:0:
260,154,40486,1,0,0:0:0:0:
380,160,40597,6,0,L|494:141,1,96.5,10|2,2:2|1:2,0:0:0:0:
429,95,40931,1,2,2:2:0:0:
483,83,41042,2,0,L|483:18,1,48.25,2|2,2:2|2:2,0:0:0:0:
90,91,41486,6,0,L|86:225,1,96.5,6|2,1:2|1:2,0:0:0:0:
87,187,41931,2,0,L|201:178,1,96.5,2|0,2:2|0:0,0:0:0:0:
183,179,42375,2,0,L|298:172,1,96.5,10|0,2:2|0:0,0:0:0:0:
279,173,42819,2,0,L|182:179,1,96.5,2|8,1:2|1:2,0:0:0:0:
471,152,43264,6,0,L|474:281,1,96.5,2|10,2:2|2:2,0:0:0:0:
377,255,43708,2,0,L|264:257,1,96.5,2|2,2:2|2:2,0:0:0:0:
377,255,44153,2,0,L|498:254,1,96.5,10|2,2:2|1:2,0:0:0:0:
377,255,44597,2,0,L|445:256,2,48.25,10|8|10,1:2|2:2|2:2,0:0:0:0:
78,177,45042,6,0,L|74:54,1,96.5,2|0,1:2|1:1,0:0:0:0:
171,58,45486,2,0,L|307:52,2,96.5,2|0|8,2:2|0:0|2:2,0:0:0:0:
361,138,46153,1,2,2:2:0:0:
361,138,46375,2,0,L|287:137,2,48.25,2|0|8,1:2|0:0|1:2,0:0:0:0:
74,153,46819,6,0,L|73:271,1,96.5,2|10,1:2|2:2,0:0:0:0:
175,273,47264,2,0,L|287:273,1,96.5,2|2,2:2|2:2,0:0:0:0:
271,273,47708,2,0,L|388:273,1,96.5,10|2,2:2|1:2,0:0:0:0:
368,273,48153,2,0,L|450:272,2,64.3333333333333,10|8|8,1:1|2:1|2:1,0:0:0:0:
147,203,48597,6,0,L|144:66,1,96.5,2|0,1:2|1:1,0:0:0:0:
239,74,49042,2,0,L|363:68,1,96.5,2|0,2:2|0:0,0:0:0:0:
128,125,49486,2,0,L|-3:121,3,96.5,10|2|2|8,2:2|2:2|1:2|1:2,0:0:0:0:
313,129,50375,6,0,L|314:252,1,96.5,2|10,2:2|2:2,0:0:0:0:
410,234,50819,2,0,L|408:98,1,96.5,2|2,2:2|2:2,0:0:0:0:
310,118,51264,2,0,L|190:115,1,96.5,10|2,2:2|1:2,0:0:0:0:
213,115,51708,2,0,L|274:116,2,48.25,10|8|10,1:2|2:2|2:2,0:0:0:0:
496,125,52153,6,0,L|498:261,1,96.5,2|0,1:2|1:1,0:0:0:0:
397,241,52597,2,0,L|508:240,1,96.5,2|0,2:2|0:0,0:0:0:0:
282,148,53042,2,0,L|163:150,1,96.5,10|2,2:2|2:2,0:0:0:0:
388,71,53486,2,0,L|517:67,1,96.5,2|10,1:2|1:2,0:0:0:0:
186,88,53931,6,0,L|185:198,1,96.5,2|10,1:2|2:2,0:0:0:0:
88,206,54375,2,0,L|86:88,1,96.5,2|2,2:2|2:2,0:0:0:0:
86,109,54819,2,0,L|219:108,1,96.5,10|2,2:2|1:2,0:0:0:0:
86,109,55264,1,0,0:0:0:0:
150,109,55412,1,0,0:0:0:0:
215,107,55560,1,8,2:1:0:0:
390,110,55708,5,2,2:2:0:0:
256,192,57042,12,0,58042,0:0:0:0:
203,165,58597,5,0,0:0:0:0:
294,167,58819,2,0,L|296:333,1,144.75
236,309,59264,1,0,0:0:0:0:
357,195,60819,5,0,0:0:0:0:
263,136,61042,6,0,L|261:25,1,96.5
161,65,61486,2,0,L|156:181,1,96.5
61,178,61931,2,0,L|56:52,1,96.5
163,53,62375,2,0,L|57:44,1,96.5
363,172,62819,5,0,0:0:0:0:
