osu file format v14

[General]
AudioFilename: audio.mp3
AudioLeadIn: 0
PreviewTime: 49076
Countdown: 0
SampleSet: Soft
StackLeniency: 0.4
Mode: 0
LetterboxInBreaks: 0
WidescreenStoryboard: 1

[Editor]
DistanceSpacing: 1.2
BeatDivisor: 6
GridSize: 32
TimelineZoom: 0.7999998

[Metadata]
Title:CHO-DARI-
TitleUnicode:CHO-DARI-
Artist:Kudou Chitose
ArtistUnicode:久遠千歳
Creator:SMOKELIND
Version:MOCAOTIC'S NORMAL
Source:
Tags:T6 Kudo vtuber youtube virtual youtuber Nijisanji にじさんじ rei sirose 白瀬玲 DUSTCELL EMA EM A Mocaotic Rosiie Elinor [_Eli_] Eli japanese hip hop pop 23.exe cover hatsune miku vocaloid chodari cho dari
BeatmapID:2810610
BeatmapSetID:1328138

[Difficulty]
HPDrainRate:3
CircleSize:3.5
OverallDifficulty:4
ApproachRate:5
SliderMultiplier:0.999999999999999
SliderTickRate:1

[Events]
//Background and Video events
0,0,"73341742_p0.jpg",0,0
//Break Periods
//Storyboard Layer 0 (Background)
//Storyboard Layer 1 (Fail)
//Storyboard Layer 2 (Pass)
//Storyboard Layer 3 (Foreground)
//Storyboard Layer 4 (Overlay)
//Storyboard Sound Samples

[TimingPoints]
1639,750,4,2,77,47,1,0
1639,-50,4,2,77,47,0,0
13639,-50,4,2,77,47,0,0
25639,-50,4,2,77,67,0,0
37639,-50,4,2,77,57,0,0
49639,-47.6190476190476,4,2,77,97,0,0
61264,-47.6190476190476,4,2,77,77,0,0
61639,-47.6190476190476,4,2,77,97,0,0
73639,-50,4,2,77,97,0,0
74014,-50,4,2,77,57,0,0
85639,-50,4,2,77,67,0,0
97639,-50,4,2,77,57,0,0
109639,-47.6190476190476,4,2,77,97,0,0
121264,-47.6190476190476,4,2,77,77,0,0
121639,-47.6190476190476,4,2,77,97,0,0
133639,-50,4,2,77,87,0,0

[Colours]
Combo1 : 216,177,223
Combo2 : 177,212,223
Combo3 : 223,177,189
Combo4 : 223,210,177

[HitObjects]
501,247,13639,6,0,P|440:252|403:287,1,99.9999999999999,0|2,1:0|0:0,0:0:0:0:
345,351,14389,1,10,0:0:0:0:
256,304,14764,2,0,L|266:175,1,99.9999999999999,2|2,1:0|0:0,0:0:0:0:
272,158,15326,1,2,1:0:0:0:
272,158,15514,1,2,1:0:0:0:
203,84,15889,2,0,P|152:72|85:108,1,99.9999999999999,10|2,0:0|0:0,0:0:0:0:
37,157,16639,6,0,L|44:256,1,99.9999999999999,2|2,1:0|0:0,0:0:0:0:
113,329,17389,2,0,L|198:316,1,50,8|2,0:0|1:0,0:0:0:0:
204,294,17764,2,0,L|316:307,1,99.9999999999999,2|2,1:0|0:0,0:0:0:0:
349,336,18326,1,2,1:0:0:0:
349,336,18514,1,2,1:0:0:0:
437,289,18889,2,0,P|451:235|427:182,1,99.9999999999999,10|2,0:0|0:0,0:0:0:0:
349,147,19639,6,0,L|237:160,1,99.9999999999999,0|2,1:0|0:0,0:0:0:0:
167,215,20389,1,10,0:0:0:0:
95,144,20764,2,0,P|83:90|110:35,1,99.9999999999999,2|2,1:0|0:0,0:0:0:0:
138,19,21326,1,2,1:0:0:0:
138,19,21514,1,2,1:0:0:0:
229,58,21889,2,0,L|328:46,1,99.9999999999999,10|2,0:0|0:0,0:0:0:0:
409,104,22639,6,0,L|396:216,1,99.9999999999999,2|2,1:0|0:0,0:0:0:0:
322,269,23389,2,0,L|331:339,1,50,10|2,0:0|1:0,0:0:0:0:
356,360,23764,2,0,P|405:376|453:354,1,99.9999999999999,2|2,1:0|0:0,0:0:0:0:
486,325,24326,1,2,1:0:0:0:
486,325,24514,1,2,1:0:0:0:
498,225,24889,2,0,L|508:131,2,50,10|8|0,0:0|0:3|0:0,0:0:0:0:
403,258,25639,6,0,B|373:232|373:232|292:222,1,99.9999999999999,6|2,1:0|0:0,0:0:0:0:
214,240,26389,1,8,0:0:0:0:
162,157,26764,2,0,L|49:172,1,99.9999999999999,2|2,1:0|0:0,0:0:0:0:
20,193,27326,1,2,1:0:0:0:
20,193,27514,1,2,1:0:0:0:
1,291,27889,1,10,0:0:0:0:
88,339,28264,1,2,0:0:0:0:
168,279,28639,6,0,L|154:163,1,99.9999999999999,2|2,1:0|0:0,0:0:0:0:
80,113,29389,2,0,L|87:41,1,50,10|2,0:0|1:0,0:0:0:0:
100,16,29764,2,0,P|150:4|206:26,1,99.9999999999999,2|2,1:0|0:0,0:0:0:0:
237,54,30326,1,2,1:0:0:0:
237,54,30514,1,2,1:0:0:0:
259,151,30889,2,0,L|249:270,1,99.9999999999999,10|0,0:0|0:0,0:0:0:0:
298,338,31639,6,0,P|346:321|400:338,1,99.9999999999999,2|2,1:0|0:0,0:0:0:0:
478,383,32389,1,10,0:0:0:0:
507,288,32764,2,0,L|498:188,1,99.9999999999999,2|2,1:0|0:0,0:0:0:0:
496,142,33326,1,2,1:0:0:0:
496,142,33514,1,2,1:0:0:0:
436,62,33889,1,10,0:0:0:0:
350,113,34264,1,2,0:0:0:0:
293,30,34639,6,0,L|184:39,1,99.9999999999999,2|2,1:0|0:0,0:0:0:0:
113,98,35389,2,0,L|20:88,1,50,10|0,0:0|1:0,0:0:0:0:
18,114,35764,2,0,P|1:169|35:221,1,99.9999999999999,2|2,1:0|0:0,0:0:0:0:
57,244,36326,1,0,1:0:0:0:
57,244,36514,1,2,1:0:0:0:
155,228,36889,2,0,L|254:211,1,99.9999999999999,10|2,0:0|0:0,0:0:0:0:
349,238,37639,6,0,B|369:288|369:288|351:353,1,99.9999999999999,8|10,0:0|0:0,0:0:0:0:
328,374,38201,1,10,0:3:0:0:
328,374,38389,2,0,L|229:357,1,99.9999999999999,10|8,0:0|0:0,0:0:0:0:
139,312,39139,2,0,L|73:327,1,50,10|10,0:0|0:3,0:0:0:0:
42,308,39514,1,10,0:0:0:0:
17,210,39889,2,0,L|24:114,2,74.9999999999999,10|8|8,0:0|0:0|0:0,0:0:0:0:
62,232,40639,6,0,B|107:213|107:213|172:226,1,99.9999999999999,8|10,0:0|0:0,0:0:0:0:
205,249,41201,1,10,0:3:0:0:
205,249,41389,2,0,L|303:233,1,99.9999999999999,10|8,0:0|0:0,0:0:0:0:
395,272,42139,2,0,L|387:331,2,50,10|10|10,0:0|0:0|0:0,0:0:0:0:
479,218,42889,2,0,L|469:150,1,50,10|8,0:0|0:0,0:0:0:0:
448,123,43264,2,0,L|458:55,1,50,10|8,0:0|0:0,0:0:0:0:
427,31,43639,6,0,B|398:49|398:49|320:41,1,99.9999999999999,10|10,0:0|0:0,0:0:0:0:
287,38,44201,1,8,0:3:0:0:
287,38,44389,1,10,0:0:0:0:
204,94,44764,2,0,P|190:152|217:201,1,99.9999999999999,10|10,0:0|0:3,0:0:0:0:
243,227,45326,1,10,0:3:0:0:
243,227,45514,1,10,0:0:0:0:
171,296,45889,2,0,L|182:378,2,74.9999999999999,10|0|0,0:0|0:0|0:0,0:0:0:0:
132,263,46639,5,2,1:0:0:0:
7,189,47201,1,0,0:0:0:0:
7,189,47389,2,0,L|12:127,1,50,10|0,0:0|1:0,0:0:0:0:
22,90,47764,2,0,P|73:78|128:113,1,99.9999999999999,2|2,1:0|0:0,0:0:0:0:
154,135,48326,1,2,1:0:0:0:
154,135,48514,1,2,1:0:0:0:
236,78,48889,1,6,0:3:0:0:
236,78,49639,6,0,B|263:112|263:112|254:185,1,104.999996795654,6|2,1:0|0:0,0:0:0:0:
247,225,50201,1,2,0:0:0:0:
317,309,50576,1,2,0:0:0:0:
317,309,50764,2,0,L|391:298,1,52.4999983978271,2|2,1:0|0:0,0:0:0:0:
411,270,51139,2,0,B|420:218|420:218|396:156,1,104.999996795654,2|2,0:0|1:0,0:0:0:0:
382,119,51701,1,2,0:0:0:0:
445,35,52076,2,0,L|514:41,2,52.4999983978271,2|2|2,0:0|0:0|0:0,0:0:0:0:
406,0,52639,6,0,L|291:16,1,104.999996795654,2|2,1:0|0:0,0:0:0:0:
261,46,53201,1,2,0:0:0:0:
261,46,53389,1,10,0:0:0:0:
220,142,53764,2,0,L|231:214,1,52.4999983978271,2|2,1:0|0:0,0:0:0:0:
212,244,54139,2,0,B|164:267|164:267|101:255,1,104.999996795654,2|2,0:0|1:0,0:0:0:0:
61,246,54701,1,2,0:0:0:0:
4,163,55076,1,10,0:3:0:0:
4,163,55264,2,0,L|11:111,1,52.4999983978271,10|8,0:3|0:3,0:0:0:0:
51,76,55639,6,0,B|101:70|101:70|116:77|116:77|173:70,1,104.999996795654,2|2,1:0|0:0,0:0:0:0:
206,66,56201,1,2,0:0:0:0:
278,149,56576,1,2,0:0:0:0:
278,149,56764,2,0,L|268:219,1,52.4999983978271,2|2,1:0|0:0,0:0:0:0:
239,243,57139,2,0,B|248:296|248:296|245:309|245:309|257:359,1,104.999996795654,2|2,0:0|1:0,0:0:0:0:
294,378,57701,1,2,0:0:0:0:
395,351,58076,2,0,L|459:346,2,52.4999983978271,2|2|2,0:0|0:0|0:0,0:0:0:0:
357,315,58639,6,0,P|336:263|362:204,1,104.999996795654,2|2,1:0|0:0,0:0:0:0:
386,181,59201,1,2,0:0:0:0:
386,181,59389,2,0,L|460:173,1,52.4999983978271,10|2,0:0|1:0,0:0:0:0:
490,172,59764,1,2,1:0:0:0:
510,67,60139,2,0,B|481:42|481:42|403:34,1,104.999996795654,2|2,0:0|1:0,0:0:0:0:
362,31,60701,1,2,0:0:0:0:
283,99,61076,1,10,0:0:0:0:
283,99,61264,2,0,L|290:187,1,52.4999983978271,10|10,0:0|0:0,0:0:0:0:
260,196,61639,6,0,B|227:173|227:173|152:184,1,104.999996795654,6|2,1:0|0:0,0:0:0:0:
111,192,62201,1,2,0:0:0:0:
25,140,62576,1,2,0:0:0:0:
25,140,62764,2,0,L|34:67,1,52.4999983978271,2|2,1:0|0:0,0:0:0:0:
63,46,63139,2,0,B|115:66|115:66|176:47,1,104.999996795654,2|2,0:0|1:0,0:0:0:0:
210,30,63701,1,2,0:0:0:0:
288,99,64076,2,0,L|357:108,2,52.4999983978271,2|2|2,0:0|0:0|0:0,0:0:0:0:
241,123,64639,6,0,P|221:178|256:243,1,104.999996795654,2|2,1:0|0:0,0:0:0:0:
271,264,65201,1,2,0:0:0:0:
271,264,65389,1,10,0:0:0:0:
193,334,65764,2,0,L|120:327,1,52.4999983978271,2|2,1:0|0:0,0:0:0:0:
94,305,66139,2,0,B|100:261|100:261|96:249|96:249|105:194,1,104.999996795654,10|2,0:0|1:0,0:0:0:0:
110,149,66701,1,2,0:0:0:0:
213,120,67076,1,10,0:3:0:0:
213,120,67264,2,0,L|220:172,1,52.4999983978271,10|10,0:3|0:3,0:0:0:0:
227,224,67639,6,0,B|274:216|274:216|288:222|288:222|345:214,1,104.999996795654,2|2,1:0|0:0,0:0:0:0:
380,205,68201,1,2,0:0:0:0:
467,271,68576,1,2,0:0:0:0:
467,271,68764,2,0,L|457:341,1,52.4999983978271,2|2,1:0|0:0,0:0:0:0:
430,366,69139,2,0,B|382:358|382:358|369:364|369:364|312:356,1,104.999996795654,2|2,0:0|1:0,0:0:0:0:
275,351,69701,1,2,0:0:0:0:
221,260,70076,2,0,L|158:272,2,52.4999983978271,2|2|2,0:0|0:0|0:0,0:0:0:0:
263,228,70639,6,0,L|382:242,1,104.999996795654,2|2,1:0|0:0,0:0:0:0:
421,229,71201,1,2,0:0:0:0:
421,229,71389,2,0,L|433:144,1,52.4999983978271,10|2,0:0|1:0,0:0:0:0:
434,124,71764,1,2,1:0:0:0:
366,43,72139,2,0,B|318:51|318:51|308:61|308:61|253:72,1,104.999996795654,2|2,0:0|1:0,0:0:0:0:
219,85,72701,1,2,0:0:0:0:
219,85,72889,1,8,0:0:0:0:
219,85,73639,6,0,L|227:196,1,99.9999999999999,0|2,1:2|0:0,0:0:0:0:
283,266,74389,1,10,0:0:0:0:
205,328,74764,2,0,P|152:339|87:297,1,99.9999999999999,2|2,1:0|0:0,0:0:0:0:
77,293,75326,1,2,1:0:0:0:
77,293,75514,1,2,1:0:0:0:
15,214,75889,2,0,L|22:114,1,99.9999999999999,10|2,0:0|0:0,0:0:0:0:
92,43,76639,6,0,B|143:59|143:59|208:46,1,99.9999999999999,2|2,1:0|0:0,0:0:0:0:
257,121,77389,2,0,L|251:195,1,50,10|2,0:0|1:0,0:0:0:0:
217,205,77764,2,0,L|230:328,1,99.9999999999999,2|2,1:0|0:0,0:0:0:0:
250,354,78326,1,2,1:0:0:0:
250,354,78514,1,2,1:0:0:0:
348,370,78889,2,0,P|392:353|454:362,1,99.9999999999999,10|2,0:0|0:0,0:0:0:0:
511,284,79639,6,0,L|500:184,1,99.9999999999999,2|2,1:0|0:0,0:0:0:0:
431,111,80389,1,10,0:0:0:0:
362,183,80764,2,0,P|307:193|262:166,1,99.9999999999999,2|2,1:0|0:0,0:0:0:0:
238,141,81326,1,2,1:0:0:0:
238,141,81514,1,2,1:0:0:0:
156,198,81889,2,0,L|168:313,1,99.9999999999999,10|2,0:0|0:0,0:0:0:0:
91,364,82639,6,0,P|39:363|16:292,1,99.9999999999999,2|2,1:0|0:0,0:0:0:0:
58,238,83389,2,0,L|53:167,1,50,10|2,0:0|1:0,0:0:0:0:
25,147,83764,2,0,L|38:32,1,99.9999999999999,2|2,1:0|0:0,0:0:0:0:
72,13,84326,1,0,1:0:0:0:
72,13,84514,1,2,1:0:0:0:
167,41,84889,2,8,L|256:29,2,50,10|8|2,0:3|0:3|0:0,0:3:0:0:
118,128,85639,6,0,B|123:181|123:181|121:191|121:191|129:245,1,99.9999999999999,2|2,1:0|0:0,0:0:0:0:
210,280,86389,1,10,0:0:0:0:
291,222,86764,2,0,L|304:106,1,99.9999999999999,2|2,1:0|0:0,0:0:0:0:
307,76,87326,1,0,1:0:0:0:
307,76,87514,1,2,1:0:0:0:
376,4,87889,2,0,L|441:8,1,50,2|0,0:0|0:0,0:0:0:0:
475,12,88264,1,2,0:0:0:0:
505,107,88639,6,0,L|494:224,1,99.9999999999999,2|2,1:0|0:0,0:0:0:0:
424,276,89389,2,0,L|431:348,1,50,10|2,0:0|1:0,0:0:0:0:
402,368,89764,2,0,P|354:381|303:358,1,99.9999999999999,2|2,1:0|0:0,0:0:0:0:
277,331,90326,1,0,0:0:0:0:
277,331,90514,1,2,1:0:0:0:
332,247,90889,2,0,L|327:184,1,50,2|0,0:0|0:0,0:0:0:0:
315,148,91264,1,2,0:0:0:0:
222,186,91639,6,0,L|120:178,1,99.9999999999999,2|2,1:0|0:0,0:0:0:0:
58,100,92389,1,10,0:0:0:0:
129,30,92764,2,0,L|228:37,1,99.9999999999999,2|2,1:0|0:0,0:0:0:0:
282,47,93326,1,2,1:0:0:0:
282,47,93514,1,2,1:0:0:0:
336,130,93889,1,10,0:0:0:0:
260,195,94264,1,2,0:0:0:0:
313,279,94639,6,0,L|300:352,2,50,2|2|2,1:0|0:0|0:0,0:0:0:0:
404,238,95389,2,0,L|391:176,1,50,10|0,0:0|1:0,0:0:0:0:
353,159,95764,2,0,L|366:52,1,99.9999999999999,2|2,1:0|0:0,0:0:0:0:
391,19,96326,1,2,1:0:0:0:
391,19,96514,1,2,1:0:0:0:
486,47,96889,2,0,L|494:114,1,50,10|2,0:0|0:0,0:0:0:0:
512,142,97264,2,0,L|504:209,1,50,2|2,0:0|0:0,0:0:0:0:
470,227,97639,6,0,B|421:207|421:207|355:222,1,99.9999999999999,10|10,0:0|0:0,0:0:0:0:
333,241,98201,1,10,0:3:0:0:
333,241,98389,2,0,L|347:340,1,99.9999999999999,10|10,0:0|0:0,0:0:0:0:
255,380,99139,2,0,L|187:372,1,50,10|8,0:0|0:3,0:0:0:0:
155,370,99514,1,10,0:0:0:0:
92,294,99889,2,0,L|-2:313,2,74.9999999999999,10|10|10,0:0|0:0|0:3,0:0:0:0:
126,257,100639,6,0,B|121:216|121:216|126:207|126:207|120:147,1,99.9999999999999,10|8,0:0|0:0,0:0:0:0:
146,117,101201,1,2,0:0:0:0:
146,117,101389,2,0,L|250:105,1,99.9999999999999,10|10,0:0|0:0,0:0:0:0:
332,56,102139,2,0,L|391:64,2,50,10|8|10,0:0|0:0|0:0,0:0:0:0:
247,2,102889,2,0,L|177:11,1,50,10|10,0:0|0:0,0:0:0:0:
155,35,103264,2,0,L|85:26,1,50,10|8,0:0|0:0,0:0:0:0:
60,50,103639,6,0,B|78:79|78:79|70:157,1,99.9999999999999,10|2,0:0|0:0,0:0:0:0:
67,197,104201,1,10,0:0:0:0:
67,197,104389,1,10,0:0:0:0:
160,231,104764,2,0,L|272:214,1,99.9999999999999,10|2,0:0|0:0,0:0:0:0:
311,210,105326,1,10,0:0:0:0:
311,210,105514,1,10,0:0:0:0:
368,128,105889,2,0,L|357:46,2,74.9999999999999,10|8|8,0:0|0:0|0:0,0:0:0:0:
413,150,106639,5,2,1:0:0:0:
487,335,107389,2,0,L|427:344,1,50,10|0,0:0|1:0,0:0:0:0:
397,372,107764,2,0,L|294:357,1,99.9999999999999,2|0,1:0|0:0,0:0:0:0:
259,334,108326,1,10,0:3:0:0:
259,334,108514,2,0,L|199:343,1,50,10|10,0:3|0:3,0:0:0:0:
159,346,108889,1,10,0:0:0:0:
6,201,109639,6,0,B|48:197|48:197|64:205|64:205|116:198,1,104.999996795654,6|2,1:0|0:0,0:0:0:0:
160,192,110201,1,2,0:0:0:0:
240,267,110576,1,2,0:0:0:0:
240,267,110764,2,0,L|232:341,1,52.4999983978271,2|2,1:0|0:0,0:0:0:0:
262,363,111139,2,0,B|314:345|314:345|377:360,1,104.999996795654,2|2,0:0|1:0,0:0:0:0:
411,376,111701,1,2,0:0:0:0:
461,283,112076,2,0,L|528:271,2,52.4999983978271,2|2|2,0:0|0:0|0:0,0:0:0:0:
414,257,112639,6,0,P|395:205|425:143,1,104.999996795654,2|2,1:0|0:0,0:0:0:0:
451,127,113201,1,2,0:0:0:0:
451,127,113389,1,10,0:0:0:0:
394,38,113764,2,0,L|319:30,1,52.4999983978271,2|2,1:0|0:0,0:0:0:0:
291,47,114139,2,0,B|284:98|284:98|289:111|289:111|283:157,1,104.999996795654,2|2,0:0|1:0,0:0:0:0:
274,201,114701,1,2,0:0:0:0:
200,275,115076,1,10,0:3:0:0:
200,275,115264,2,0,L|148:268,1,52.4999983978271,10|10,0:3|0:3,0:0:0:0:
96,256,115639,6,0,B|89:213|89:213|94:198|94:198|87:135,1,104.999996795654,2|2,1:0|0:0,0:0:0:0:
81,100,116201,1,2,0:0:0:0:
169,42,116576,1,2,0:0:0:0:
169,42,116764,2,0,L|239:51,1,52.4999983978271,2|2,1:0|0:0,0:0:0:0:
258,86,117139,2,0,B|252:131|252:131|257:146|257:146|250:189,1,104.999996795654,2|2,0:0|1:0,0:0:0:0:
242,241,117701,1,2,0:0:0:0:
170,318,118076,2,0,L|106:309,2,52.4999983978271,2|2|2,0:0|0:0|0:0,0:0:0:0:
207,356,118639,6,0,L|351:339,1,104.999996795654,2|2,1:0|0:0,0:0:0:0:
358,317,119201,1,2,0:0:0:0:
358,317,119389,2,0,L|434:332,1,52.4999983978271,8|2,0:0|1:0,0:0:0:0:
455,351,119764,1,2,1:0:0:0:
508,260,120139,2,0,B|503:214|503:214|495:205|495:205|489:152,1,104.999996795654,2|2,0:0|1:0,0:0:0:0:
485,106,120701,1,2,0:0:0:0:
401,51,121076,1,10,0:0:0:0:
401,51,121264,2,0,L|312:61,1,52.4999983978271,10|10,0:0|0:0,0:0:0:0:
301,78,121639,6,0,B|321:130|321:130|308:188,1,104.999996795654,6|2,1:0|0:0,0:0:0:0:
292,227,122201,1,2,0:0:0:0:
205,284,122576,1,2,0:0:0:0:
205,284,122764,2,0,L|214:357,1,52.4999983978271,2|2,1:0|0:0,0:0:0:0:
183,380,123139,2,0,B|152:361|152:361|71:372,1,104.999996795654,2|2,0:0|1:0,0:0:0:0:
32,379,123701,1,2,0:0:0:0:
19,274,124076,2,0,L|10:205,2,52.4999983978271,2|2|2,0:0|0:0|0:0,0:0:0:0:
70,285,124639,6,0,L|201:266,1,104.999996795654,2|2,1:0|0:0,0:0:0:0:
230,267,125201,1,2,0:0:0:0:
230,267,125389,1,10,0:0:0:0:
307,195,125764,2,0,L|299:126,1,52.4999983978271,2|2,1:0|0:0,0:0:0:0:
254,118,126139,2,0,B|209:123|209:123|199:130|199:130|143:136,1,104.999996795654,10|2,0:0|1:0,0:0:0:0:
99,141,126701,1,2,0:0:0:0:
7,101,127076,1,10,0:3:0:0:
7,101,127264,2,0,L|14:49,1,52.4999983978271,10|10,0:3|0:3,0:0:0:0:
46,7,127639,6,0,B|90:12|90:12|100:19|100:19|156:25,1,104.999996795654,2|2,1:0|0:0,0:0:0:0:
200,33,128201,1,2,0:0:0:0:
291,95,128576,1,2,0:0:0:0:
291,95,128764,2,0,L|361:85,1,52.4999983978271,2|2,1:0|0:0,0:0:0:0:
395,91,129139,2,0,B|379:130|379:130|391:211,1,104.999996795654,2|2,0:0|1:0,0:0:0:0:
397,243,129701,1,2,0:0:0:0:
461,325,130076,2,0,L|524:313,2,52.4999983978271,2|2|2,0:0|0:0|0:0,0:0:0:0:
418,355,130639,6,0,L|297:343,1,104.999996795654,2|2,1:0|0:0,0:0:0:0:
273,319,131201,1,2,0:0:0:0:
273,319,131389,2,0,L|284:222,1,52.4999983978271,10|2,0:0|1:0,0:0:0:0:
282,214,131764,1,2,1:0:0:0:
191,160,132139,2,0,B|139:178|139:178|83:165,1,104.999996795654,2|2,0:0|1:0,0:0:0:0:
43,157,132701,1,2,0:0:0:0:
43,157,132889,2,0,L|37:82,1,52.4999983978271,8|8,0:0|0:0,0:0:0:0:
33,52,133264,1,10,0:0:0:0:
122,6,133639,6,0,B|174:10|174:10|183:16|183:16|235:22,1,99.9999999999999,6|0,1:0|0:0,0:0:0:0:
263,54,134201,1,2,0:0:0:0:
263,54,134389,2,0,L|334:42,2,50,10|2|2,0:0|0:0|1:0,0:0:0:0:
190,122,135139,2,0,L|126:115,1,50,2|2,0:0|1:0,0:0:0:0:
99,86,135514,2,0,L|35:93,1,50,2|2,1:0|0:0,0:0:0:0:
12,125,135889,2,0,L|25:231,1,99.9999999999999,10|2,0:0|0:0,0:0:0:0:
100,289,136639,6,0,B|147:267|147:267|221:278,1,99.9999999999999,2|0,1:0|0:0,0:0:0:0:
237,309,137201,1,2,0:0:0:0:
237,309,137389,2,0,L|229:369,2,50,10|2|2,0:0|1:0|1:0,0:0:0:0:
286,222,138139,2,0,L|278:162,1,50,2|2,0:0|1:0,0:0:0:0:
247,134,138514,2,0,L|255:74,1,50,2|2,1:0|0:0,0:0:0:0:
284,46,138889,1,8,0:0:0:0:
284,46,139076,1,6,0:3:0:0:
424,100,139639,6,0,B|431:152|431:152|429:159|429:159|440:233,1,99.9999999999999,2|2,1:0|0:0,0:0:0:0:
463,239,140201,1,2,0:0:0:0:
463,239,140389,2,0,L|514:231,2,50,8|0|2,0:0|0:0|1:0,0:0:0:0:
398,315,141139,2,0,L|348:307,1,50,0|0,0:0|1:0,0:0:0:0:
303,285,141514,2,0,L|253:292,1,50,0|0,1:0|0:0,0:0:0:0:
220,330,141889,2,0,L|91:309,1,99.9999999999999,8|2,0:0|0:0,0:0:0:0:
49,245,142639,6,0,B|71:196|71:196|60:130,1,99.9999999999999,2|0,1:0|0:0,0:0:0:0:
95,113,143201,1,2,0:0:0:0:
95,113,143389,2,0,L|103:48,2,50,10|2|2,0:0|1:0|1:0,0:0:0:0:
181,163,144139,2,0,L|230:156,1,50,2|2,0:0|1:0,0:0:0:0:
270,127,144514,2,0,L|319:133,1,50,2|0,1:0|0:0,0:0:0:0:
362,159,144889,1,10,0:0:0:0:
414,244,145264,2,0,L|404:317,1,50,10|10,0:0|0:0,0:0:0:0:
398,342,145639,1,6,1:0:0:0:
