osu file format v14

[General]
AudioFilename: audio.mp3
AudioLeadIn: 0
PreviewTime: 49076
Countdown: 0
SampleSet: Soft
StackLeniency: 0.4
Mode: 0
LetterboxInBreaks: 0
WidescreenStoryboard: 1

[Editor]
DistanceSpacing: 1.2
BeatDivisor: 6
GridSize: 32
TimelineZoom: 1.6

[Metadata]
Title:CHO-DARI-
TitleUnicode:CHO-DARI-
Artist:Kudou Chitose
ArtistUnicode:久遠千歳
Creator:SMOKELIND
Version:ELI'S HARD
Source:
Tags:T6 Kudo vtuber youtube virtual youtuber Nijisanji にじさんじ rei sirose 白瀬玲 DUSTCELL EMA EM A Mocaotic Rosiie Elinor [_Eli_] Eli japanese hip hop pop 23.exe cover hatsune miku vocaloid chodari cho dari
BeatmapID:2815762
BeatmapSetID:1328138

[Difficulty]
HPDrainRate:4
CircleSize:3.8
OverallDifficulty:6
ApproachRate:8
SliderMultiplier:1.4
SliderTickRate:1

[Events]
//Background and Video events
0,0,"73080921_p0.jpg",0,0
//Break Periods
//Storyboard Layer 0 (Background)
//Storyboard Layer 1 (Fail)
//Storyboard Layer 2 (Pass)
//Storyboard Layer 3 (Foreground)
//Storyboard Layer 4 (Overlay)
//Storyboard Sound Samples

[TimingPoints]
1639,750,4,2,77,47,1,0
1639,-50,4,2,77,47,0,0
13639,-62.5,4,2,77,47,0,0
25639,-55.5555555555555,4,2,77,67,0,0
37639,-55.5555555555555,4,2,77,57,0,0
46264,-55.5555555555555,4,2,77,57,0,0
46545,-55.5555555555555,4,2,77,5,0,0
46639,-55.5555555555555,4,2,77,57,0,0
49639,-50,4,2,77,97,0,1
49920,-55.5555555555555,4,2,77,5,0,1
50014,-50,4,2,77,97,0,1
51420,-55.5555555555555,4,2,77,5,0,1
51514,-50,4,2,77,97,0,1
54420,-55.5555555555555,4,2,77,5,0,1
54514,-50,4,2,77,97,0,1
55920,-55.5555555555555,4,2,77,5,0,1
56014,-50,4,2,77,97,0,1
57420,-55.5555555555555,4,2,77,5,0,1
57514,-50,4,2,77,97,0,1
60420,-55.5555555555555,4,2,77,5,0,1
60514,-50,4,2,77,97,0,1
61264,-50,4,2,77,77,0,1
61639,-50,4,2,77,97,0,1
61920,-55.5555555555555,4,2,77,5,0,1
62014,-50,4,2,77,97,0,1
63420,-55.5555555555555,4,2,77,5,0,1
63514,-50,4,2,77,97,0,1
66420,-55.5555555555555,4,2,77,5,0,1
66514,-50,4,2,77,97,0,1
67920,-55.5555555555555,4,2,77,5,0,1
68014,-50,4,2,77,97,0,1
69420,-55.5555555555555,4,2,77,5,0,1
69514,-50,4,2,77,97,0,1
72420,-55.5555555555555,4,2,77,5,0,1
72514,-50,4,2,77,97,0,1
73639,-62.5,4,2,77,97,0,0
74014,-62.5,4,2,77,57,0,0
85639,-55.5555555555555,4,2,77,67,0,0
97639,-55.5555555555555,4,2,77,57,0,0
104670,-55.5555555555555,4,2,77,5,0,0
104764,-55.5555555555555,4,2,77,57,0,0
105045,-55.5555555555555,4,2,77,5,0,0
105139,-55.5555555555555,4,2,77,57,0,0
105795,-55.5555555555555,4,2,77,5,0,0
105889,-55.5555555555555,4,2,77,57,0,0
109639,-50,4,2,77,97,0,1
109920,-55.5555555555555,4,2,77,5,0,1
110014,-50,4,2,77,97,0,1
111420,-55.5555555555555,4,2,77,5,0,1
111514,-50,4,2,77,97,0,1
114420,-55.5555555555555,4,2,77,5,0,1
114514,-50,4,2,77,97,0,1
115920,-55.5555555555555,4,2,77,5,0,1
116014,-50,4,2,77,97,0,1
117420,-55.5555555555555,4,2,77,5,0,1
117514,-50,4,2,77,97,0,1
120420,-55.5555555555555,4,2,77,5,0,1
120514,-50,4,2,77,97,0,1
121264,-50,4,2,77,77,0,1
121639,-50,4,2,77,97,0,1
121920,-55.5555555555555,4,2,77,5,0,1
122014,-50,4,2,77,97,0,1
123420,-55.5555555555555,4,2,77,5,0,1
123514,-50,4,2,77,97,0,1
126420,-55.5555555555555,4,2,77,5,0,1
126514,-50,4,2,77,97,0,1
127920,-55.5555555555555,4,2,77,5,0,1
128014,-50,4,2,77,97,0,1
129420,-55.5555555555555,4,2,77,5,0,1
129514,-50,4,2,77,97,0,1
132420,-55.5555555555555,4,2,77,5,0,1
132514,-50,4,2,77,97,0,1
133639,-50,4,2,77,87,0,0
136170,-55.5555555555555,4,2,77,5,0,0
136264,-50,4,2,77,87,0,0
145639,-50,4,2,77,87,0,0

[Colours]
Combo1 : 228,228,228
Combo2 : 255,121,155
Combo3 : 255,121,124
Combo4 : 255,232,170

[HitObjects]
56,51,13639,5,0,1:0:0:0:
36,196,14014,2,0,L|92:217,1,56,2|2,0:0|0:0,0:0:0:0:
140,268,14389,2,0,L|196:252,1,56,10|2,0:0|0:0,0:0:0:0:
264,228,14764,1,2,1:0:0:0:
340,116,15139,6,0,P|332:84|344:60,2,56,2|2|2,0:0|1:0|1:0,0:0:0:0:
404,164,15701,1,2,0:0:0:0:
404,164,15889,2,0,L|516:196,1,112,10|2,0:0|0:0,0:0:0:0:
432,316,16639,6,0,B|380:304|384:360|328:344,1,112,2|2,1:0|0:0,0:0:0:0:
268,304,17201,2,0,L|156:340,1,112,2|2,0:0|1:0,0:0:0:0:
96,304,17764,2,0,P|88:276|96:252,1,56,2|2,1:0|0:0,0:0:0:0:
116,180,18139,6,0,L|60:164,1,56,2|2,0:0|1:0,0:0:0:0:
56,92,18514,2,0,L|109:76,1,56,2|2,1:0|0:0,0:0:0:0:
180,60,18889,1,10,0:0:0:0:
324,36,19264,2,0,L|404:60,1,84,2|0,0:0|0:0,0:0:0:0:
440,72,19639,5,0,1:0:0:0:
496,208,20014,2,0,L|484:264,1,56,2|2,0:0|0:0,0:0:0:0:
412,280,20389,2,0,L|400:225,1,56,10|2,0:0|0:0,0:0:0:0:
384,152,20764,1,2,1:0:0:0:
240,124,21139,6,0,L|184:144,2,56,2|2|2,0:0|1:0|1:0,0:0:0:0:
304,88,21701,1,2,0:0:0:0:
304,88,21889,2,0,P|272:44|212:44,1,112,10|2,0:0|0:0,0:0:0:0:
80,92,22639,6,0,L|100:204,1,112,2|2,1:0|0:0,0:0:0:0:
124,276,23201,1,2,0:0:0:0:
124,276,23389,2,0,L|184:260,1,56,10|2,0:0|1:0,0:0:0:0:
240,224,23764,2,0,L|296:240,1,56,2|2,1:0|0:0,0:0:0:0:
356,276,24139,6,0,P|356:304|340:336,2,56,2|2|2,0:0|1:0|1:0,0:0:0:0:
372,204,24701,1,2,0:0:0:0:
372,204,24889,2,0,L|400:212,4,28,10|0|8|0|0,0:0|0:0|0:3|0:0|0:0,0:0:0:0:
304,56,25639,6,0,B|244:40|252:100|188:84,1,125.999996154785,6|2,1:0|0:0,0:0:0:0:
104,84,26201,1,2,0:0:0:0:
104,84,26389,2,0,L|92:148,1,62.9999980773926,8|2,0:0|0:0,0:0:0:0:
28,196,26764,2,0,L|40:260,1,62.9999980773926,2|2,1:0|0:0,0:0:0:0:
76,332,27139,6,0,P|100:352|132:352,1,62.9999980773926,2|2,0:0|1:0,0:0:0:0:
188,292,27514,2,0,P|216:280|248:292,1,62.9999980773926,2|2,1:0|0:0,0:0:0:0:
296,352,27889,2,0,L|420:328,1,125.999996154785,10|2,0:0|0:0,0:0:0:0:
480,176,28639,6,0,P|496:120|444:76,1,125.999996154785,2|2,1:0|0:0,0:0:0:0:
380,40,29201,1,2,0:0:0:0:
380,40,29389,2,0,L|316:56,1,62.9999980773926,10|2,0:0|1:0,0:0:0:0:
260,112,29764,2,0,L|192:96,1,62.9999980773926,2|2,1:0|0:0,0:0:0:0:
120,80,30139,6,0,L|108:144,1,62.9999980773926,2|2,0:0|1:0,0:0:0:0:
48,200,30514,2,0,L|64:260,1,62.9999980773926,2|2,1:0|0:0,0:0:0:0:
120,320,30889,2,0,B|180:312|160:260|220:252,1,125.999996154785,10|0,0:0|0:0,0:0:0:0:
372,340,31639,6,0,P|344:292|372:232,1,125.999996154785,2|2,1:0|0:0,0:0:0:0:
436,180,32201,1,2,0:0:0:0:
436,180,32389,2,0,P|447:142|440:120,1,62.9999980773926,10|0,0:0|0:0,0:0:0:0:
396,52,32764,2,0,L|332:72,1,62.9999980773926,2|2,1:0|0:0,0:0:0:0:
284,132,33139,6,0,L|224:112,1,62.9999980773926,2|2,0:0|1:0,0:0:0:0:
180,44,33514,2,0,L|116:60,1,62.9999980773926,2|2,1:0|0:0,0:0:0:0:
56,112,33889,2,0,B|24:136|24:136|52:220,1,125.999996154785,10|2,0:0|0:0,0:0:0:0:
156,344,34639,6,0,L|280:308,1,125.999996154785,2|2,1:0|0:0,0:0:0:0:
356,292,35201,1,0,0:0:0:0:
356,292,35389,2,0,L|420:312,1,62.9999980773926,10|0,0:0|1:0,0:0:0:0:
476,256,35764,2,0,P|485:226|473:198,1,62.9999980773926,2|2,1:0|0:0,0:0:0:0:
420,136,36139,6,0,L|388:144,1,31.4999990386963,2|0,0:0|0:0,0:0:0:0:
284,208,36514,2,0,L|224:192,1,62.9999980773926,2|2,1:0|0:0,0:0:0:0:
168,132,36889,2,0,P|164:68|212:36,1,125.999996154785,10|2,0:0|0:0,0:0:0:0:
372,24,37639,6,0,L|496:64,1,125.999996154785,8|10,0:0|0:0,0:0:0:0:
496,144,38201,1,10,0:3:0:0:
496,144,38389,2,0,P|444:180|388:152,1,125.999996154785,10|8,0:0|0:0,0:0:0:0:
232,116,39139,6,0,L|216:180,1,62.9999980773926,10|10,0:0|0:3,0:0:0:0:
136,196,39514,2,0,L|152:260,1,62.9999980773926,10|2,0:0|0:0,0:0:0:0:
188,328,39889,2,0,B|244:308|244:372|308:344,1,125.999996154785,10|10,0:0|0:0,0:0:0:0:
456,280,40639,5,8,0:0:0:0:
388,132,41014,2,0,L|324:160,1,62.9999980773926,10|10,0:0|0:3,0:0:0:0:
280,220,41389,2,0,L|160:184,1,125.999996154785,10|8,0:0|0:0,0:0:0:0:
32,80,42139,6,0,P|32:48|52:24,1,62.9999980773926,10|10,0:0|0:0,0:0:0:0:
92,20,42420,1,8,0:0:0:0:
92,20,42514,2,0,L|152:36,1,62.9999980773926,10|2,0:0|0:0,0:0:0:0:
208,96,42889,2,0,L|272:80,1,62.9999980773926,10|8,0:0|0:0,0:0:0:0:
328,24,43264,2,0,L|296:12,2,31.4999990386963,10|8|8,0:0|0:0|0:0,0:0:0:0:
372,92,43639,6,0,L|360:140,1,41.9999987182618,10|2,0:0|0:0,0:0:0:0:
350,174,43889,1,2,0:0:0:0:
341,202,44014,2,0,B|301:194|305:242|265:230,1,83.9999974365235,10|2,0:0|0:0,0:0:0:0:
224,202,44389,6,0,L|212:162,2,41.9999987182618,10|2|2,0:0|0:0|0:0,0:0:0:0:
193,242,44764,1,10,0:0:0:0:
100,272,45014,1,2,0:0:0:0:
100,272,45139,6,0,L|60:260,1,41.9999987182618,10|0,0:3|0:0,0:0:0:0:
28,228,45389,1,2,0:0:0:0:
28,228,45514,2,0,L|36:184,1,41.9999987182618,10|2,0:0|0:0,0:0:0:0:
32,84,45889,6,0,P|60:48|112:48,1,94.499997116089,10|0,0:0|0:0,0:0:0:0:
144,48,46264,2,0,B|192:40|188:80|232:72,1,94.499997116089
268,56,46639,5,2,1:0:0:0:
464,196,47201,1,0,0:0:0:0:
464,196,47389,2,0,L|400:208,1,62.9999980773926,10|0,0:0|0:0,0:0:0:0:
320,216,47764,1,2,1:0:0:0:
196,324,48139,6,0,P|164:324|140:304,1,62.9999980773926,2|2,0:0|1:0,0:0:0:0:
104,232,48514,2,0,P|96:200|108:172,1,62.9999980773926,2|6,1:0|0:3,0:0:0:0:
140,148,48795,1,4,0:3:0:0:
140,148,48889,2,0,L|204:140,1,62.9999980773926,6|8,0:3|2:3,0:0:0:0:
284,136,49264,1,8,2:3:0:0:
344,192,49451,1,8,0:0:0:0:
468,164,49639,6,0,P|488:120|464:72,1,105,6|0,1:0|0:0,0:0:0:0:
436,36,50014,1,2,0:0:0:0:
348,16,50201,2,0,L|280:32,1,70,2|8,0:0|0:0,0:0:0:0:
188,48,50576,1,2,0:0:0:0:
152,132,50764,1,2,1:0:0:0:
152,132,50951,1,2,0:0:0:0:
212,200,51139,6,0,B|264:184|264:236|308:224,1,105,2|0,0:0|0:0,0:0:0:0:
352,208,51514,1,2,1:0:0:0:
424,264,51701,2,0,P|440:300|428:328,1,70,2|8,0:0|0:0,0:0:0:0:
340,352,52076,1,2,0:0:0:0:
264,304,52264,1,2,0:0:0:0:
264,304,52451,1,2,0:0:0:0:
140,348,52639,6,0,L|68:328,1,70,2|2,1:0|0:0,0:0:0:0:
8,264,53014,2,0,P|0:232|16:200,1,70,2|2,0:0|0:0,0:0:0:0:
104,176,53389,2,0,P|112:144|96:112,1,70,10|2,0:0|1:0,0:0:0:0:
48,36,53764,1,2,1:0:0:0:
48,36,53951,1,2,0:0:0:0:
136,12,54139,6,0,B|172:4|172:4|204:20|204:20|236:16,1,105,2|0,0:0|0:0,0:0:0:0:
280,16,54514,1,2,1:0:0:0:
348,76,54701,2,0,L|336:144,1,70,2|8,0:0|0:0,0:0:0:0:
272,208,55076,1,10,0:3:0:0:
332,280,55264,1,10,0:3:0:0:
332,280,55451,1,8,0:3:0:0:
224,352,55639,6,0,P|180:352|144:308,1,105,2|0,1:0|0:0,0:0:0:0:
132,264,56014,1,2,0:0:0:0:
132,172,56201,2,0,L|204:152,1,70,2|8,0:0|0:0,0:0:0:0:
272,100,56576,1,2,0:0:0:0:
216,32,56764,1,2,1:0:0:0:
216,32,56951,1,2,0:0:0:0:
128,16,57139,6,0,P|92:16|52:68,1,105,2|0,0:0|0:0,0:0:0:0:
44,112,57514,1,2,1:0:0:0:
60,200,57701,2,0,L|76:268,1,70,2|8,0:0|0:0,0:0:0:0:
128,344,58076,1,2,0:0:0:0:
128,344,58264,2,0,L|200:328,1,70,2|2,0:0|0:0,0:0:0:0:
272,224,58639,6,0,L|340:240,1,70,2|2,1:0|0:0,0:0:0:0:
408,300,59014,2,0,L|476:284,1,70,2|2,0:0|0:0,0:0:0:0:
504,200,59389,2,0,P|504:164|480:136,1,70,10|2,0:0|1:0,0:0:0:0:
412,80,59764,1,2,1:0:0:0:
412,80,59951,1,2,0:0:0:0:
332,32,60139,6,0,L|224:64,1,105,2|0,0:0|0:0,0:0:0:0:
188,76,60514,1,2,1:0:0:0:
112,128,60701,2,0,L|132:200,1,70,2|8,0:0|0:0,0:0:0:0:
168,280,61076,1,10,0:0:0:0:
232,216,61264,2,0,L|240:180,2,35,10|8|10,0:0|0:0|0:0,0:0:0:0:
288,336,61639,6,0,P|340:348|376:312,1,105,6|0,1:0|0:0,0:0:0:0:
380,272,62014,1,2,0:0:0:0:
328,196,62201,2,0,P|314:165|324:128,1,70,2|8,0:0|0:0,0:0:0:0:
408,104,62576,1,2,0:0:0:0:
464,36,62764,1,2,1:0:0:0:
464,36,62951,1,2,0:0:0:0:
384,8,63139,6,0,L|280:28,1,105,2|0,0:0|0:0,0:0:0:0:
236,40,63514,1,2,1:0:0:0:
156,84,63701,2,0,P|144:116|156:148,1,70,2|8,0:0|0:0,0:0:0:0:
204,228,64076,1,2,0:0:0:0:
284,180,64264,1,2,0:0:0:0:
284,180,64451,1,2,0:0:0:0:
380,260,64639,6,0,P|392:292|384:328,1,70,2|2,1:0|0:0,0:0:0:0:
300,364,65014,2,0,P|260:364|240:344,1,70,2|2,0:0|0:0,0:0:0:0:
176,280,65389,2,0,P|136:280|116:300,1,70,10|2,0:0|1:0,0:0:0:0:
44,352,65764,1,2,1:0:0:0:
44,352,65951,1,2,0:0:0:0:
12,268,66139,6,0,B|28:164,1,105,10|0,0:0|0:0,0:0:0:0:
36,120,66514,1,2,1:0:0:0:
96,52,66701,2,0,P|136:52|160:68,1,70,2|8,0:0|0:0,0:0:0:0:
212,144,67076,1,10,0:3:0:0:
288,92,67264,1,10,0:3:0:0:
288,92,67451,1,10,0:3:0:0:
340,204,67639,6,0,B|388:188|388:244|436:228,1,105,2|0,1:0|0:0,0:0:0:0:
472,200,68014,1,2,0:0:0:0:
500,112,68201,2,0,P|500:72|480:48,1,70,2|8,0:0|0:0,0:0:0:0:
400,12,68576,1,2,0:0:0:0:
332,76,68764,1,2,1:0:0:0:
332,76,68951,1,2,0:0:0:0:
260,16,69139,6,0,L|156:44,1,105,2|0,0:0|0:0,0:0:0:0:
116,56,69514,1,2,1:0:0:0:
56,124,69701,2,0,L|76:192,1,70,2|8,0:0|0:0,0:0:0:0:
148,244,70076,1,2,0:0:0:0:
216,180,70264,1,2,0:0:0:0:
216,180,70451,1,2,0:0:0:0:
272,296,70639,6,0,L|344:280,1,70,2|2,1:0|0:0,0:0:0:0:
424,244,71014,2,0,P|436:212|424:180,1,70,2|2,0:0|0:0,0:0:0:0:
336,160,71389,2,0,P|324:128|336:96,1,70,10|2,0:0|1:0,0:0:0:0:
404,44,71764,1,2,1:0:0:0:
404,44,71951,1,2,0:0:0:0:
320,8,72139,6,0,B|272:8|280:56|228:56,1,105,2|0,0:0|0:0,0:0:0:0:
188,44,72514,1,2,1:0:0:0:
100,24,72701,2,0,L|32:48,1,70,2|8,0:0|0:0,0:0:0:0:
28,168,73139,2,0,L|44:212,3,46.6666666666667,0|0|0|0,1:2|1:2|1:2|1:2,0:0:0:0:
68,256,73639,5,0,1:2:0:0:
180,348,74014,2,0,P|212:348|232:332,1,56,2|2,0:0|0:0,0:0:0:0:
272,272,74389,2,0,P|304:272|324:288,1,56,10|2,0:0|0:0,0:0:0:0:
384,328,74764,1,2,1:0:0:0:
492,300,75139,6,0,L|504:244,1,56,2|2,0:0|1:0,0:0:0:0:
500,172,75514,2,0,L|444:160,1,56,2|2,1:0|0:0,0:0:0:0:
384,120,75889,2,0,B|330:127|350:171|294:179,1,112,10|2,0:0|0:0,0:0:0:0:
192,76,76639,5,2,1:0:0:0:
48,88,77014,2,0,L|36:144,1,56,2|2,0:0|0:0,0:0:0:0:
48,216,77389,2,0,L|104:228,1,56,10|2,0:0|1:0,0:0:0:0:
160,184,77764,1,2,1:0:0:0:
280,264,78139,6,0,P|284:278|294:318,1,56,2|2,0:0|1:0,0:0:0:0:
364,344,78514,2,0,P|370:316|378:289,1,56,2|2,1:0|0:0,0:0:0:0:
448,264,78889,2,0,P|424:220|360:220,1,112,10|2,0:0|0:0,0:0:0:0:
256,120,79639,5,2,1:0:0:0:
372,32,80014,2,0,L|428:48,1,56,2|2,0:0|0:0,0:0:0:0:
460,112,80389,2,0,L|404:128,1,56,10|2,0:0|0:0,0:0:0:0:
336,148,80764,1,2,1:0:0:0:
252,268,81139,6,0,P|244:296|252:320,1,56,2|2,0:0|1:0,0:0:0:0:
316,356,81514,2,0,P|344:364|368:356,1,56,2|2,1:0|0:0,0:0:0:0:
388,284,81889,2,0,B|440:264|440:324|496:300,1,112,10|2,0:0|0:0,0:0:0:0:
512,156,82639,5,2,1:0:0:0:
428,36,83014,2,0,L|368:56,1,56,2|2,0:0|0:0,0:0:0:0:
328,112,83389,2,0,L|272:96,1,56,10|2,0:0|1:0,0:0:0:0:
204,72,83764,1,2,1:0:0:0:
108,180,84139,5,2,0:0:0:0:
108,180,84514,1,2,1:0:0:0:
228,264,84889,5,10,0:3:0:0:
228,264,85264,1,2,0:0:0:0:
104,352,85639,6,0,L|64:340,1,41.9999987182618,2|2,1:0|0:0,0:0:0:0:
36,322,85889,1,2,0:0:0:0:
20,290,86014,2,0,L|40:206,1,83.9999974365235,2|2,0:0|0:0,0:0:0:0:
70,168,86389,2,0,L|114:180,3,41.9999987182618,10|0|0|2,0:0|0:0|0:0|1:0,0:0:0:0:
211,156,87014,1,2,0:0:0:0:
211,156,87139,6,0,L|255:168,2,41.9999987182618,2|2|0,0:0|0:0|0:0,0:0:0:0:
204,106,87514,2,0,P|204:66|240:38,1,83.9999974365235,2|2,1:0|0:0,0:0:0:0:
285,36,87889,2,0,B|317:68|317:68|397:48,1,125.999996154785,2|2,0:0|0:0,0:0:0:0:
472,180,88639,6,0,L|460:224,1,41.9999987182618,2|2,1:0|0:0,0:0:0:0:
444,272,88889,1,2,0:0:0:0:
444,272,89014,2,0,L|404:260,1,41.9999987182618,2|2,0:0|0:0,0:0:0:0:
292,244,89389,2,0,B|232:244|252:308|188:308,1,125.999996154785,10|2,0:0|1:0,0:0:0:0:
84,332,90014,5,0,0:0:0:0:
84,332,90139,2,0,L|76:280,1,41.9999987182618,2|2,0:0|0:0,0:0:0:0:
36,252,90389,1,2,0:0:0:0:
36,252,90514,2,0,L|48:204,1,41.9999987182618,2|2,1:0|0:0,0:0:0:0:
108,120,90889,2,0,P|168:120|184:136,1,83.9999974365235,2|2,0:0|0:0,0:0:0:0:
216,176,91264,1,2,0:0:0:0:
260,332,91639,6,0,L|324:312,1,62.9999980773926,2|2,1:0|0:0,0:0:0:0:
400,332,92014,2,0,L|460:348,1,62.9999980773926,2|2,0:0|0:0,0:0:0:0:
500,276,92389,2,0,P|508:244|496:216,1,62.9999980773926,10|2,0:0|0:0,0:0:0:0:
420,184,92764,2,0,P|412:152|424:124,1,62.9999980773926,2|2,1:0|0:0,0:0:0:0:
476,64,93139,6,0,P|444:44|420:44,1,62.9999980773926,2|2,0:0|1:0,0:0:0:0:
340,60,93514,1,2,1:0:0:0:
340,60,93701,1,0,0:0:0:0:
288,124,93889,2,0,B|224:116|252:68|184:60,1,125.999996154785,10|2,0:0|0:0,0:0:0:0:
28,104,94639,6,0,L|48:168,1,62.9999980773926,2|2,1:0|0:0,0:0:0:0:
76,200,94920,1,2,0:0:0:0:
76,200,95014,2,0,L|64:264,1,62.9999980773926,2|0,0:0|0:0,0:0:0:0:
48,344,95389,1,10,0:0:0:0:
212,356,95764,6,0,P|244:356|268:336,1,62.9999980773926,2|2,1:0|0:0,0:0:0:0:
316,272,96139,2,0,P|348:272|371:290,1,62.9999980773926,2|2,0:0|1:0,0:0:0:0:
428,348,96514,2,0,L|492:332,1,62.9999980773926,2|2,1:0|0:0,0:0:0:0:
508,252,96889,1,10,0:0:0:0:
508,252,97076,1,2,0:0:0:0:
440,208,97264,1,2,0:0:0:0:
440,208,97451,1,2,0:0:0:0:
488,144,97639,5,10,0:0:0:0:
368,32,98014,2,0,L|308:52,1,62.9999980773926,10|10,0:0|0:3,0:0:0:0:
244,104,98389,2,0,L|184:84,1,62.9999980773926,10|2,0:0|0:0,0:0:0:0:
152,60,98670,1,2,0:0:0:0:
152,60,98764,2,0,L|88:76,1,62.9999980773926,10|0,0:0|0:0,0:0:0:0:
44,140,99139,1,10,0:0:0:0:
96,296,99514,6,0,P|120:316|152:316,1,62.9999980773926,10|2,0:0|0:0,0:0:0:0:
208,260,99889,2,0,P|232:244|268:244,1,62.9999980773926,10|2,0:0|0:0,0:0:0:0:
296,268,100170,1,10,0:0:0:0:
296,268,100264,2,0,P|320:284|356:284,1,62.9999980773926,10|10,0:0|0:3,0:0:0:0:
412,228,100639,1,10,0:0:0:0:
440,68,101014,6,0,L|376:52,1,62.9999980773926,8|2,0:0|0:0,0:0:0:0:
344,68,101295,1,2,0:0:0:0:
344,68,101389,2,0,L|328:132,1,62.9999980773926,10|2,0:0|0:0,0:0:0:0:
324,172,101670,1,2,0:0:0:0:
324,172,101764,1,10,0:0:0:0:
212,292,102139,6,0,P|180:292|156:272,1,62.9999980773926,10|8,0:0|0:0,0:0:0:0:
128,244,102420,1,8,0:0:0:0:
128,244,102514,2,0,L|140:176,1,62.9999980773926,10|2,0:0|0:0,0:0:0:0:
204,132,102889,2,0,L|192:68,1,62.9999980773926,10|10,0:0|0:0,0:0:0:0:
168,36,103170,1,10,0:0:0:0:
168,36,103264,2,0,L|104:48,1,62.9999980773926,10|8,0:0|0:0,0:0:0:0:
40,96,103639,1,10,0:0:0:0:
40,260,104014,6,0,L|48:304,2,31.4999990386963,2|2|10,0:0|0:0|0:0,0:0:0:0:
100,204,104389,2,0,L|196:232,1,94.499997116089,10|0,0:0|0:0,0:0:0:0:
220,260,104764,2,0,B|258:271|258:223|306:235,1,94.499997116089,10|0,0:0|0:0,0:0:0:0:
344,252,105139,6,0,L|348:288,2,31.4999990386963,2|2|10,0:0|0:0|0:0,0:0:0:0:
368,172,105514,2,0,L|268:140,1,94.499997116089,10|0,0:0|0:0,0:0:0:0:
252,112,105889,2,0,P|252:80|304:48,1,94.499997116089,10|8,0:0|0:0,0:0:0:0:
340,52,106264,1,8,0:0:0:0:
484,132,106639,6,0,P|496:160|488:192,1,62.9999980773926,2|0,1:0|0:0,0:0:0:0:
456,212,106920,1,0,0:0:0:0:
456,212,107014,2,0,P|444:240|452:272,1,62.9999980773926
408,340,107389,1,10,0:0:0:0:
340,296,107576,1,0,1:0:0:0:
340,296,107670,1,0,1:0:0:0:
340,296,107764,2,0,L|280:320,1,62.9999980773926,2|0,1:0|0:0,0:0:0:0:
204,348,108139,6,0,L|145:324,1,62.9999980773926,0|10,0:0|0:3,0:0:0:0:
108,308,108420,1,8,0:3:0:0:
108,308,108514,2,0,P|100:276|108:248,1,62.9999980773926,10|10,0:3|0:3,0:0:0:0:
144,176,108889,1,10,0:0:0:0:
144,176,109076,1,10,0:0:0:0:
224,212,109264,1,10,0:0:0:0:
224,212,109451,1,10,0:0:0:0:
324,132,109639,6,0,B|372:120|372:172|424:152,1,105,6|0,1:0|0:0,0:0:0:0:
464,132,110014,1,2,0:0:0:0:
484,44,110201,2,0,P|456:24|420:24,1,70,2|8,0:0|0:0,0:0:0:0:
332,32,110576,1,2,0:0:0:0:
264,92,110764,1,2,1:0:0:0:
264,92,110951,1,2,0:0:0:0:
196,32,111139,6,0,L|96:68,1,105,2|0,0:0|0:0,0:0:0:0:
56,84,111514,1,2,1:0:0:0:
20,168,111701,2,0,P|12:200|24:236,1,70,2|8,0:0|0:0,0:0:0:0:
88,300,112076,1,2,0:0:0:0:
152,232,112264,1,2,0:0:0:0:
152,232,112451,1,2,0:0:0:0:
212,300,112639,6,0,P|252:300|276:280,1,70,2|2,1:0|0:0,0:0:0:0:
316,200,113014,2,0,P|356:200|380:220,1,70,2|2,0:0|0:0,0:0:0:0:
428,292,113389,2,0,P|468:292|492:272,1,70,10|2,0:0|1:0,0:0:0:0:
504,184,113764,1,2,1:0:0:0:
504,184,113951,1,2,0:0:0:0:
440,120,114139,6,0,L|336:148,1,105,2|0,0:0|0:0,0:0:0:0:
296,160,114514,1,2,1:0:0:0:
208,132,114701,2,0,P|192:100|204:68,1,70,2|8,0:0|0:0,0:0:0:0:
276,12,115076,1,10,0:3:0:0:
360,60,115264,1,10,0:3:0:0:
360,60,115451,1,10,0:3:0:0:
476,8,115639,6,0,B|504:48|504:48|480:100,1,105,2|0,1:0|0:0,0:0:0:0:
464,144,116014,1,2,0:0:0:0:
440,232,116201,2,0,P|416:252|376:252,1,70,2|8,0:0|0:0,0:0:0:0:
296,212,116576,1,2,0:0:0:0:
228,276,116764,1,2,1:0:0:0:
228,276,116951,1,2,0:0:0:0:
168,208,117139,6,0,L|184:104,1,105,2|0,0:0|0:0,0:0:0:0:
188,60,117514,1,2,1:0:0:0:
108,20,117701,2,0,P|72:20|48:44,1,70,2|8,0:0|0:0,0:0:0:0:
16,128,118076,1,2,0:0:0:0:
92,176,118264,1,2,0:0:0:0:
92,176,118451,1,2,0:0:0:0:
20,280,118639,6,0,L|40:348,1,70,2|2,1:0|0:0,0:0:0:0:
128,364,119014,2,0,P|160:364|188:340,1,70,2|2,0:0|0:0,0:0:0:0:
244,268,119389,2,0,P|276:268|304:292,1,70,8|2,0:0|1:0,0:0:0:0:
380,340,119764,1,2,1:0:0:0:
380,340,119951,1,2,0:0:0:0:
460,296,120139,6,0,B|484:248|484:248|448:208,1,105,2|0,0:0|0:0,0:0:0:0:
416,180,120514,1,2,1:0:0:0:
332,144,120701,2,0,L|264:164,1,70,2|10,0:0|0:0,0:0:0:0:
180,192,121076,1,10,0:0:0:0:
140,108,121264,2,0,L|148:72,2,35,10|8|10,0:0|0:0|0:0,0:0:0:0:
40,188,121639,6,0,P|24:232|56:280,1,105,6|0,1:0|0:0,0:0:0:0:
88,308,122014,1,2,0:0:0:0:
168,348,122201,2,0,L|236:328,1,70,2|8,0:0|0:0,0:0:0:0:
308,272,122576,1,2,0:0:0:0:
384,320,122764,1,2,1:0:0:0:
384,320,122951,1,2,0:0:0:0:
460,268,123139,6,0,L|440:160,1,105,2|0,0:0|0:0,0:0:0:0:
432,120,123514,1,2,1:0:0:0:
348,92,123701,2,0,L|280:116,1,70,2|8,0:0|0:0,0:0:0:0:
228,184,124076,1,2,0:0:0:0:
136,172,124264,1,2,0:0:0:0:
136,172,124451,1,2,0:0:0:0:
84,48,124639,6,0,P|108:24|144:24,1,70,2|2,1:0|0:0,0:0:0:0:
216,76,125014,2,0,P|240:100|276:100,1,70,2|2,0:0|0:0,0:0:0:0:
340,36,125389,2,0,P|373:36|399:61,1,70,10|2,0:0|1:0,0:0:0:0:
460,128,125764,1,2,1:0:0:0:
460,128,125951,1,2,0:0:0:0:
392,188,126139,6,0,L|416:292,1,105,10|0,0:0|0:0,0:0:0:0:
428,332,126514,1,2,1:0:0:0:
340,352,126701,2,0,L|272:332,1,70,2|8,0:0|0:0,0:0:0:0:
192,292,127076,1,10,0:3:0:0:
120,344,127264,1,10,0:3:0:0:
120,344,127451,1,10,0:3:0:0:
32,244,127639,6,0,P|16:196|48:156,1,105,2|0,1:0|0:0,0:0:0:0:
88,136,128014,1,2,0:0:0:0:
180,132,128201,2,0,L|248:152,1,70,2|8,0:0|0:0,0:0:0:0:
320,204,128576,1,2,0:0:0:0:
400,160,128764,1,2,1:0:0:0:
400,160,128951,1,2,0:0:0:0:
416,68,129139,6,0,L|316:32,1,105,2|0,0:0|0:0,0:0:0:0:
272,36,129514,1,2,1:0:0:0:
188,76,129701,2,0,P|172:108|184:140,1,70,2|8,0:0|0:0,0:0:0:0:
228,216,130076,1,2,0:0:0:0:
312,184,130264,1,2,0:0:0:0:
312,184,130451,1,2,0:0:0:0:
408,260,130639,6,0,L|396:328,1,70,2|2,1:0|0:0,0:0:0:0:
308,356,131014,2,0,L|240:332,1,70,2|2,0:0|0:0,0:0:0:0:
180,268,131389,2,0,L|112:292,1,70,10|2,0:0|1:0,0:0:0:0:
28,328,131764,1,2,1:0:0:0:
28,328,131951,1,2,0:0:0:0:
8,240,132139,6,0,L|24:136,1,105,2|0,0:0|0:0,0:0:0:0:
32,92,132514,1,2,1:0:0:0:
112,48,132701,2,0,P|144:48|172:72,1,70,2|8,0:0|0:0,0:0:0:0:
224,152,133076,1,8,0:0:0:0:
224,152,133264,2,0,L|216:188,2,35,10|8|10,0:0|0:0|0:0,0:0:0:0:
304,52,133639,6,0,B|364:48|360:116|428:112,1,140,6|0,1:0|0:0,0:0:0:0:
488,176,134201,1,2,0:0:0:0:
488,176,134389,2,0,L|472:248,1,70,10|2,0:0|0:0,0:0:0:0:
396,292,134764,2,0,L|380:223,1,70,2|0,1:0|0:0,0:0:0:0:
304,176,135139,5,2,0:0:0:0:
304,176,135326,1,2,1:0:0:0:
236,236,135514,1,2,1:0:0:0:
236,236,135701,1,2,0:0:0:0:
180,164,135889,2,0,L|72:200,1,105,10|0,0:0|0:0,0:0:0:0:
36,208,136264,1,2,0:0:0:0:
132,360,136639,6,0,B|196:380|196:296|256:316,1,140,2|0,1:0|0:0,0:0:0:0:
344,320,137201,1,2,0:0:0:0:
344,320,137389,2,0,L|416:296,1,70,10|2,0:0|1:0,0:0:0:0:
472,232,137764,2,0,L|400:208,1,70,2|0,1:0|0:0,0:0:0:0:
328,228,138139,5,2,0:0:0:0:
328,228,138326,1,2,1:0:0:0:
280,160,138514,2,0,L|268:92,1,70,2|2,1:0|0:0,0:0:0:0:
196,48,138889,1,8,0:0:0:0:
196,48,139076,2,0,L|180:116,2,70,6|6|6,0:3|0:3|0:3,0:0:0:0:
72,16,139639,6,0,P|20:68|36:128,1,140,2|2,1:0|0:0,0:0:0:0:
84,200,140201,1,2,0:0:0:0:
84,200,140389,2,0,P|112:224|148:224,1,70,8|0,0:0|0:0,0:0:0:0:
220,176,140764,2,0,P|248:164|284:176,1,70,2|0,1:0|0:0,0:0:0:0:
352,236,141139,5,0,0:0:0:0:
352,236,141326,1,0,1:0:0:0:
304,312,141514,1,0,1:0:0:0:
304,312,141701,1,0,0:0:0:0:
388,352,141889,2,0,L|456:336,1,70,8|2,0:0|0:0,0:0:0:0:
504,260,142264,1,2,0:0:0:0:
476,80,142639,6,0,B|404:76|432:148|360:144,1,140,2|0,1:0|0:0,0:0:0:0:
276,112,143201,1,2,0:0:0:0:
276,112,143389,2,0,P|263:72|256:40,1,70,10|2,0:0|1:0,0:0:0:0:
172,8,143764,2,0,P|163:41|152:75,1,70,2|0,1:0|0:0,0:0:0:0:
108,156,144139,5,2,0:0:0:0:
108,156,144326,1,2,1:0:0:0:
168,232,144514,1,2,1:0:0:0:
168,232,144701,1,0,0:0:0:0:
240,176,144889,2,0,L|308:196,1,70,10|0,0:0|0:0,0:0:0:0:
356,272,145264,2,0,L|320:284,2,35,10|8|10,0:0|0:0|0:0,0:0:0:0:
460,192,145639,5,6,1:0:0:0:
