osu file format v14

[General]
AudioFilename: Yakumo ~ JOINT STRUGGLE.mp3
AudioLeadIn: 2684
PreviewTime: 83738
Countdown: 0
SampleSet: Normal
StackLeniency: 0.7
Mode: 0
LetterboxInBreaks: 0
WidescreenStoryboard: 1

[Editor]
Bookmarks: 306,5439,15707,25974,36241,46509,56776,67043,77311,83728,93995,104263,114530,124797
DistanceSpacing: 0.8
BeatDivisor: 4
GridSize: 4
TimelineZoom: 1

[Metadata]
Title:Yakumo ~ JOINT STRUGGLE
TitleUnicode:Yakumo ~ JOINT STRUGGLE
Artist:Kucchy vs Akky
ArtistUnicode:Kucchy vs Akky
Creator:Reisyth
Version:YOLO
Source:Otona no Raku ga Kichou
Tags:touhou yakumo yukari ran chen
BeatmapID:315547
BeatmapSetID:123590

[Difficulty]
HPDrainRate:5
CircleSize:5
OverallDifficulty:8
ApproachRate:9.3
SliderMultiplier:1.92
SliderTickRate:2

[Events]
//Background and Video events
0,0,"aaaaaaaaa.png",0,0
//Break Periods
//Storyboard Layer 0 (Background)
//Storyboard Layer 1 (Fail)
//Storyboard Layer 2 (Pass)
//Storyboard Layer 3 (Foreground)
//Storyboard Sound Samples

[TimingPoints]
306,320.855614973262,4,1,1,70,1,0
25092,-100,4,2,1,0,0,0
25252,-100,4,1,1,70,0,0
27338,-100,4,1,2,70,0,0
28060,-100,4,1,1,70,0,0
29102,-100,4,1,2,70,0,0
29824,-100,4,1,1,70,0,0
31348,-100,4,1,2,70,0,0
33594,-100,4,1,1,70,0,0
34236,-100,4,1,2,70,0,0
36161,-100,4,1,1,70,0,0
37605,-100,4,1,2,70,0,0
38327,-100,4,1,1,70,0,0
39370,-100,4,1,2,70,0,0
40172,-100,4,1,1,70,0,0
41616,-100,4,1,2,70,0,0
43862,-100,4,1,1,70,0,0
54049,-100,4,1,2,70,0,0
56696,-100,4,1,1,70,0,0
60466,-100,4,1,2,70,0,0
61589,-100,4,1,1,70,0,0
64316,-100,4,1,2,70,0,0
66963,-100,4,1,1,70,0,0
79717,-100,4,1,2,70,0,0
82445,-100,4,1,2,40,0,0
83648,-100,4,1,1,70,0,0
83728,-100,4,1,1,70,0,1
102819,-100,4,1,2,70,0,1
104423,-100,4,1,1,70,0,0
104584,-100,4,1,1,70,0,1
124797,-100,4,2,1,0,0,0

[Colours]
Combo1 : 0,255,0
Combo2 : 0,255,255
Combo3 : 255,0,255
Combo4 : 255,255,0

[HitObjects]
104,296,306,5,0,0:0:0:0:
72,204,466,1,0,0:0:0:0:
136,132,627,1,0,0:0:0:0:
136,132,707,1,0,0:0:0:0:
136,132,787,1,0,0:0:0:0:
224,172,947,1,0,0:0:0:0:
224,172,1027,1,0,0:0:0:0:
320,152,1188,1,0,0:0:0:0:
320,152,1268,1,0,0:0:0:0:
240,272,1428,1,0,0:0:0:0:
240,272,1589,6,0,L|196:248,1,48
172,276,1749,1,0,0:0:0:0:
204,100,1910,1,0,0:0:0:0:
204,100,1990,1,0,0:0:0:0:
204,100,2071,1,0,0:0:0:0:
344,132,2231,2,0,L|392:120,1,48
416,260,2471,2,0,L|428:308,1,48
308,224,2712,1,0,0:0:0:0:
440,164,2873,5,0,0:0:0:0:
440,164,2953,1,0,0:0:0:0:
440,164,3033,1,0,0:0:0:0:
460,256,3193,1,0,0:0:0:0:
368,228,3353,1,0,0:0:0:0:
316,148,3514,2,0,L|304:100,1,48
260,84,3674,1,0,0:0:0:0:
212,72,3755,1,0,0:0:0:0:
168,88,3835,1,0,0:0:0:0:
224,164,3995,1,0,0:0:0:0:
224,164,4156,5,0,0:0:0:0:
80,136,4316,1,0,0:0:0:0:
140,320,4477,1,0,0:0:0:0:
140,320,4637,2,0,L|184:296,1,48
220,324,4797,5,0,0:0:0:0:
256,308,4878,1,0,0:0:0:0:
280,280,4958,1,0,0:0:0:0:
288,244,5038,1,0,0:0:0:0:
284,208,5118,1,0,0:0:0:0:
260,176,5199,1,0,0:0:0:0:
224,164,5279,1,0,0:0:0:0:
224,164,5359,2,0,L|208:116,1,48
160,224,5600,5,0,0:0:0:0:
52,188,5760,1,0,0:0:0:0:
24,260,5920,1,0,0:0:0:0:
88,164,6081,2,0,L|104:64,1,96
36,108,6402,1,0,0:0:0:0:
184,76,6562,2,0,P|275:63|359:111,1,192,0|0,0:0|0:0,0:0:0:0:
288,144,7043,1,0,0:0:0:0:
228,192,7204,1,0,0:0:0:0:
228,192,7364,2,0,P|216:232|228:284,1,96
164,244,7685,1,0,0:0:0:0:
276,216,7846,6,0,P|214:147|119:130,1,192,0|0,0:0|0:0,0:0:0:0:
232,96,8327,1,0,0:0:0:0:
384,128,8487,2,0,P|427:209|410:304,1,192,0|0,0:0|0:0,0:0:0:0:
356,248,8969,1,0,0:0:0:0:
248,288,9129,1,0,0:0:0:0:
356,248,9289,1,0,0:0:0:0:
444,324,9450,1,0,0:0:0:0:
512,232,9610,2,0,P|483:201|432:186,1,96
404,160,9851,2,0,L|396:112,1,48
324,204,10011,2,0,L|332:252,1,48
256,116,10252,1,0,0:0:0:0:
212,224,10412,1,0,0:0:0:0:
276,268,10573,5,0,0:0:0:0:
212,224,10733,2,0,P|193:261|196:314,1,96
144,168,11054,2,0,P|226:124|321:141,1,192,0|0,0:0|0:0,0:0:0:0:
284,208,11535,1,0,0:0:0:0:
256,280,11696,1,0,0:0:0:0:
408,308,11856,2,0,P|405:266|376:222,1,96
420,156,12177,1,0,0:0:0:0:
420,156,12338,1,0,0:0:0:0:
344,72,12498,1,0,0:0:0:0:
244,128,12659,1,0,2:0:0:0:
136,93,12819,1,0,2:0:0:0:
156,208,12979,1,0,2:0:0:0:
44,231,13139,5,0,2:0:0:0:
156,208,13300,2,0,P|175:245|172:298,1,96
44,232,13621,2,0,P|0:150|17:55,1,192,0|0,0:0|0:0,0:0:0:0:
116,116,14102,1,0,0:0:0:0:
216,172,14263,1,0,0:0:0:0:
120,292,14423,1,0,0:0:0:0:
148,180,14584,1,0,0:0:0:0:
300,188,14744,1,0,0:0:0:0:
216,316,14904,1,0,0:0:0:0:
64,324,15064,5,0,0:0:0:0:
94,313,15144,1,0,0:0:0:0:
124,302,15225,1,0,0:0:0:0:
154,291,15305,1,4,0:0:0:0:
184,280,15385,1,0,0:0:0:0:
214,269,15465,1,0,0:0:0:0:
244,258,15546,2,0,L|288:240,1,48
340,324,15707,5,0,0:0:0:0:
376,312,15787,1,0,0:0:0:0:
408,292,15867,1,0,0:0:0:0:
424,256,15947,1,0,0:0:0:0:
424,216,16027,1,0,0:0:0:0:
408,180,16108,1,0,0:0:0:0:
376,156,16188,1,0,0:0:0:0:
340,148,16268,1,0,0:0:0:0:
304,160,16348,1,0,0:0:0:0:
268,168,16428,1,0,0:0:0:0:
228,160,16509,1,0,0:0:0:0:
204,132,16589,1,0,0:0:0:0:
200,92,16669,2,0,L|208:44,1,48
108,104,16830,2,0,L|100:152,1,48
64,168,16990,5,0,0:0:0:0:
64,168,17070,1,0,0:0:0:0:
64,168,17150,1,0,0:0:0:0:
64,168,17231,1,0,0:0:0:0:
64,168,17311,2,0,L|48:216,1,48
116,308,17471,1,0,0:0:0:0:
116,308,17551,1,0,0:0:0:0:
116,308,17631,1,0,0:0:0:0:
116,308,17711,1,0,0:0:0:0:
116,308,17792,2,0,L|132:260,1,48
204,236,17953,2,0,L|193:186,1,48
245,130,18113,2,0,L|211:92,1,48
176,92,18273,5,0,0:0:0:0:
140,108,18354,1,0,0:0:0:0:
120,140,18434,1,0,0:0:0:0:
116,180,18514,1,0,0:0:0:0:
132,216,18594,1,0,0:0:0:0:
164,240,18674,1,0,0:0:0:0:
200,248,18755,1,0,0:0:0:0:
236,240,18835,1,0,0:0:0:0:
268,220,18915,1,0,0:0:0:0:
292,188,18995,1,0,0:0:0:0:
324,168,19076,1,0,0:0:0:0:
364,168,19156,1,0,0:0:0:0:
400,180,19236,1,0,0:0:0:0:
428,204,19316,1,0,0:0:0:0:
440,240,19396,1,0,0:0:0:0:
436,280,19477,1,0,0:0:0:0:
416,312,19557,1,0,0:0:0:0:
268,348,19717,5,0,0:0:0:0:
268,348,19798,1,0,0:0:0:0:
108,240,19958,1,0,0:0:0:0:
108,240,20038,1,0,0:0:0:0:
68,348,20199,1,0,0:0:0:0:
104,340,20279,1,0,0:0:0:0:
140,328,20359,1,0,0:0:0:0:
168,304,20439,1,0,0:0:0:0:
184,268,20520,1,0,0:0:0:0:
188,228,20600,1,0,0:0:0:0:
180,192,20680,1,0,0:0:0:0:
152,164,20760,1,0,0:0:0:0:
144,128,20840,6,0,L|172:88,1,48
56,104,21001,2,0,L|28:144,1,48
200,200,21161,2,0,L|212:152,1,48
109,207,21322,2,0,L|96:254,1,48
278,248,21482,2,0,L|273:199,1,48
194,285,21643,2,0,L|198:333,1,48
367,266,21803,2,0,L|346:221,1,48
300,329,21964,2,0,L|320:373,1,48
457,252,22123,2,0,L|421:216,1,48
415,334,22284,2,0,L|448:368,1,48
336,260,22445,6,0,L|286:273,1,48
420,192,22605,2,0,L|465:180,1,48
376,112,22765,1,0,0:0:0:0:
340,96,22846,1,0,0:0:0:0:
300,96,22926,1,0,0:0:0:0:
268,116,23006,1,0,0:0:0:0:
248,148,23086,1,0,0:0:0:0:
248,188,23166,1,0,0:0:0:0:
268,220,23247,1,0,0:0:0:0:
276,256,23327,1,0,0:0:0:0:
256,288,23407,6,0,L|208:296,1,48
144,340,23568,2,0,L|113:302,1,48
40,288,23728,2,0,L|57:242,1,48
28,172,23888,2,0,L|75:164,1,48
92,128,24049,5,0,0:0:0:0:
128,116,24129,1,0,0:0:0:0:
164,104,24209,1,0,0:0:0:0:
200,92,24289,1,0,0:0:0:0:
236,80,24370,1,0,0:0:0:0:
272,68,24450,1,0,0:0:0:0:
308,56,24530,1,0,0:0:0:0:
344,44,24610,1,0,0:0:0:0:
380,32,24691,6,0,B|468:48|508:128|468:208|379:224,1,288
312,188,25332,5,0,0:0:0:0:
276,200,25412,1,0,0:0:0:0:
240,212,25492,1,0,0:0:0:0:
204,224,25572,1,0,0:0:0:0:
168,236,25653,1,0,0:0:0:0:
132,248,25733,1,0,0:0:0:0:
96,260,25813,1,0,0:0:0:0:
124,188,25974,5,0,0:0:0:0:
200,324,26134,1,0,0:0:0:0:
24,248,26295,1,0,0:0:0:0:
84,348,26455,1,0,0:0:0:0:
84,348,26535,1,0,0:0:0:0:
84,348,26616,1,0,0:0:0:0:
108,156,26776,1,0,0:0:0:0:
256,276,26937,1,0,0:0:0:0:
388,192,27097,1,0,0:0:0:0:
388,192,27257,2,0,P|407:229|404:282,1,96
472,320,27578,1,0,0:0:0:0:
472,320,27658,1,0,0:0:0:0:
472,320,27739,1,0,0:0:0:0:
456,128,27899,1,0,0:0:0:0:
456,128,28220,6,0,L|488:164,2,48
352,76,28541,1,0,0:0:0:0:
288,172,28701,1,0,0:0:0:0:
392,224,28862,1,0,0:0:0:0:
328,128,29022,1,0,0:0:0:0:
176,100,29183,1,0,0:0:0:0:
228,244,29343,1,0,0:0:0:0:
228,244,29664,5,0,0:0:0:0:
228,244,29985,5,0,0:0:0:0:
156,216,30145,1,0,0:0:0:0:
60,284,30305,1,0,0:0:0:0:
52,132,30466,2,0,L|44:84,1,48
148,136,30626,2,0,L|140:88,1,48
240,116,30787,2,0,P|277:97|330:100,1,96
312,176,31108,5,0,0:0:0:0:
380,208,31268,1,0,0:0:0:0:
416,60,31428,1,0,0:0:0:0:
476,160,31589,1,0,0:0:0:0:
488,196,31669,1,0,0:0:0:0:
480,232,31749,1,0,0:0:0:0:
388,160,31910,1,0,0:0:0:0:
456,340,32070,1,0,0:0:0:0:
284,256,32231,1,0,0:0:0:0:
192,324,32391,2,0,P|173:287|176:234,1,96
84,164,32712,2,0,P|100:125|142:93,1,96
68,104,33033,1,0,0:0:0:0:
68,104,33193,1,0,0:0:0:0:
36,256,33354,1,0,0:0:0:0:
36,256,33514,1,0,0:0:0:0:
164,172,33674,5,0,0:0:0:0:
196,152,33755,1,0,0:0:0:0:
232,144,33835,1,0,0:0:0:0:
268,160,33915,1,0,0:0:0:0:
296,188,33995,1,0,0:0:0:0:
268,260,34156,1,0,0:0:0:0:
212,76,34316,1,0,0:0:0:0:
212,76,34396,1,0,0:0:0:0:
212,76,34477,1,0,0:0:0:0:
212,76,34557,1,0,0:0:0:0:
212,76,34637,1,0,0:0:0:0:
356,124,34797,2,0,P|400:206|383:301,1,192,0|0,0:0|0:0,0:0:0:0:
383,299,35279,1,0,0:0:0:0:
156,324,35600,5,0,0:0:0:0:
132,296,35680,1,0,0:0:0:0:
124,260,35760,1,0,0:0:0:0:
132,224,35841,1,0,0:0:0:0:
152,192,35921,1,0,0:0:0:0:
184,172,36001,1,0,0:0:0:0:
224,168,36081,1,0,0:0:0:0:
224,168,36241,5,0,0:0:0:0:
52,252,36402,1,0,0:0:0:0:
108,108,36562,1,0,0:0:0:0:
244,244,36723,1,0,0:0:0:0:
261,207,36803,1,0,0:0:0:0:
258,168,36883,1,0,0:0:0:0:
152,208,37043,1,0,0:0:0:0:
256,320,37204,1,0,0:0:0:0:
336,236,37364,1,0,0:0:0:0:
256,320,37525,1,0,0:0:0:0:
432,244,37685,1,0,0:0:0:0:
440,168,37846,5,0,0:0:0:0:
428,132,37926,1,0,0:0:0:0:
404,104,38006,1,0,0:0:0:0:
368,88,38086,1,0,0:0:0:0:
328,88,38166,1,0,0:0:0:0:
328,88,38487,6,0,L|284:68,2,48
264,132,38808,1,0,0:0:0:0:
188,152,38969,1,0,0:0:0:0:
112,64,39129,1,0,0:0:0:0:
188,152,39289,1,0,0:0:0:0:
36,124,39450,1,0,0:0:0:0:
104,304,39610,1,0,0:0:0:0:
104,304,39931,5,0,0:0:0:0:
104,304,40252,5,0,0:0:0:0:
152,244,40412,1,0,0:0:0:0:
228,240,40573,1,0,0:0:0:0:
280,296,40733,2,0,L|276:344,1,48
376,284,40894,2,0,L|380:236,1,48
288,168,41054,2,0,L|284:216,1,48
384,156,41215,2,0,L|388:108,1,48
364,76,41375,5,0,0:0:0:0:
256,36,41535,1,0,0:0:0:0:
340,212,41696,1,0,0:0:0:0:
172,116,41856,2,0,P|135:97|82:100,1,96
64,176,42177,1,0,0:0:0:0:
184,84,42338,1,0,0:0:0:0:
268,212,42498,1,0,0:0:0:0:
148,304,42659,1,0,0:0:0:0:
148,304,42819,1,0,0:0:0:0:
172,192,42980,1,0,0:0:0:0:
172,192,43140,1,0,0:0:0:0:
256,112,43300,6,0,L|276:68,3,48
276,144,43621,2,0,L|256:188,3,48
308,128,43942,2,0,P|346:112|399:119,1,96
372,192,44263,1,0,0:0:0:0:
452,60,44423,1,0,0:0:0:0:
492,248,44584,1,0,0:0:0:0:
480,284,44664,1,0,0:0:0:0:
448,308,44744,1,0,0:0:0:0:
412,316,44824,1,0,0:0:0:0:
376,312,44904,1,0,0:0:0:0:
268,356,45065,2,0,P|302:270|386:222,1,192,0|0,0:0|0:0,0:0:0:0:
272,232,45546,2,0,P|180:218|96:267,1,192,0|0,0:0|0:0,0:0:0:0:
80,312,45947,5,0,0:0:0:0:
49,273,46027,1,0,0:0:0:0:
41,227,46108,1,0,0:0:0:0:
49,180,46188,1,0,0:0:0:0:
72,139,46268,1,0,0:0:0:0:
116,122,46348,1,0,0:0:0:0:
184,156,46509,5,0,0:0:0:0:
184,156,46589,1,0,0:0:0:0:
184,156,46669,1,0,0:0:0:0:
72,140,46830,2,0,L|28:160,2,48
244,60,47150,1,0,0:0:0:0:
284,60,47230,1,0,0:0:0:0:
316,80,47310,1,0,0:0:0:0:
340,112,47391,1,0,0:0:0:0:
344,152,47471,1,0,0:0:0:0:
284,200,47632,1,0,0:0:0:0:
420,124,47792,1,0,0:0:0:0:
424,316,47953,1,0,0:0:0:0:
172,224,48113,5,0,0:0:0:0:
172,224,48434,1,0,0:0:0:0:
172,224,48755,1,0,0:0:0:0:
96,312,48915,5,0,0:0:0:0:
284,332,49076,1,0,0:0:0:0:
316,308,49156,1,0,0:0:0:0:
336,276,49236,1,0,0:0:0:0:
336,236,49316,1,0,0:0:0:0:
324,200,49396,1,0,0:0:0:0:
300,172,49477,1,0,0:0:0:0:
264,156,49557,1,0,0:0:0:0:
224,160,49637,1,0,0:0:0:0:
188,168,49717,1,0,0:0:0:0:
148,168,49797,1,0,0:0:0:0:
112,152,49878,1,0,0:0:0:0:
92,120,49958,1,0,0:0:0:0:
92,80,50038,2,0,L|112:36,1,48
20,104,50199,2,0,L|0:148,1,48
4,184,50359,5,0,0:0:0:0:
24,216,50439,1,0,0:0:0:0:
60,232,50519,1,0,0:0:0:0:
100,236,50600,1,0,0:0:0:0:
136,224,50680,1,0,0:0:0:0:
176,196,50760,1,0,0:0:0:0:
216,168,50840,1,0,0:0:0:0:
256,140,50920,1,0,0:0:0:0:
296,112,51001,1,0,0:0:0:0:
424,304,51322,5,0,0:0:0:0:
272,336,51642,5,0,0:0:0:0:
240,316,51723,1,0,0:0:0:0:
224,280,51803,1,0,0:0:0:0:
224,240,51883,1,0,0:0:0:0:
244,208,51963,1,0,0:0:0:0:
276,188,52043,1,0,0:0:0:0:
316,192,52124,1,0,0:0:0:0:
352,180,52204,1,0,0:0:0:0:
380,152,52284,1,0,0:0:0:0:
388,116,52364,6,0,L|356:80,1,48
320,68,52525,2,0,L|272:64,1,48
132,128,52765,1,0,0:0:0:0:
36,248,52925,5,0,0:0:0:0:
64,220,53005,1,0,0:0:0:0:
100,204,53086,1,0,0:0:0:0:
140,208,53166,1,0,0:0:0:0:
172,224,53246,1,0,0:0:0:0:
192,256,53326,1,0,0:0:0:0:
228,272,53407,1,0,0:0:0:0:
264,276,53487,1,0,0:0:0:0:
300,268,53567,1,0,0:0:0:0:
332,248,53647,1,0,0:0:0:0:
352,216,53727,1,0,0:0:0:0:
360,176,53808,1,0,0:0:0:0:
352,140,53888,2,0,L|336:92,3,48
292,80,54209,5,0,0:0:0:0:
164,224,54450,1,0,0:0:0:0:
352,264,54691,1,0,0:0:0:0:
208,136,54931,1,0,0:0:0:0:
256,320,55172,1,0,0:0:0:0:
256,320,55332,5,0,0:0:0:0:
352,264,55493,2,0,L|400:272,1,48
492,340,55814,5,0,0:0:0:0:
484,188,56054,1,0,0:0:0:0:
352,264,56295,1,0,0:0:0:0:
276,256,56455,5,0,0:0:0:0:
228,196,56616,1,0,0:0:0:0:
156,332,56776,1,0,0:0:0:0:
156,332,56856,1,0,0:0:0:0:
156,332,56937,1,0,0:0:0:0:
228,196,57097,1,0,0:0:0:0:
228,196,57177,1,0,0:0:0:0:
228,196,57257,1,0,0:0:0:0:
84,248,57418,1,0,0:0:0:0:
96,212,57498,1,0,0:0:0:0:
108,176,57578,1,0,0:0:0:0:
120,140,57658,1,0,0:0:0:0:
132,104,57739,2,0,P|166:81|220:79,1,96
48,164,58060,6,0,P|31:126|38:72,1,96
20,304,58380,1,0,0:0:0:0:
20,304,58461,1,0,0:0:0:0:
20,304,58541,1,0,0:0:0:0:
96,220,58701,2,0,L|88:172,1,48
184,236,58862,2,0,L|192:284,1,48
252,184,59022,2,0,L|244:136,1,48
340,200,59183,2,0,L|348:248,1,48
328,280,59343,2,0,L|332:328,3,48
296,312,59664,5,0,0:0:0:0:
272,280,59744,1,0,0:0:0:0:
264,244,59824,1,0,0:0:0:0:
280,208,59904,1,0,0:0:0:0:
312,184,59985,1,0,0:0:0:0:
348,176,60065,1,0,0:0:0:0:
388,180,60145,1,0,0:0:0:0:
420,160,60225,1,0,0:0:0:0:
440,128,60305,1,0,0:0:0:0:
440,88,60386,1,0,0:0:0:0:
420,56,60466,1,0,0:0:0:0:
420,56,60546,1,0,0:0:0:0:
420,56,60626,1,0,0:0:0:0:
420,56,60707,1,0,0:0:0:0:
420,56,60787,1,0,0:0:0:0:
420,56,60867,1,0,0:0:0:0:
420,56,60947,6,0,L|380:24,1,48
308,44,61108,2,0,L|257:36,1,48
336,124,61268,1,0,0:0:0:0:
364,148,61348,1,0,0:0:0:0:
376,184,61428,1,0,0:0:0:0:
368,224,61509,1,0,0:0:0:0:
368,264,61589,6,0,C|382:292,2,32
352,284,61749,2,0,C|361:314,2,32
328,296,61910,5,0,0:0:0:0:
292,280,61990,1,0,0:0:0:0:
256,268,62070,1,0,0:0:0:0:
220,272,62150,1,0,0:0:0:0:
184,292,62231,1,0,0:0:0:0:
160,320,62311,1,0,0:0:0:0:
120,324,62391,1,0,0:0:0:0:
84,316,62471,1,0,0:0:0:0:
56,288,62551,1,0,0:0:0:0:
52,248,62632,1,0,0:0:0:0:
60,212,62712,1,0,0:0:0:0:
88,188,62792,1,0,0:0:0:0:
124,180,62872,1,0,0:0:0:0:
156,160,62953,1,0,0:0:0:0:
172,124,63033,1,0,0:0:0:0:
168,84,63113,1,0,0:0:0:0:
136,60,63193,6,0,L|88:48,1,48
56,68,63354,1,0,0:0:0:0:
40,104,63434,1,0,0:0:0:0:
36,144,63514,1,0,0:0:0:0:
52,180,63594,1,0,0:0:0:0:
84,200,63674,1,0,0:0:0:0:
120,208,63755,1,0,0:0:0:0:
156,196,63835,1,0,0:0:0:0:
184,168,63915,1,0,0:0:0:0:
220,152,63995,1,0,0:0:0:0:
260,152,64076,1,0,0:0:0:0:
296,164,64156,1,0,0:0:0:0:
328,188,64236,1,0,0:0:0:0:
344,224,64316,1,0,0:0:0:0:
340,264,64396,1,0,0:0:0:0:
320,296,64477,5,0,0:0:0:0:
192,88,64717,1,0,0:0:0:0:
192,296,64958,1,0,0:0:0:0:
320,88,65198,1,0,0:0:0:0:
256,192,65439,1,0,0:0:0:0:
184,168,65600,1,0,0:0:0:0:
112,200,65760,1,0,0:0:0:0:
112,200,65840,1,0,0:0:0:0:
92,312,66081,1,0,0:0:0:0:
32,172,66322,1,0,0:0:0:0:
176,116,66562,1,0,0:0:0:0:
248,92,66723,1,0,0:0:0:0:
392,144,66883,1,0,0:0:0:0:
248,92,67044,5,0,0:0:0:0:
232,128,67124,1,0,0:0:0:0:
268,196,67284,1,0,0:0:0:0:
258,234,67364,1,0,0:0:0:0:
344,156,67525,1,0,0:0:0:0:
376,136,67605,1,0,0:0:0:0:
416,136,67685,1,0,0:0:0:0:
496,220,67846,1,0,0:0:0:0:
467,244,67926,1,0,0:0:0:0:
428,251,68006,1,0,0:0:0:0:
440,60,68166,1,0,0:0:0:0:
336,112,68327,5,0,0:0:0:0:
336,112,68407,1,0,0:0:0:0:
336,112,68488,1,0,0:0:0:0:
336,112,68568,1,0,0:0:0:0:
336,112,68648,1,0,0:0:0:0:
336,112,68728,1,0,0:0:0:0:
336,112,68808,1,0,0:0:0:0:
388,296,68969,1,0,0:0:0:0:
212,220,69129,1,0,0:0:0:0:
212,220,69209,1,0,0:0:0:0:
212,220,69289,1,0,0:0:0:0:
104,176,69450,1,0,0:0:0:0:
196,108,69611,5,0,0:0:0:0:
196,108,69691,1,0,0:0:0:0:
44,84,69851,1,0,0:0:0:0:
44,84,69931,1,0,0:0:0:0:
4,272,70092,1,0,0:0:0:0:
84,192,70252,1,0,0:0:0:0:
200,192,70412,1,0,0:0:0:0:
236,208,70493,1,0,0:0:0:0:
252,244,70573,1,0,0:0:0:0:
196,344,70733,1,0,0:0:0:0:
196,344,70894,1,0,0:0:0:0:
132,248,71054,5,0,0:0:0:0:
100,232,71134,1,0,0:0:0:0:
68,216,71215,1,0,0:0:0:0:
36,200,71295,1,0,0:0:0:0:
4,184,71375,1,0,0:0:0:0:
16,300,71535,1,0,0:0:0:0:
80,120,71696,1,0,0:0:0:0:
80,120,71776,1,0,0:0:0:0:
80,120,71856,1,0,0:0:0:0:
228,160,72017,1,0,0:0:0:0:
256,232,72177,5,0,0:0:0:0:
264,268,72257,1,0,0:0:0:0:
128,192,72418,1,0,0:0:0:0:
176,296,72578,1,0,0:0:0:0:
184,332,72658,1,0,0:0:0:0:
128,192,72819,1,0,0:0:0:0:
220,124,72979,1,0,0:0:0:0:
252,104,73060,1,0,0:0:0:0:
292,100,73140,1,0,0:0:0:0:
328,116,73220,1,0,0:0:0:0:
356,144,73300,1,0,0:0:0:0:
428,112,73461,5,0,0:0:0:0:
428,112,73541,1,0,0:0:0:0:
352,244,73701,1,0,0:0:0:0:
444,316,73862,1,0,0:0:0:0:
444,316,73942,1,0,0:0:0:0:
296,192,74102,1,0,0:0:0:0:
216,276,74263,1,0,0:0:0:0:
184,256,74343,1,0,0:0:0:0:
168,220,74423,1,0,0:0:0:0:
168,180,74504,1,0,0:0:0:0:
184,144,74584,1,0,0:0:0:0:
84,88,74744,5,0,0:0:0:0:
84,88,74824,1,0,0:0:0:0:
84,88,74905,1,0,0:0:0:0:
44,236,75065,1,0,0:0:0:0:
84,88,75225,1,0,0:0:0:0:
256,172,75386,5,0,0:0:0:0:
256,172,75466,1,0,0:0:0:0:
256,172,75546,1,0,0:0:0:0:
256,324,75707,1,0,0:0:0:0:
256,172,75867,1,0,0:0:0:0:
428,88,76027,5,0,0:0:0:0:
428,88,76107,1,0,0:0:0:0:
428,88,76188,1,0,0:0:0:0:
468,236,76348,1,0,0:0:0:0:
428,88,76508,1,0,0:0:0:0:
256,212,76669,5,0,0:0:0:0:
256,212,76749,1,0,0:0:0:0:
256,212,76829,1,0,0:0:0:0:
256,60,76990,1,0,0:0:0:0:
256,212,77150,1,0,0:0:0:0:
120,140,77311,5,0,0:0:0:0:
120,140,77391,1,0,0:0:0:0:
120,140,77472,1,0,0:0:0:0:
120,140,77552,1,0,0:0:0:0:
120,140,77632,1,0,0:0:0:0:
120,140,77712,1,0,0:0:0:0:
120,140,77793,1,0,0:0:0:0:
120,140,77873,1,0,0:0:0:0:
120,140,77953,1,0,0:0:0:0:
120,140,78033,1,0,0:0:0:0:
120,140,78113,1,0,0:0:0:0:
120,140,78194,1,0,0:0:0:0:
120,140,78274,1,0,0:0:0:0:
120,140,78354,1,0,0:0:0:0:
120,140,78434,1,0,0:0:0:0:
120,140,78514,1,0,0:0:0:0:
92,164,78594,5,0,0:0:0:0:
80,200,78674,1,0,0:0:0:0:
84,240,78755,1,0,0:0:0:0:
108,272,78835,1,0,0:0:0:0:
144,284,78915,1,0,0:0:0:0:
184,280,78995,1,0,0:0:0:0:
220,264,79076,1,0,0:0:0:0:
244,232,79156,1,0,0:0:0:0:
272,204,79236,1,0,0:0:0:0:
308,192,79316,1,0,0:0:0:0:
348,196,79396,1,0,0:0:0:0:
384,212,79477,1,0,0:0:0:0:
396,248,79557,2,0,L|400:296,3,48
440,300,79878,6,0,L|448:348,1,48
468,196,80038,2,0,L|460:148,1,48
344,256,80199,2,0,L|352:304,1,48
372,152,80359,2,0,L|364:104,1,48
248,204,80519,2,0,L|256:252,1,48
276,100,80679,2,0,L|268:52,1,48
152,152,80841,2,0,L|160:200,1,48
180,48,81001,2,0,L|172:0,1,48
56,100,81161,5,0,0:0:0:0:
56,100,81241,1,0,0:0:0:0:
56,100,81322,1,0,0:0:0:0:
56,100,81402,1,0,0:0:0:0:
56,100,81482,1,0,0:0:0:0:
56,100,81562,1,0,0:0:0:0:
56,100,81642,1,0,0:0:0:0:
56,100,81723,1,0,0:0:0:0:
96,124,81803,5,0,0:0:0:0:
136,148,81883,1,0,0:0:0:0:
176,172,81963,1,0,0:0:0:0:
216,196,82044,1,0,0:0:0:0:
256,220,82124,1,0,0:0:0:0:
296,244,82204,1,0,0:0:0:0:
336,268,82284,1,0,0:0:0:0:
376,292,82364,1,0,0:0:0:0:
416,316,82445,1,0,0:0:0:0:
456,340,82525,1,0,0:0:0:0:
456,340,82605,6,0,L|456:240,1,96
332,336,82925,1,0,0:0:0:0:
332,336,83006,1,0,0:0:0:0:
332,336,83086,1,0,0:0:0:0:
272,192,83247,1,0,0:0:0:0:
96,272,83407,1,0,0:0:0:0:
96,272,83568,1,0,0:0:0:0:
96,272,83728,5,0,0:0:0:0:
136,164,83888,1,0,0:0:0:0:
134,127,83969,1,0,0:0:0:0:
107,97,84049,1,0,0:0:0:0:
220,92,84209,1,0,0:0:0:0:
257,94,84290,1,0,0:0:0:0:
287,121,84370,2,0,L|336:116,1,48
352,80,84530,1,0,0:0:0:0:
272,212,84691,1,0,0:0:0:0:
244,140,84851,1,0,0:0:0:0:
460,220,85011,5,0,0:0:0:0:
360,164,85172,1,0,0:0:0:0:
360,164,85252,1,0,0:0:0:0:
360,164,85332,1,0,0:0:0:0:
404,312,85493,1,0,0:0:0:0:
380,284,85573,1,0,0:0:0:0:
344,272,85653,1,0,0:0:0:0:
308,276,85733,1,0,0:0:0:0:
272,292,85814,1,0,0:0:0:0:
232,288,85894,1,0,0:0:0:0:
200,264,85974,1,0,0:0:0:0:
96,316,86134,1,0,0:0:0:0:
68,164,86295,1,0,0:0:0:0:
24,228,86455,5,0,0:0:0:0:
24,228,86535,1,0,0:0:0:0:
24,228,86616,1,0,0:0:0:0:
32,76,86776,1,0,0:0:0:0:
32,76,86856,1,0,0:0:0:0:
32,76,86936,1,0,0:0:0:0:
144,96,87096,1,0,0:0:0:0:
176,80,87176,1,0,0:0:0:0:
216,84,87257,1,0,0:0:0:0:
288,60,87418,1,0,0:0:0:0:
180,168,87578,1,0,0:0:0:0:
180,168,87739,5,4,0:0:0:0:
180,284,87899,1,0,0:0:0:0:
280,228,88060,1,4,0:0:0:0:
280,344,88220,1,0,0:0:0:0:
180,284,88380,1,4,0:0:0:0:
300,192,88541,1,0,0:0:0:0:
280,344,88701,1,4,0:0:0:0:
448,252,88862,1,4,0:0:0:0:
452,176,89022,5,0,0:0:0:0:
448,140,89102,1,0,0:0:0:0:
424,112,89183,1,0,0:0:0:0:
348,128,89343,1,0,0:0:0:0:
321,102,89423,1,0,0:0:0:0:
285,96,89504,1,0,0:0:0:0:
340,240,89663,1,0,0:0:0:0:
344,276,89743,1,0,0:0:0:0:
368,304,89824,1,0,0:0:0:0:
176,320,89984,5,0,0:0:0:0:
340,240,90145,1,0,0:0:0:0:
204,164,90305,1,0,0:0:0:0:
177,138,90385,1,0,0:0:0:0:
141,132,90466,1,0,0:0:0:0:
64,264,90627,1,0,0:0:0:0:
64,264,90707,1,0,0:0:0:0:
64,264,90787,1,0,0:0:0:0:
64,264,90867,1,0,0:0:0:0:
64,264,90947,2,0,L|44:312,1,48
4,200,91108,2,0,L|24:152,1,48
12,120,91268,1,0,0:0:0:0:
128,224,91428,5,0,0:0:0:0:
144,188,91509,1,0,0:0:0:0:
176,168,91589,1,0,0:0:0:0:
216,168,91669,1,0,0:0:0:0:
252,184,91749,1,0,0:0:0:0:
280,208,91830,1,0,0:0:0:0:
320,212,91910,1,0,0:0:0:0:
356,204,91990,1,0,0:0:0:0:
388,180,92070,1,0,0:0:0:0:
400,144,92150,1,0,0:0:0:0:
404,104,92231,1,0,0:0:0:0:
388,68,92311,1,0,0:0:0:0:
356,44,92391,1,0,0:0:0:0:
180,124,92551,6,0,L|180:220,1,96
92,148,92872,1,0,0:0:0:0:
256,48,93033,1,4,0:0:0:0:
456,280,93354,5,0,0:0:0:0:
416,280,93434,1,0,0:0:0:0:
376,280,93514,1,0,0:0:0:0:
336,280,93594,1,0,0:0:0:0:
296,280,93674,1,0,0:0:0:0:
256,280,93755,1,0,0:0:0:0:
216,280,93835,1,0,0:0:0:0:
176,280,93915,1,0,0:0:0:0:
136,280,93995,1,0,0:0:0:0:
64,304,94156,6,0,L|32:340,2,48
180,316,94477,1,0,0:0:0:0:
200,284,94557,1,0,0:0:0:0:
208,248,94637,1,0,0:0:0:0:
196,212,94717,1,0,0:0:0:0:
164,188,94798,1,0,0:0:0:0:
92,220,94958,1,0,0:0:0:0:
44,116,95118,1,0,0:0:0:0:
188,64,95279,1,0,0:0:0:0:
164,188,95439,1,0,0:0:0:0:
164,188,95520,1,0,0:0:0:0:
164,188,95600,1,0,0:0:0:0:
276,212,95760,5,0,0:0:0:0:
304,188,95840,1,0,0:0:0:0:
340,180,95920,1,0,0:0:0:0:
380,180,96001,1,0,0:0:0:0:
416,196,96081,1,0,0:0:0:0:
444,224,96161,1,0,0:0:0:0:
460,260,96241,1,0,0:0:0:0:
460,300,96322,1,0,0:0:0:0:
444,336,96402,1,0,0:0:0:0:
352,212,96562,1,0,0:0:0:0:
300,316,96723,5,0,0:0:0:0:
300,316,96803,1,0,0:0:0:0:
300,316,96884,1,0,0:0:0:0:
492,192,97043,1,0,0:0:0:0:
492,192,97124,1,0,0:0:0:0:
492,192,97204,1,0,0:0:0:0:
404,68,97365,1,0,0:0:0:0:
404,68,97445,1,0,0:0:0:0:
404,68,97525,1,0,0:0:0:0:
284,164,97685,2,0,P|295:203|335:239,1,96
364,168,98006,5,4,0:0:0:0:
228,96,98166,1,0,0:0:0:0:
128,216,98327,1,4,0:0:0:0:
264,288,98487,1,0,0:0:0:0:
184,156,98648,1,4,0:0:0:0:
177,309,98808,1,0,0:0:0:0:
23,336,98969,1,4,0:0:0:0:
29,182,99129,1,4,0:0:0:0:
88,132,99289,5,0,0:0:0:0:
92,96,99369,1,0,0:0:0:0:
116,68,99450,1,0,0:0:0:0:
192,84,99610,1,0,0:0:0:0:
219,58,99690,1,0,0:0:0:0:
255,52,99771,1,0,0:0:0:0:
288,164,99931,1,0,0:0:0:0:
314,191,100011,1,0,0:0:0:0:
320,227,100092,1,0,0:0:0:0:
180,164,100252,1,0,0:0:0:0:
124,216,100412,2,0,L|116:264,2,48
236,236,100734,5,0,0:0:0:0:
272,244,100814,1,0,0:0:0:0:
312,240,100894,1,0,0:0:0:0:
348,224,100975,1,0,0:0:0:0:
372,192,101055,1,0,0:0:0:0:
380,156,101134,1,0,0:0:0:0:
372,116,101215,1,0,0:0:0:0:
344,88,101295,2,0,L|344:40,1,48
284,140,101535,1,0,0:0:0:0:
460,220,101696,5,0,0:0:0:0:
440,188,101776,1,0,0:0:0:0:
404,172,101856,1,0,0:0:0:0:
364,172,101937,1,0,0:0:0:0:
328,184,102017,1,0,0:0:0:0:
300,212,102097,1,0,0:0:0:0:
268,236,102177,1,0,0:0:0:0:
228,236,102257,1,0,0:0:0:0:
192,224,102338,1,0,0:0:0:0:
164,196,102418,1,0,0:0:0:0:
152,160,102498,1,0,0:0:0:0:
164,124,102578,1,0,0:0:0:0:
196,104,102658,2,0,L|244:96,1,48
92,76,102819,2,0,L|44:84,1,48
72,112,102979,6,0,L|72:160,1,48
440,272,103220,2,0,L|440:224,1,48
256,192,103461,1,0,0:0:0:0:
256,192,103541,1,0,0:0:0:0:
256,192,103621,12,0,104263,0:0:0:0:
104,312,104584,6,0,L|112:264,1,48
112,224,104745,1,0,0:0:0:0:
138,252,104825,1,0,0:0:0:0:
174,268,104905,1,0,0:0:0:0:
210,264,104985,1,0,0:0:0:0:
246,248,105065,1,0,0:0:0:0:
196,188,105225,1,0,0:0:0:0:
20,264,105386,1,0,0:0:0:0:
0,112,105546,1,0,0:0:0:0:
0,112,105626,1,0,0:0:0:0:
0,112,105706,1,0,0:0:0:0:
0,112,105787,1,0,0:0:0:0:
0,112,105867,6,0,L|0:64,1,48
76,72,106027,2,0,L|92:26,1,48
128,44,106188,2,0,P|167:34|218:50,1,96
240,84,106428,1,0,0:0:0:0:
248,124,106509,1,0,0:0:0:0:
236,160,106589,1,0,0:0:0:0:
208,188,106669,1,0,0:0:0:0:
172,200,106749,1,0,0:0:0:0:
132,196,106830,6,0,L|84:188,1,48
96,264,106990,2,0,L|65:301,1,48
208,240,107150,2,0,P|247:230|298:246,1,96
296,296,107391,1,0,0:0:0:0:
296,296,107471,1,0,0:0:0:0:
184,324,107632,1,0,0:0:0:0:
184,324,107712,1,0,0:0:0:0:
184,324,107792,1,0,0:0:0:0:
160,172,107953,1,0,0:0:0:0:
296,104,108113,5,0,0:0:0:0:
392,223,108274,1,0,0:0:0:0:
240,196,108434,1,0,0:0:0:0:
388,320,108594,1,0,0:0:0:0:
512,172,108755,1,0,0:0:0:0:
364,48,108915,1,0,0:0:0:0:
340,160,109076,1,0,0:0:0:0:
164,84,109236,1,0,0:0:0:0:
340,160,109396,5,0,0:0:0:0:
304,148,109477,1,0,0:0:0:0:
264,152,109557,1,0,0:0:0:0:
232,176,109637,1,0,0:0:0:0:
216,212,109717,1,0,0:0:0:0:
180,228,109797,1,0,0:0:0:0:
140,232,109878,1,0,0:0:0:0:
104,220,109958,1,0,0:0:0:0:
76,196,110038,1,0,0:0:0:0:
88,120,110199,1,0,0:0:0:0:
88,120,110279,1,0,0:0:0:0:
88,120,110359,1,0,0:0:0:0:
52,308,110519,1,0,0:0:0:0:
236,248,110680,5,0,0:0:0:0:
268,224,110760,1,0,0:0:0:0:
284,188,110840,1,0,0:0:0:0:
284,148,110920,1,0,0:0:0:0:
272,112,111001,1,0,0:0:0:0:
244,84,111081,1,0,0:0:0:0:
208,68,111161,2,0,L|160:64,2,48
56,36,111481,1,0,0:0:0:0:
56,36,111562,1,0,0:0:0:0:
56,36,111642,1,0,0:0:0:0:
324,68,111803,1,0,0:0:0:0:
160,164,111963,5,0,0:0:0:0:
132,192,112044,1,0,0:0:0:0:
124,228,112124,1,0,0:0:0:0:
132,264,112204,1,0,0:0:0:0:
160,288,112284,1,0,0:0:0:0:
196,296,112364,1,0,0:0:0:0:
232,284,112445,1,0,0:0:0:0:
260,256,112525,1,0,0:0:0:0:
296,244,112605,1,0,0:0:0:0:
336,248,112685,1,0,0:0:0:0:
372,264,112765,6,0,C|379:294,2,32
397,269,112925,2,0,C|409:297,3,32
488,212,113247,5,0,0:0:0:0:
468,100,113407,1,0,0:0:0:0:
320,140,113568,1,4,0:0:0:0:
262,41,113728,1,0,0:0:0:0:
376,36,113889,1,4,0:0:0:0:
356,148,114049,1,0,0:0:0:0:
208,108,114210,1,4,0:0:0:0:
150,207,114370,1,0,0:0:0:0:
28,116,114530,5,0,0:0:0:0:
56,92,114610,1,0,0:0:0:0:
92,80,114691,1,0,0:0:0:0:
132,80,114771,1,0,0:0:0:0:
168,96,114851,1,0,0:0:0:0:
196,120,114931,1,0,0:0:0:0:
212,156,115011,1,0,0:0:0:0:
212,196,115092,1,0,0:0:0:0:
196,232,115172,1,0,0:0:0:0:
196,232,115252,1,0,0:0:0:0:
196,232,115332,1,0,0:0:0:0:
196,232,115412,1,0,0:0:0:0:
196,232,115493,1,0,0:0:0:0:
196,232,115573,1,0,0:0:0:0:
196,232,115653,6,0,L|168:272,1,48
128,276,115814,1,0,0:0:0:0:
92,268,115894,1,0,0:0:0:0:
60,248,115974,1,0,0:0:0:0:
48,212,116054,1,0,0:0:0:0:
56,176,116134,1,0,0:0:0:0:
88,152,116215,1,0,0:0:0:0:
124,144,116295,1,0,0:0:0:0:
156,164,116375,1,0,0:0:0:0:
188,184,116455,1,0,0:0:0:0:
228,184,116535,1,0,0:0:0:0:
268,176,116616,1,0,0:0:0:0:
296,152,116696,1,0,0:0:0:0:
312,116,116776,1,0,0:0:0:0:
312,76,116856,1,0,0:0:0:0:
292,44,116937,2,0,L|272:0,1,48
416,48,117097,2,0,L|436:92,1,48
456,124,117257,5,0,0:0:0:0:
452,164,117338,1,0,0:0:0:0:
440,200,117418,1,0,0:0:0:0:
412,224,117498,1,0,0:0:0:0:
376,236,117578,1,0,0:0:0:0:
336,236,117658,1,0,0:0:0:0:
300,220,117739,1,0,0:0:0:0:
276,188,117819,1,0,0:0:0:0:
244,168,117899,1,0,0:0:0:0:
204,164,117979,1,0,0:0:0:0:
168,176,118060,1,0,0:0:0:0:
140,204,118140,1,0,0:0:0:0:
128,240,118220,1,0,0:0:0:0:
136,276,118300,1,0,0:0:0:0:
164,304,118380,6,0,L|204:332,1,48
244,328,118541,2,0,L|292:328,4,48
208,340,118942,6,0,L|164:368,1,48
120,304,119102,2,0,L|68:297,1,48
88,224,119263,2,0,L|52:185,1,48
112,140,119423,2,0,L|109:87,1,48
188,92,119584,2,0,L|219:50,1,48
248,76,119744,1,0,0:0:0:0:
284,88,119824,1,0,0:0:0:0:
320,100,119904,1,0,0:0:0:0:
356,112,119985,1,0,0:0:0:0:
392,128,120065,2,0,L|408:80,1,48
468,180,120225,2,0,L|452:228,1,48
424,200,120386,5,0,0:0:0:0:
388,184,120466,1,0,0:0:0:0:
348,180,120546,1,0,0:0:0:0:
312,192,120626,1,0,0:0:0:0:
292,224,120707,1,0,0:0:0:0:
260,244,120787,1,0,0:0:0:0:
220,244,120867,1,0,0:0:0:0:
184,228,120947,1,0,0:0:0:0:
160,200,121027,1,0,0:0:0:0:
156,160,121108,1,0,0:0:0:0:
168,124,121188,1,0,0:0:0:0:
196,100,121268,1,0,0:0:0:0:
236,96,121348,6,0,L|284:108,1,48
356,80,121509,2,0,L|377:124,1,48
440,164,121669,2,0,L|428:211,1,48
376,268,121830,2,0,L|387:315,1,48
296,244,121990,2,0,L|284:196,1,48
236,304,122150,2,0,L|247:351,1,48
212,336,122311,5,0,0:0:0:0:
176,332,122391,1,0,0:0:0:0:
140,316,122471,1,0,0:0:0:0:
120,284,122551,1,0,0:0:0:0:
120,244,122632,1,0,0:0:0:0:
136,208,122712,1,0,0:0:0:0:
168,184,122792,1,0,0:0:0:0:
208,180,122872,1,0,0:0:0:0:
244,168,122953,1,0,0:0:0:0:
268,140,123033,1,0,0:0:0:0:
280,104,123113,1,0,0:0:0:0:
272,68,123193,1,0,0:0:0:0:
248,36,123273,1,0,0:0:0:0:
212,24,123354,1,0,0:0:0:0:
172,28,123434,1,0,0:0:0:0:
140,52,123514,1,0,0:0:0:0:
128,88,123594,1,0,0:0:0:0:
132,128,123674,1,0,0:0:0:0:
160,156,123755,1,0,0:0:0:0:
196,168,123835,1,0,0:0:0:0:
232,164,123915,1,0,0:0:0:0:
268,172,123995,1,0,0:0:0:0:
304,188,124076,1,0,0:0:0:0:
328,220,124156,1,0,0:0:0:0:
336,256,124236,1,0,0:0:0:0:
332,296,124316,1,0,0:0:0:0:
316,332,124396,1,0,0:0:0:0:
284,352,124477,1,0,0:0:0:0:
244,356,124557,1,0,0:0:0:0:
208,348,124637,1,0,0:0:0:0:
176,328,124717,1,0,0:0:0:0:
160,292,124797,1,0,0:0:0:0:
