osu file format v14

[General]
AudioFilename: Yakumo ~ JOINT STRUGGLE.mp3
AudioLeadIn: 0
PreviewTime: 83728
Countdown: 1
SampleSet: Normal
StackLeniency: 0.7
Mode: 0
LetterboxInBreaks: 0
WidescreenStoryboard: 1

[Editor]
DistanceSpacing: 0.8
BeatDivisor: 4
GridSize: 32
TimelineZoom: 2.299998

[Metadata]
Title:Yakumo ~ JOINT STRUGGLE
TitleUnicode:Yakumo ~ JOINT STRUGGLE
Artist:Kucchy vs Akky
ArtistUnicode:Kucchy vs Akky
Creator:Raidexx
Version:Extra
Source:Otona no Raku ga Kichou
Tags:Touhou Demitoo
BeatmapID:825161
BeatmapSetID:371640

[Difficulty]
HPDrainRate:5
CircleSize:4
OverallDifficulty:8
ApproachRate:9
SliderMultiplier:1.4
SliderTickRate:1

[Events]
//Background and Video events
0,0,"joint struggle taiko bg.png",0,0
//Break Periods
//Storyboard Layer 0 (Background)
//Storyboard Layer 1 (Fail)
//Storyboard Layer 2 (Pass)
//Storyboard Layer 3 (Foreground)
//Storyboard Sound Samples

[TimingPoints]
306,320.855614973262,4,1,0,100,1,0
15386,-200,4,1,0,100,0,0
17150,-66.6666666666667,4,1,0,100,0,0
17471,-100,4,1,0,100,0,0
18273,-66.6666666666667,4,1,0,100,0,0
18434,-100,4,1,0,100,0,0
21963,-133.333333333333,4,1,0,100,0,0
24691,-66.6666666666667,4,1,0,100,0,0
26455,-100,4,1,0,100,0,0
61910,-100,4,1,0,100,0,0
83728,-100,4,1,0,100,0,1
99129,-100,4,1,0,100,0,0
103621,-200,4,1,0,100,0,0
103942,-133.333333333333,4,1,0,100,0,0
104263,-66.6666666666667,4,1,0,100,0,0
104584,-100,4,1,0,100,0,1

[Colours]
Combo1 : 197,227,72
Combo2 : 84,95,203
Combo3 : 247,62,110
Combo4 : 253,249,202

[HitObjects]
109,88,306,5,0,0:0:0:0:
302,174,626,1,0,0:0:0:0:
147,213,947,1,0,0:0:0:0:
250,313,1268,1,0,0:0:0:0:
407,189,1589,5,0,0:0:0:0:
415,164,1669,1,0,0:0:0:0:
424,140,1749,1,0,0:0:0:0:
320,256,1910,1,0,0:0:0:0:
424,137,2070,1,0,0:0:0:0:
340,63,2231,5,0,0:0:0:0:
321,40,2311,1,0,0:0:0:0:
168,83,2471,1,0,0:0:0:0:
172,116,2552,1,0,0:0:0:0:
91,280,2712,1,0,0:0:0:0:
328,302,2872,5,0,0:0:0:0:
310,271,2952,1,0,0:0:0:0:
292,241,3032,1,0,0:0:0:0:
267,101,3193,1,0,0:0:0:0:
144,268,3354,1,0,0:0:0:0:
104,88,3514,5,0,0:0:0:0:
141,94,3594,1,0,0:0:0:0:
172,69,3674,1,0,0:0:0:0:
209,81,3754,1,0,0:0:0:0:
241,61,3834,1,0,0:0:0:0:
363,40,3995,5,0,0:0:0:0:
425,290,4156,1,0,0:0:0:0:
336,290,4316,1,0,0:0:0:0:
254,134,4477,1,0,0:0:0:0:
254,134,4637,1,0,0:0:0:0:
355,60,4797,5,0,0:0:0:0:
397,89,4877,1,0,0:0:0:0:
416,137,4957,1,0,0:0:0:0:
414,189,5037,1,0,0:0:0:0:
386,233,5117,1,0,0:0:0:0:
337,248,5198,1,0,0:0:0:0:
285,255,5278,1,0,0:0:0:0:
237,275,5358,1,0,0:0:0:0:
198,311,5438,1,0,0:0:0:0:
82,311,5600,5,0,0:0:0:0:
82,311,5760,1,0,0:0:0:0:
167,194,5920,1,0,0:0:0:0:
167,194,6241,5,0,0:0:0:0:
57,79,6402,1,0,0:0:0:0:
159,96,6562,1,0,0:0:0:0:
159,96,6883,5,0,0:0:0:0:
60,217,7043,1,0,0:0:0:0:
167,194,7204,1,0,0:0:0:0:
282,60,7525,5,0,0:0:0:0:
282,60,7685,1,0,0:0:0:0:
352,194,7846,1,0,0:0:0:0:
420,126,8166,5,0,0:0:0:0:
271,148,8327,1,0,0:0:0:0:
379,277,8487,1,0,0:0:0:0:
223,258,8808,5,0,0:0:0:0:
223,258,8969,1,0,0:0:0:0:
86,160,9129,1,0,0:0:0:0:
195,161,9289,5,0,0:0:0:0:
274,160,9450,1,0,0:0:0:0:
329,75,9610,1,0,0:0:0:0:
376,218,9771,1,0,0:0:0:0:
311,302,9931,5,0,0:0:0:0:
289,274,10011,1,0,0:0:0:0:
267,247,10091,1,0,0:0:0:0:
189,309,10252,1,0,0:0:0:0:
411,308,10412,1,0,0:0:0:0:
439,188,10573,6,0,L|361:153,1,70
236,137,10894,1,0,0:0:0:0:
334,37,11054,1,0,0:0:0:0:
354,238,11375,5,0,0:0:0:0:
354,238,11535,1,0,0:0:0:0:
181,196,11696,1,0,0:0:0:0:
86,135,12017,6,0,L|165:72,1,70
248,35,12338,1,0,0:0:0:0:
248,35,12658,5,0,0:0:0:0:
359,191,12819,1,0,0:0:0:0:
270,281,12979,1,0,0:0:0:0:
146,281,13300,5,0,0:0:0:0:
146,281,13461,1,0,0:0:0:0:
223,166,13621,1,0,0:0:0:0:
136,99,13942,6,0,P|109:128|103:165,1,70
243,271,14263,1,0,0:0:0:0:
327,324,14423,2,0,P|371:343|402:341,1,70
459,220,14744,1,0,0:0:0:0:
403,101,14904,1,0,0:0:0:0:
319,153,15065,5,0,0:0:0:0:
295,127,15145,1,0,0:0:0:0:
271,101,15225,1,0,0:0:0:0:
248,75,15305,1,0,0:0:0:0:
227,52,15386,2,0,L|212:46,5,11.6666666666667
201,41,15707,5,0,0:0:0:0:
183,38,15787,1,0,0:0:0:0:
165,39,15867,1,0,0:0:0:0:
149,43,15947,1,0,0:0:0:0:
132,49,16027,1,0,0:0:0:0:
117,59,16108,1,0,0:0:0:0:
104,69,16188,5,0,0:0:0:0:
92,83,16268,1,0,0:0:0:0:
83,97,16348,1,0,0:0:0:0:
74,115,16428,1,0,0:0:0:0:
63,159,16508,1,0,0:0:0:0:
79,201,16588,5,0,0:0:0:0:
113,234,16668,1,0,0:0:0:0:
155,252,16748,1,0,0:0:0:0:
201,259,16829,1,0,0:0:0:0:
247,267,16909,1,0,0:0:0:0:
287,289,16989,1,0,0:0:0:0:
449,323,17150,6,0,P|466:297|475:258,1,52.5000020027161
465,241,17311,5,0,0:0:0:0:
443,212,17391,1,0,0:0:0:0:
435,178,17471,1,0,0:0:0:0:
430,144,17551,1,0,0:0:0:0:
416,112,17631,5,0,0:0:0:0:
390,89,17712,1,0,0:0:0:0:
358,78,17792,1,0,0:0:0:0:
323,73,17872,1,0,0:0:0:0:
288,72,17952,5,0,0:0:0:0:
253,68,18032,1,0,0:0:0:0:
219,60,18113,1,0,0:0:0:0:
187,47,18193,1,0,0:0:0:0:
152,36,18273,6,0,P|117:36|91:45,1,52.5000020027161
84,52,18434,1,0,0:0:0:0:
72,64,18514,1,0,0:0:0:0:
63,78,18594,1,0,0:0:0:0:
55,93,18674,5,0,0:0:0:0:
50,108,18754,1,0,0:0:0:0:
44,125,18835,1,0,0:0:0:0:
36,160,18915,1,0,0:0:0:0:
32,194,18995,5,0,0:0:0:0:
41,227,19075,1,0,0:0:0:0:
59,257,19155,1,0,0:0:0:0:
82,283,19235,1,0,0:0:0:0:
110,304,19316,5,0,0:0:0:0:
143,319,19396,1,0,0:0:0:0:
176,324,19476,1,0,0:0:0:0:
212,323,19556,1,0,0:0:0:0:
277,201,19717,6,0,L|295:163,1,35
395,182,19958,2,0,L|413:144,1,35
431,46,20199,1,0,0:0:0:0:
384,36,20279,1,0,0:0:0:0:
336,43,20359,1,0,0:0:0:0:
218,116,20519,5,0,0:0:0:0:
218,116,20680,1,0,0:0:0:0:
302,149,20840,1,0,0:0:0:0:
317,160,20920,1,0,0:0:0:0:
332,172,21000,1,0,0:0:0:0:
347,184,21080,1,0,0:0:0:0:
362,196,21160,5,0,0:0:0:0:
377,209,21241,1,0,0:0:0:0:
392,221,21321,1,0,0:0:0:0:
407,233,21401,1,0,0:0:0:0:
430,257,21482,5,0,0:0:0:0:
434,290,21562,1,0,0:0:0:0:
413,317,21642,1,0,0:0:0:0:
382,333,21722,1,0,0:0:0:0:
348,341,21803,5,0,0:0:0:0:
314,345,21883,1,0,0:0:0:0:
291,344,21963,2,0,L|258:338,1,26.2500010013581
245,332,22124,5,0,0:0:0:0:
226,326,22204,1,0,0:0:0:0:
208,319,22284,1,0,0:0:0:0:
190,312,22364,1,0,0:0:0:0:
173,303,22444,5,0,0:0:0:0:
157,293,22525,1,0,0:0:0:0:
142,281,22605,1,0,0:0:0:0:
129,267,22685,1,0,0:0:0:0:
120,242,22765,5,0,0:0:0:0:
132,210,22845,1,0,0:0:0:0:
164,198,22925,1,0,0:0:0:0:
199,193,23005,1,0,0:0:0:0:
232,183,23085,5,0,0:0:0:0:
254,157,23166,1,0,0:0:0:0:
262,130,23247,2,0,L|264:96,1,26.2500010013581
271,77,23407,5,0,0:0:0:0:
298,55,23487,1,0,0:0:0:0:
332,49,23567,1,0,0:0:0:0:
366,56,23647,1,0,0:0:0:0:
397,72,23727,5,0,0:0:0:0:
423,96,23808,1,0,0:0:0:0:
441,126,23888,1,0,0:0:0:0:
450,159,23968,1,0,0:0:0:0:
447,194,24048,5,0,0:0:0:0:
433,226,24128,1,0,0:0:0:0:
412,254,24209,1,0,0:0:0:0:
386,277,24289,1,0,0:0:0:0:
355,294,24369,5,0,0:0:0:0:
322,305,24449,1,0,0:0:0:0:
288,311,24529,1,0,0:0:0:0:
253,310,24610,1,0,0:0:0:0:
222,299,24691,6,0,B|160:294|208:195|289:175|309:96|292:26|198:7|103:48|72:79|222:221|157:363|74:328|93:382|-13:366|11:302|29:180|59:109|85:40|94:23|146:43,1,840.000032043458
355,70,26134,1,0,0:0:0:0:
418,267,26295,1,0,0:0:0:0:
302,224,26455,1,0,0:0:0:0:
279,250,26535,1,0,0:0:0:0:
256,277,26615,1,0,0:0:0:0:
178,201,26776,5,0,0:0:0:0:
62,136,26937,1,0,0:0:0:0:
55,240,27097,1,0,0:0:0:0:
191,89,27257,1,0,0:0:0:0:
278,150,27418,5,0,0:0:0:0:
359,108,27578,1,0,0:0:0:0:
375,77,27658,1,0,0:0:0:0:
392,46,27738,1,0,0:0:0:0:
233,45,27899,1,0,0:0:0:0:
197,119,28220,5,0,0:0:0:0:
180,150,28300,1,0,0:0:0:0:
164,181,28380,1,0,0:0:0:0:
212,331,28541,1,0,0:0:0:0:
86,238,28701,1,0,0:0:0:0:
212,331,28862,5,0,0:0:0:0:
320,224,29022,1,0,0:0:0:0:
448,192,29183,1,0,0:0:0:0:
432,159,29263,1,0,0:0:0:0:
417,128,29343,1,0,0:0:0:0:
224,64,29664,1,0,0:0:0:0:
64,128,29985,5,0,0:0:0:0:
192,256,30145,1,0,0:0:0:0:
192,160,30305,1,0,0:0:0:0:
64,256,30466,1,0,0:0:0:0:
88,280,30546,1,0,0:0:0:0:
256,320,30707,5,0,0:0:0:0:
280,295,30787,1,0,0:0:0:0:
384,192,30947,1,0,0:0:0:0:
448,64,31108,1,0,0:0:0:0:
286,38,31268,2,0,P|231:44|203:64,1,70
147,103,31589,5,0,0:0:0:0:
120,125,31669,1,0,0:0:0:0:
103,155,31749,1,0,0:0:0:0:
201,283,31910,1,0,0:0:0:0:
219,51,32070,1,0,0:0:0:0:
327,233,32231,5,0,0:0:0:0:
358,216,32311,1,0,0:0:0:0:
383,191,32391,1,0,0:0:0:0:
361,40,32551,1,0,0:0:0:0:
258,160,32712,1,0,0:0:0:0:
87,94,32872,1,0,0:0:0:0:
186,246,33033,5,0,0:0:0:0:
195,65,33193,1,0,0:0:0:0:
82,206,33354,1,0,0:0:0:0:
258,160,33514,1,0,0:0:0:0:
377,287,33674,5,0,0:0:0:0:
377,287,33755,1,0,0:0:0:0:
377,287,33835,1,0,0:0:0:0:
444,109,33995,1,0,0:0:0:0:
336,145,34156,1,0,0:0:0:0:
185,283,34316,6,0,P|165:278|142:254,1,35
78,187,34477,2,0,P|64:172|57:139,1,35
110,39,34637,1,0,0:0:0:0:
237,89,34797,1,0,0:0:0:0:
256,192,34958,12,0,35920,0:0:0:0:
137,264,36241,5,0,0:0:0:0:
71,74,36402,1,0,0:0:0:0:
192,121,36562,1,0,0:0:0:0:
350,73,36723,2,0,L|381:36,2,35
407,258,37043,5,0,0:0:0:0:
458,164,37204,1,0,0:0:0:0:
174,206,37364,1,0,0:0:0:0:
257,313,37525,1,0,0:0:0:0:
281,80,37685,5,0,0:0:0:0:
150,44,37846,1,0,0:0:0:0:
122,65,37926,1,0,0:0:0:0:
95,87,38006,1,0,0:0:0:0:
45,258,38166,1,0,0:0:0:0:
363,198,38487,5,0,0:0:0:0:
363,198,38568,1,0,0:0:0:0:
363,198,38648,1,0,0:0:0:0:
224,320,38808,1,0,0:0:0:0:
384,320,38969,1,0,0:0:0:0:
190,195,39129,5,0,0:0:0:0:
348,67,39289,1,0,0:0:0:0:
363,198,39450,2,0,L|307:172,1,35
157,52,39610,1,0,0:0:0:0:
58,284,39931,1,0,0:0:0:0:
371,334,40252,5,0,0:0:0:0:
321,123,40412,1,0,0:0:0:0:
425,236,40573,1,0,0:0:0:0:
232,230,40733,1,0,0:0:0:0:
202,212,40813,1,0,0:0:0:0:
84,107,40974,5,0,0:0:0:0:
113,88,41054,1,0,0:0:0:0:
272,40,41215,1,0,0:0:0:0:
107,305,41375,1,0,0:0:0:0:
282,324,41535,2,0,P|332:316|363:300,1,70
423,208,41856,5,0,0:0:0:0:
442,178,41936,1,0,0:0:0:0:
453,145,42016,1,0,0:0:0:0:
215,108,42177,1,0,0:0:0:0:
384,37,42338,1,0,0:0:0:0:
220,106,42498,6,0,L|180:79,2,35
316,344,42819,1,0,0:0:0:0:
434,194,42979,1,0,0:0:0:0:
178,229,43140,1,0,0:0:0:0:
78,79,43300,5,0,0:0:0:0:
293,94,43461,1,0,0:0:0:0:
178,229,43621,1,0,0:0:0:0:
434,194,43781,1,0,0:0:0:0:
316,342,43942,5,0,0:0:0:0:
289,318,44022,1,0,0:0:0:0:
263,295,44102,1,0,0:0:0:0:
57,171,44263,1,0,0:0:0:0:
217,97,44423,1,0,0:0:0:0:
402,61,44584,5,0,0:0:0:0:
433,115,44664,1,0,0:0:0:0:
421,181,44744,1,0,0:0:0:0:
385,235,44824,1,0,0:0:0:0:
360,296,44904,1,0,0:0:0:0:
120,240,45065,1,0,0:0:0:0:
256,192,45225,12,0,46509,0:0:0:0:
