osu file format v14

[General]
AudioFilename: Yakumo ~ JOINT STRUGGLE.mp3
AudioLeadIn: 0
PreviewTime: 83728
Countdown: 1
SampleSet: Normal
StackLeniency: 0.7
Mode: 1
LetterboxInBreaks: 0
WidescreenStoryboard: 0

[Editor]
DistanceSpacing: 0.8
BeatDivisor: 6
GridSize: 32
TimelineZoom: 3.199997

[Metadata]
Title:Yakumo ~ JOINT STRUGGLE
TitleUnicode:Yakumo ~ JOINT STRUGGLE
Artist:Kucchy vs Akky
ArtistUnicode:Kucchy vs Akky
Creator:Raidexx
Version:Inner Oni
Source:Otona no Raku ga Kichou
Tags:Touhou Demitoo
BeatmapID:814153
BeatmapSetID:371640

[Difficulty]
HPDrainRate:5
CircleSize:5
OverallDifficulty:5
ApproachRate:5
SliderMultiplier:1.4
SliderTickRate:1

[Events]
//Background and Video events
0,0,"joint struggle taiko bg.png",0,0
//Break Periods
//Storyboard Layer 0 (Background)
//Storyboard Layer 1 (Fail)
//Storyboard Layer 2 (Pass)
//Storyboard Layer 3 (Foreground)
//Storyboard Sound Samples

[TimingPoints]
306,320.855614973262,4,1,0,100,1,0
61910,-100,4,1,0,100,0,0
83728,-100,4,1,0,100,0,1
99129,-100,4,1,0,100,0,0
103621,-200,4,1,0,100,0,0
103942,-133.333333333333,4,1,0,100,0,0
104263,-66.6666666666667,4,1,0,100,0,0
104584,-100,4,1,0,100,0,1

[HitObjects]
256,192,305,5,4,0:0:0:0:
256,192,466,1,8,0:0:0:0:
256,192,626,1,0,0:0:0:0:
256,192,787,1,8,0:0:0:0:
256,192,947,1,0,0:0:0:0:
256,192,1027,1,8,0:0:0:0:
256,192,1188,1,0,0:0:0:0:
256,192,1268,1,8,0:0:0:0:
256,192,1428,1,0,0:0:0:0:
256,192,1589,1,8,0:0:0:0:
256,192,1669,1,8,0:0:0:0:
256,192,1749,1,8,0:0:0:0:
256,192,1910,1,0,0:0:0:0:
256,192,2070,1,8,0:0:0:0:
256,192,2231,1,0,0:0:0:0:
256,192,2311,1,8,0:0:0:0:
256,192,2471,1,0,0:0:0:0:
256,192,2551,1,8,0:0:0:0:
256,192,2712,1,0,0:0:0:0:
256,192,2872,1,0,0:0:0:0:
256,192,2953,1,0,0:0:0:0:
256,192,3033,1,0,0:0:0:0:
256,192,3193,1,0,0:0:0:0:
256,192,3273,1,8,0:0:0:0:
256,192,3354,1,0,0:0:0:0:
256,192,3514,1,0,0:0:0:0:
256,192,3594,1,8,0:0:0:0:
256,192,3755,1,0,0:0:0:0:
256,192,3835,1,8,0:0:0:0:
256,192,3995,1,0,0:0:0:0:
256,192,4156,1,6,0:0:0:0:
256,192,4316,1,6,0:0:0:0:
256,192,4477,1,0,0:0:0:0:
256,192,4637,1,0,0:0:0:0:
256,192,4797,1,0,0:0:0:0:
256,192,4878,1,8,0:0:0:0:
256,192,4958,1,0,0:0:0:0:
256,192,5038,5,0,0:0:0:0:
256,192,5118,1,8,0:0:0:0:
256,192,5199,1,8,0:0:0:0:
256,192,5279,1,0,0:0:0:0:
256,192,5359,1,8,0:0:0:0:
256,192,5439,1,0,0:0:0:0:
256,192,5600,1,0,0:0:0:0:
256,192,5760,1,0,0:0:0:0:
256,192,5920,1,8,0:0:0:0:
256,192,6241,1,0,0:0:0:0:
256,192,6402,1,8,0:0:0:0:
256,192,6562,1,0,0:0:0:0:
256,192,6883,1,8,0:0:0:0:
256,192,7043,1,8,0:0:0:0:
256,192,7204,1,0,0:0:0:0:
256,192,7525,1,8,0:0:0:0:
256,192,7685,1,8,0:0:0:0:
256,192,7846,1,0,0:0:0:0:
256,192,8166,1,8,0:0:0:0:
256,192,8327,1,0,0:0:0:0:
256,192,8487,1,8,0:0:0:0:
256,192,8808,1,0,0:0:0:0:
256,192,8969,1,8,0:0:0:0:
256,192,9129,1,0,0:0:0:0:
256,192,9289,1,8,0:0:0:0:
256,192,9450,1,8,0:0:0:0:
256,192,9610,1,0,0:0:0:0:
256,192,9771,1,0,0:0:0:0:
256,192,9931,1,8,0:0:0:0:
256,192,10011,1,8,0:0:0:0:
256,192,10092,1,0,0:0:0:0:
256,192,10252,1,8,0:0:0:0:
256,192,10412,1,8,0:0:0:0:
256,192,10573,1,0,0:0:0:0:
256,192,10733,1,0,0:0:0:0:
256,192,10894,1,0,0:0:0:0:
256,192,11054,1,8,0:0:0:0:
256,192,11375,1,8,0:0:0:0:
256,192,11535,1,0,0:0:0:0:
256,192,11696,1,8,0:0:0:0:
256,192,12017,1,8,0:0:0:0:
256,192,12177,1,8,0:0:0:0:
256,192,12338,1,0,0:0:0:0:
256,192,12658,1,8,0:0:0:0:
256,192,12819,1,8,0:0:0:0:
256,192,12979,1,0,0:0:0:0:
256,192,13300,1,0,0:0:0:0:
256,192,13461,1,0,0:0:0:0:
256,192,13621,1,8,0:0:0:0:
256,192,13942,1,8,0:0:0:0:
256,192,14102,1,0,0:0:0:0:
256,192,14263,1,8,0:0:0:0:
256,192,14423,1,0,0:0:0:0:
256,192,14584,1,0,0:0:0:0:
256,192,14744,1,8,0:0:0:0:
256,192,14904,1,0,0:0:0:0:
256,192,15065,1,0,0:0:0:0:
256,192,15225,1,0,0:0:0:0:
256,192,15279,1,0,0:0:0:0:
256,192,15332,1,0,0:0:0:0:
256,192,15386,1,8,0:0:0:0:
256,192,15546,1,8,0:0:0:0:
256,192,15707,1,0,0:0:0:0:
256,192,15787,1,0,0:0:0:0:
256,192,15867,1,8,0:0:0:0:
256,192,15947,1,0,0:0:0:0:
256,192,16027,1,8,0:0:0:0:
256,192,16108,1,8,0:0:0:0:
256,192,16188,1,0,0:0:0:0:
256,192,16268,1,8,0:0:0:0:
256,192,16348,1,0,0:0:0:0:
256,192,16428,1,0,0:0:0:0:
256,192,16509,1,0,0:0:0:0:
256,192,16589,1,0,0:0:0:0:
256,192,16669,1,8,0:0:0:0:
256,192,16749,1,0,0:0:0:0:
256,192,16830,1,0,0:0:0:0:
256,192,16910,1,0,0:0:0:0:
256,192,16990,1,8,0:0:0:0:
256,192,17070,1,8,0:0:0:0:
256,192,17150,1,0,0:0:0:0:
256,192,17231,1,8,0:0:0:0:
256,192,17311,1,0,0:0:0:0:
256,192,17391,1,0,0:0:0:0:
256,192,17471,1,8,0:0:0:0:
256,192,17551,1,0,0:0:0:0:
256,192,17632,1,8,0:0:0:0:
256,192,17712,1,8,0:0:0:0:
256,192,17792,1,8,0:0:0:0:
256,192,17872,1,0,0:0:0:0:
256,192,17953,1,8,0:0:0:0:
256,192,18033,1,8,0:0:0:0:
256,192,18113,1,0,0:0:0:0:
256,192,18193,1,8,0:0:0:0:
256,192,18273,1,0,0:0:0:0:
256,192,18434,1,0,0:0:0:0:
256,192,18594,1,0,0:0:0:0:
256,192,18755,1,0,0:0:0:0:
256,192,18915,1,0,0:0:0:0:
256,192,18995,1,0,0:0:0:0:
256,192,19076,1,0,0:0:0:0:
256,192,19236,1,8,0:0:0:0:
256,192,19396,1,0,0:0:0:0:
256,192,19557,1,8,0:0:0:0:
256,192,19717,1,8,0:0:0:0:
256,192,19797,1,0,0:0:0:0:
256,192,19958,1,8,0:0:0:0:
256,192,20038,1,0,0:0:0:0:
256,192,20199,1,8,0:0:0:0:
256,192,20279,1,8,0:0:0:0:
256,192,20359,1,0,0:0:0:0:
256,192,20519,1,0,0:0:0:0:
256,192,20680,1,8,0:0:0:0:
256,192,20840,1,0,0:0:0:0:
256,192,20920,1,0,0:0:0:0:
256,192,21001,1,0,0:0:0:0:
256,192,21081,1,0,0:0:0:0:
256,192,21161,1,8,0:0:0:0:
256,192,21241,1,0,0:0:0:0:
256,192,21322,1,0,0:0:0:0:
256,192,21402,1,0,0:0:0:0:
256,192,21482,1,8,0:0:0:0:
256,192,21562,1,0,0:0:0:0:
256,192,21642,1,0,0:0:0:0:
256,192,21723,1,0,0:0:0:0:
256,192,21803,1,8,0:0:0:0:
256,192,21883,1,0,0:0:0:0:
256,192,21963,1,8,0:0:0:0:
256,192,22043,1,8,0:0:0:0:
256,192,22124,1,0,0:0:0:0:
256,192,22204,1,0,0:0:0:0:
256,192,22284,1,0,0:0:0:0:
256,192,22364,1,0,0:0:0:0:
256,192,22445,1,8,0:0:0:0:
256,192,22525,1,0,0:0:0:0:
256,192,22605,1,0,0:0:0:0:
256,192,22685,1,0,0:0:0:0:
256,192,22765,1,8,0:0:0:0:
256,192,22846,1,0,0:0:0:0:
256,192,22926,1,8,0:0:0:0:
256,192,23006,1,0,0:0:0:0:
256,192,23086,1,8,0:0:0:0:
256,192,23166,1,8,0:0:0:0:
256,192,23247,1,0,0:0:0:0:
256,192,23327,1,8,0:0:0:0:
256,192,23407,1,0,0:0:0:0:
256,192,23568,1,0,0:0:0:0:
256,192,23728,1,8,0:0:0:0:
256,192,23888,1,0,0:0:0:0:
256,192,24049,1,0,0:0:0:0:
256,192,24129,1,0,0:0:0:0:
256,192,24209,1,8,0:0:0:0:
256,192,24289,1,0,0:0:0:0:
256,192,24370,1,8,0:0:0:0:
256,192,24450,1,8,0:0:0:0:
256,192,24530,1,0,0:0:0:0:
256,192,24610,1,8,0:0:0:0:
256,192,24691,1,0,0:0:0:0:
256,192,24851,1,0,0:0:0:0:
256,192,25011,1,8,0:0:0:0:
256,192,25172,1,0,0:0:0:0:
256,192,25332,1,0,0:0:0:0:
256,192,25412,1,0,0:0:0:0:
256,192,25493,1,0,0:0:0:0:
256,192,25573,1,0,0:0:0:0:
256,192,25653,1,8,0:0:0:0:
256,192,25733,1,8,0:0:0:0:
256,192,25814,1,8,0:0:0:0:
256,192,25894,1,8,0:0:0:0:
256,192,25974,1,0,0:0:0:0:
256,192,26134,1,0,0:0:0:0:
256,192,26295,1,8,0:0:0:0:
256,192,26455,1,8,0:0:0:0:
256,192,26535,1,8,0:0:0:0:
256,192,26616,1,0,0:0:0:0:
256,192,26776,1,0,0:0:0:0:
256,192,26937,1,8,0:0:0:0:
256,192,27097,1,0,0:0:0:0:
256,192,27257,1,0,0:0:0:0:
256,192,27418,1,8,0:0:0:0:
256,192,27578,1,0,0:0:0:0:
256,192,27658,1,0,0:0:0:0:
256,192,27739,1,8,0:0:0:0:
256,192,27899,1,0,0:0:0:0:
256,192,28220,1,8,0:0:0:0:
256,192,28300,1,8,0:0:0:0:
256,192,28380,1,0,0:0:0:0:
256,192,28541,1,0,0:0:0:0:
256,192,28701,1,0,0:0:0:0:
256,192,28862,1,8,0:0:0:0:
256,192,29022,1,0,0:0:0:0:
256,192,29183,1,0,0:0:0:0:
256,192,29263,1,0,0:0:0:0:
256,192,29343,1,8,0:0:0:0:
256,192,29664,1,6,0:0:0:0:
256,192,29985,1,8,0:0:0:0:
256,192,30145,1,0,0:0:0:0:
256,192,30305,1,8,0:0:0:0:
256,192,30466,1,0,0:0:0:0:
256,192,30546,1,0,0:0:0:0:
256,192,30626,1,8,0:0:0:0:
256,192,30707,1,8,0:0:0:0:
256,192,30787,1,0,0:0:0:0:
256,192,30867,1,0,0:0:0:0:
256,192,30947,1,8,0:0:0:0:
256,192,31027,1,8,0:0:0:0:
256,192,31108,1,0,0:0:0:0:
256,192,31268,1,0,0:0:0:0:
256,192,31428,1,8,0:0:0:0:
256,192,31589,1,0,0:0:0:0:
256,192,31669,1,0,0:0:0:0:
256,192,31749,1,8,0:0:0:0:
256,192,31910,1,8,0:0:0:0:
256,192,32070,1,8,0:0:0:0:
256,192,32231,1,0,0:0:0:0:
256,192,32311,1,8,0:0:0:0:
256,192,32391,1,0,0:0:0:0:
256,192,32551,1,8,0:0:0:0:
256,192,32712,1,0,0:0:0:0:
256,192,32872,1,8,0:0:0:0:
256,192,33033,1,0,0:0:0:0:
256,192,33193,1,0,0:0:0:0:
256,192,33354,1,8,0:0:0:0:
256,192,33514,1,0,0:0:0:0:
256,192,33674,1,0,0:0:0:0:
256,192,33755,1,0,0:0:0:0:
256,192,33835,1,8,0:0:0:0:
256,192,33995,1,8,0:0:0:0:
256,192,34156,1,0,0:0:0:0:
256,192,34316,1,0,0:0:0:0:
256,192,34396,1,0,0:0:0:0:
256,192,34477,1,8,0:0:0:0:
256,192,34557,1,0,0:0:0:0:
256,192,34637,1,8,0:0:0:0:
256,192,34797,1,0,0:0:0:0:
256,192,35118,1,0,0:0:0:0:
256,192,35279,1,0,0:0:0:0:
256,192,35600,1,0,0:0:0:0:
256,192,35681,1,8,0:0:0:0:
256,192,35840,1,8,0:0:0:0:
256,192,35920,1,0,0:0:0:0:
256,192,36081,1,0,0:0:0:0:
256,192,36241,1,12,0:0:0:0:
256,192,36402,1,0,0:0:0:0:
256,192,36562,1,8,0:0:0:0:
256,192,36642,1,8,0:0:0:0:
256,192,36723,1,0,0:0:0:0:
256,192,36803,1,8,0:0:0:0:
256,192,36883,1,0,0:0:0:0:
256,192,37043,1,0,0:0:0:0:
256,192,37204,1,8,0:0:0:0:
256,192,37364,1,0,0:0:0:0:
256,192,37525,1,8,0:0:0:0:
256,192,37685,1,0,0:0:0:0:
256,192,37846,1,0,0:0:0:0:
256,192,37926,1,0,0:0:0:0:
256,192,38006,1,8,0:0:0:0:
256,192,38166,1,0,0:0:0:0:
256,192,38487,1,8,0:0:0:0:
256,192,38568,1,8,0:0:0:0:
256,192,38648,1,0,0:0:0:0:
256,192,38728,1,0,0:0:0:0:
256,192,38808,1,0,0:0:0:0:
256,192,38969,1,8,0:0:0:0:
256,192,39129,1,8,0:0:0:0:
256,192,39289,1,0,0:0:0:0:
256,192,39450,1,0,0:0:0:0:
256,192,39530,1,8,0:0:0:0:
256,192,39610,1,8,0:0:0:0:
256,192,39931,1,4,0:0:0:0:
256,192,40252,1,8,0:0:0:0:
256,192,40412,1,0,0:0:0:0:
256,192,40573,1,8,0:0:0:0:
256,192,40733,1,0,0:0:0:0:
256,192,40814,1,0,0:0:0:0:
256,192,40894,1,8,0:0:0:0:
256,192,40974,1,0,0:0:0:0:
256,192,41054,1,8,0:0:0:0:
256,192,41134,1,8,0:0:0:0:
256,192,41215,1,0,0:0:0:0:
256,192,41295,1,8,0:0:0:0:
256,192,41375,1,0,0:0:0:0:
256,192,41535,1,0,0:0:0:0:
256,192,41696,1,8,0:0:0:0:
256,192,41856,1,0,0:0:0:0:
256,192,41937,1,8,0:0:0:0:
256,192,42017,1,0,0:0:0:0:
256,192,42177,1,0,0:0:0:0:
256,192,42338,1,8,0:0:0:0:
256,192,42498,1,0,0:0:0:0:
256,192,42578,1,8,0:0:0:0:
256,192,42658,1,0,0:0:0:0:
256,192,42819,1,0,0:0:0:0:
256,192,42979,1,8,0:0:0:0:
256,192,43140,1,0,0:0:0:0:
256,192,43300,1,0,0:0:0:0:
256,192,43461,1,0,0:0:0:0:
256,192,43621,1,8,0:0:0:0:
256,192,43781,1,0,0:0:0:0:
256,192,43942,1,0,0:0:0:0:
256,192,44022,1,0,0:0:0:0:
256,192,44102,1,0,0:0:0:0:
256,192,44263,1,8,0:0:0:0:
256,192,44423,1,8,0:0:0:0:
256,192,44503,1,0,0:0:0:0:
256,192,44584,1,0,0:0:0:0:
256,192,44664,1,0,0:0:0:0:
256,192,44744,1,8,0:0:0:0:
256,192,44904,1,0,0:0:0:0:
256,192,45065,1,8,0:0:0:0:
256,192,45386,1,4,0:0:0:0:
256,192,45547,1,4,0:0:0:0:
256,192,45867,1,0,0:0:0:0:
256,192,45947,1,0,0:0:0:0:
256,192,46027,1,8,0:0:0:0:
256,192,46108,1,8,0:0:0:0:
256,192,46188,1,0,0:0:0:0:
256,192,46268,1,0,0:0:0:0:
256,192,46348,1,0,0:0:0:0:
256,192,46428,1,0,0:0:0:0:
256,192,46509,1,8,0:0:0:0:
256,192,46669,1,0,0:0:0:0:
256,192,46830,1,8,0:0:0:0:
256,192,46910,1,8,0:0:0:0:
256,192,46990,1,8,0:0:0:0:
256,192,47150,1,0,0:0:0:0:
256,192,47231,1,0,0:0:0:0:
256,192,47311,1,8,0:0:0:0:
256,192,47471,1,8,0:0:0:0:
256,192,47632,1,0,0:0:0:0:
256,192,47792,1,0,0:0:0:0:
256,192,47872,1,0,0:0:0:0:
256,192,47953,1,0,0:0:0:0:
256,192,48033,1,0,0:0:0:0:
256,192,48113,1,8,0:0:0:0:
256,192,48434,1,8,0:0:0:0:
256,192,48755,1,8,0:0:0:0:
256,192,49076,1,0,0:0:0:0:
256,192,49156,1,0,0:0:0:0:
256,192,49236,1,8,0:0:0:0:
256,192,49316,1,8,0:0:0:0:
256,192,49396,1,0,0:0:0:0:
256,192,49477,1,0,0:0:0:0:
256,192,49557,1,8,0:0:0:0:
256,192,49637,1,8,0:0:0:0:
256,192,49717,1,0,0:0:0:0:
256,192,49797,1,0,0:0:0:0:
256,192,49878,1,0,0:0:0:0:
256,192,49958,1,0,0:0:0:0:
256,192,50038,1,8,0:0:0:0:
256,192,50118,1,8,0:0:0:0:
256,192,50199,1,8,0:0:0:0:
256,192,50279,1,8,0:0:0:0:
256,192,50359,1,0,0:0:0:0:
256,192,50439,1,0,0:0:0:0:
256,192,50519,1,0,0:0:0:0:
256,192,50600,1,0,0:0:0:0:
256,192,50680,1,8,0:0:0:0:
256,192,50760,1,8,0:0:0:0:
256,192,50840,1,8,0:0:0:0:
256,192,50920,1,8,0:0:0:0:
256,192,51001,1,0,0:0:0:0:
256,192,51322,1,0,0:0:0:0:
256,192,51642,1,0,0:0:0:0:
256,192,51723,1,0,0:0:0:0:
256,192,51803,1,8,0:0:0:0:
256,192,51883,1,8,0:0:0:0:
256,192,51963,1,0,0:0:0:0:
256,192,52043,1,0,0:0:0:0:
256,192,52124,1,8,0:0:0:0:
256,192,52204,1,8,0:0:0:0:
256,192,52284,1,0,0:0:0:0:
256,192,52364,1,0,0:0:0:0:
256,192,52445,1,0,0:0:0:0:
256,192,52525,1,0,0:0:0:0:
256,192,52605,1,8,0:0:0:0:
256,192,52765,1,8,0:0:0:0:
256,192,52926,1,8,0:0:0:0:
256,192,53086,1,8,0:0:0:0:
256,192,53166,1,8,0:0:0:0:
256,192,53247,1,0,0:0:0:0:
256,192,53327,1,0,0:0:0:0:
256,192,53407,1,8,0:0:0:0:
256,192,53487,1,0,0:0:0:0:
256,192,53568,1,8,0:0:0:0:
256,192,53728,1,0,0:0:0:0:
256,192,53808,1,8,0:0:0:0:
256,192,53888,1,0,0:0:0:0:
256,192,53969,1,0,0:0:0:0:
256,192,54049,1,8,0:0:0:0:
256,192,54129,1,0,0:0:0:0:
256,192,54209,1,0,0:0:0:0:
256,192,54450,1,4,0:0:0:0:
256,192,54691,1,4,0:0:0:0:
256,192,54931,1,4,0:0:0:0:
256,192,55172,1,12,0:0:0:0:
256,192,55332,1,4,0:0:0:0:
256,192,55493,1,0,0:0:0:0:
256,192,55573,1,8,0:0:0:0:
256,192,55814,1,12,0:0:0:0:
256,192,56054,1,12,0:0:0:0:
256,192,56295,1,12,0:0:0:0:
256,192,56455,1,12,0:0:0:0:
256,192,56616,1,4,0:0:0:0:
256,192,56776,1,4,0:0:0:0:
256,192,56937,1,0,0:0:0:0:
256,192,57097,1,0,0:0:0:0:
256,192,57177,1,8,0:0:0:0:
256,192,57257,1,0,0:0:0:0:
256,192,57418,1,0,0:0:0:0:
256,192,57498,1,8,0:0:0:0:
256,192,57578,1,8,0:0:0:0:
256,192,57739,1,8,0:0:0:0:
256,192,57899,1,0,0:0:0:0:
256,192,58060,1,8,0:0:0:0:
256,192,58220,1,0,0:0:0:0:
256,192,58380,1,0,0:0:0:0:
256,192,58461,1,8,0:0:0:0:
256,192,58541,1,0,0:0:0:0:
256,192,58701,1,0,0:0:0:0:
256,192,58781,1,0,0:0:0:0:
256,192,58862,1,0,0:0:0:0:
256,192,58942,1,0,0:0:0:0:
256,192,59022,1,8,0:0:0:0:
256,192,59102,1,8,0:0:0:0:
256,192,59183,1,8,0:0:0:0:
256,192,59263,1,8,0:0:0:0:
256,192,59343,1,0,0:0:0:0:
256,192,59423,1,0,0:0:0:0:
256,192,59503,1,0,0:0:0:0:
256,192,59584,1,8,0:0:0:0:
256,192,59664,1,0,0:0:0:0:
256,192,59744,1,8,0:0:0:0:
256,192,59824,1,0,0:0:0:0:
256,192,59904,1,0,0:0:0:0:
256,192,59985,1,8,0:0:0:0:
256,192,60065,1,8,0:0:0:0:
256,192,60145,1,8,0:0:0:0:
256,192,60225,1,0,0:0:0:0:
256,192,60305,1,0,0:0:0:0:
256,192,60386,1,0,0:0:0:0:
256,192,60466,1,0,0:0:0:0:
256,192,60546,1,8,0:0:0:0:
256,192,60626,1,8,0:0:0:0:
256,192,60707,1,0,0:0:0:0:
256,192,60787,1,8,0:0:0:0:
256,192,60867,1,0,0:0:0:0:
256,192,60947,1,8,0:0:0:0:
256,192,61027,1,8,0:0:0:0:
256,192,61108,1,8,0:0:0:0:
256,192,61188,1,8,0:0:0:0:
256,192,61268,1,8,0:0:0:0:
256,192,61428,1,0,0:0:0:0:
256,192,61589,1,8,0:0:0:0:
256,192,61642,1,8,0:0:0:0:
256,192,61696,1,8,0:0:0:0:
256,192,61749,1,8,0:0:0:0:
256,192,61803,1,8,0:0:0:0:
256,192,61856,1,8,0:0:0:0:
256,192,61910,1,0,0:0:0:0:
256,192,61990,1,0,0:0:0:0:
256,192,62070,1,0,0:0:0:0:
256,192,62150,1,8,0:0:0:0:
256,192,62231,1,8,0:0:0:0:
256,192,62311,1,0,0:0:0:0:
256,192,62391,1,0,0:0:0:0:
256,192,62471,1,8,0:0:0:0:
256,192,62551,1,8,0:0:0:0:
256,192,62632,1,0,0:0:0:0:
256,192,62712,1,0,0:0:0:0:
256,192,62792,1,0,0:0:0:0:
256,192,62872,1,8,0:0:0:0:
256,192,63033,1,8,0:0:0:0:
256,192,63193,1,8,0:0:0:0:
256,192,63354,1,8,0:0:0:0:
256,192,63434,1,8,0:0:0:0:
256,192,63514,1,0,0:0:0:0:
256,192,63594,1,8,0:0:0:0:
256,192,63674,1,0,0:0:0:0:
256,192,63755,1,0,0:0:0:0:
256,192,63835,1,8,0:0:0:0:
256,192,63995,5,0,0:0:0:0:
256,192,64076,1,8,0:0:0:0:
256,192,64156,1,0,0:0:0:0:
256,192,64236,1,8,0:0:0:0:
256,192,64316,1,0,0:0:0:0:
256,192,64396,1,0,0:0:0:0:
256,192,64477,1,0,0:0:0:0:
256,192,64717,1,0,0:0:0:0:
256,192,64958,1,0,0:0:0:0:
256,192,65199,1,0,0:0:0:0:
256,192,65439,1,8,0:0:0:0:
256,192,65600,1,0,0:0:0:0:
256,192,65760,1,0,0:0:0:0:
256,192,65840,1,8,0:0:0:0:
256,192,66081,1,8,0:0:0:0:
256,192,66322,1,8,0:0:0:0:
256,192,66562,1,8,0:0:0:0:
256,192,66723,1,8,0:0:0:0:
256,192,66883,1,0,0:0:0:0:
256,192,67043,1,8,0:0:0:0:
256,192,67284,1,0,0:0:0:0:
256,192,67364,1,0,0:0:0:0:
256,192,67525,1,0,0:0:0:0:
256,192,67605,1,0,0:0:0:0:
256,192,67685,1,8,0:0:0:0:
256,192,67846,1,0,0:0:0:0:
256,192,67926,1,8,0:0:0:0:
256,192,68006,1,0,0:0:0:0:
256,192,68086,1,0,0:0:0:0:
256,192,68166,1,8,0:0:0:0:
256,192,68327,1,8,0:0:0:0:
256,192,68407,1,8,0:0:0:0:
256,192,68487,1,8,0:0:0:0:
256,192,68648,1,0,0:0:0:0:
256,192,68808,1,8,0:0:0:0:
256,192,68969,1,0,0:0:0:0:
256,192,69209,1,8,0:0:0:0:
256,192,69289,1,0,0:0:0:0:
256,192,69450,1,8,0:0:0:0:
256,192,69610,1,0,0:0:0:0:
256,192,69771,1,8,0:0:0:0:
256,192,69851,1,8,0:0:0:0:
256,192,69931,1,8,0:0:0:0:
256,192,70092,1,0,0:0:0:0:
256,192,70252,1,8,0:0:0:0:
256,192,70493,1,0,0:0:0:0:
256,192,70733,1,8,0:0:0:0:
256,192,70894,1,0,0:0:0:0:
256,192,71054,1,8,0:0:0:0:
256,192,71134,1,8,0:0:0:0:
256,192,71215,1,8,0:0:0:0:
256,192,71375,1,0,0:0:0:0:
256,192,71455,1,0,0:0:0:0:
256,192,71535,1,8,0:0:0:0:
256,192,71776,1,8,0:0:0:0:
256,192,72017,1,8,0:0:0:0:
256,192,72177,1,0,0:0:0:0:
256,192,72257,1,0,0:0:0:0:
256,192,72338,1,8,0:0:0:0:
256,192,72418,1,8,0:0:0:0:
256,192,72498,1,0,0:0:0:0:
256,192,72658,1,8,0:0:0:0:
256,192,72739,1,8,0:0:0:0:
256,192,72819,1,8,0:0:0:0:
256,192,73060,1,0,0:0:0:0:
256,192,73300,1,8,0:0:0:0:
256,192,73461,1,0,0:0:0:0:
256,192,73701,1,0,0:0:0:0:
256,192,73781,1,8,0:0:0:0:
256,192,73942,1,8,0:0:0:0:
256,192,74022,1,0,0:0:0:0:
256,192,74102,1,8,0:0:0:0:
256,192,74343,1,0,0:0:0:0:
256,192,74584,1,8,0:0:0:0:
256,192,74744,1,8,0:0:0:0:
256,192,74904,1,8,0:0:0:0:
256,192,75065,1,0,0:0:0:0:
256,192,75225,1,0,0:0:0:0:
256,192,75386,1,8,0:0:0:0:
256,192,75546,1,8,0:0:0:0:
256,192,75707,1,0,0:0:0:0:
256,192,75867,1,0,0:0:0:0:
256,192,76027,1,8,0:0:0:0:
256,192,76188,1,8,0:0:0:0:
256,192,76348,1,0,0:0:0:0:
256,192,76509,1,0,0:0:0:0:
256,192,76669,1,8,0:0:0:0:
256,192,76830,1,8,0:0:0:0:
256,192,76990,1,0,0:0:0:0:
256,192,77150,1,0,0:0:0:0:
256,192,77311,1,8,0:0:0:0:
256,192,77471,1,0,0:0:0:0:
256,192,77551,1,0,0:0:0:0:
288,192,77632,1,8,0:0:0:0:
256,192,77792,1,0,0:0:0:0:
256,192,77872,1,0,0:0:0:0:
288,192,77953,1,8,0:0:0:0:
256,192,78113,1,0,0:0:0:0:
256,192,78193,1,0,0:0:0:0:
288,192,78274,1,8,0:0:0:0:
256,192,78434,1,0,0:0:0:0:
256,192,78514,1,0,0:0:0:0:
256,192,78595,1,8,0:0:0:0:
256,192,78755,1,0,0:0:0:0:
256,192,78835,1,0,0:0:0:0:
256,192,78916,1,8,0:0:0:0:
256,192,79076,1,0,0:0:0:0:
256,192,79156,1,0,0:0:0:0:
256,192,79237,1,8,0:0:0:0:
256,192,79396,1,0,0:0:0:0:
256,192,79476,1,0,0:0:0:0:
256,192,79557,1,8,0:0:0:0:
256,192,79717,1,0,0:0:0:0:
256,192,79797,1,0,0:0:0:0:
256,192,79878,1,8,0:0:0:0:
256,192,79958,1,0,0:0:0:0:
256,192,80038,1,8,0:0:0:0:
256,192,80118,1,0,0:0:0:0:
256,192,80199,1,8,0:0:0:0:
256,192,80279,1,0,0:0:0:0:
256,192,80359,1,8,0:0:0:0:
256,192,80439,1,0,0:0:0:0:
256,192,80519,1,8,0:0:0:0:
256,192,80600,1,0,0:0:0:0:
256,192,80680,1,8,0:0:0:0:
256,192,80760,1,0,0:0:0:0:
256,192,80840,1,8,0:0:0:0:
256,192,80920,1,0,0:0:0:0:
256,192,81001,1,8,0:0:0:0:
256,192,81081,1,0,0:0:0:0:
256,192,81161,1,8,0:0:0:0:
256,192,81241,1,0,0:0:0:0:
256,192,81322,1,8,0:0:0:0:
256,192,81402,1,0,0:0:0:0:
256,192,81482,1,8,0:0:0:0:
256,192,81562,1,0,0:0:0:0:
256,192,81642,1,8,0:0:0:0:
256,192,81723,1,0,0:0:0:0:
256,192,81803,1,8,0:0:0:0:
256,192,81883,1,8,0:0:0:0:
256,192,81963,1,0,0:0:0:0:
256,192,82043,1,0,0:0:0:0:
256,192,82124,1,0,0:0:0:0:
256,192,82204,1,0,0:0:0:0:
256,192,82284,1,8,0:0:0:0:
256,192,82364,1,8,0:0:0:0:
256,192,82445,1,8,0:0:0:0:
256,192,82605,1,0,0:0:0:0:
256,192,82765,1,8,0:0:0:0:
256,192,82926,1,8,0:0:0:0:
256,192,83006,1,8,0:0:0:0:
256,192,83086,1,8,0:0:0:0:
256,192,83247,1,0,0:0:0:0:
256,192,83407,1,8,0:0:0:0:
256,192,83568,1,0,0:0:0:0:
256,192,83728,1,4,0:0:0:0:
256,192,83888,1,0,0:0:0:0:
256,192,83969,1,0,0:0:0:0:
256,192,84049,1,8,0:0:0:0:
256,192,84209,1,8,0:0:0:0:
256,192,84289,1,8,0:0:0:0:
256,192,84370,1,0,0:0:0:0:
256,192,84450,1,8,0:0:0:0:
256,192,84530,1,0,0:0:0:0:
256,192,84691,1,0,0:0:0:0:
256,192,84851,1,8,0:0:0:0:
256,192,85011,1,0,0:0:0:0:
256,192,85172,1,0,0:0:0:0:
256,192,85252,1,8,0:0:0:0:
256,192,85332,1,0,0:0:0:0:
256,192,85493,1,8,0:0:0:0:
256,192,85573,1,8,0:0:0:0:
256,192,85653,1,0,0:0:0:0:
256,192,85814,1,8,0:0:0:0:
256,192,85894,1,8,0:0:0:0:
256,192,85974,1,0,0:0:0:0:
256,192,86054,1,8,0:0:0:0:
256,192,86134,1,0,0:0:0:0:
256,192,86215,1,8,0:0:0:0:
256,192,86295,1,0,0:0:0:0:
256,192,86455,1,0,0:0:0:0:
256,192,86535,1,0,0:0:0:0:
256,192,86616,1,8,0:0:0:0:
256,192,86776,1,8,0:0:0:0:
256,192,86856,1,8,0:0:0:0:
256,192,86937,1,0,0:0:0:0:
256,192,87097,1,8,0:0:0:0:
256,192,87177,1,8,0:0:0:0:
256,192,87257,1,0,0:0:0:0:
256,192,87418,1,8,0:0:0:0:
256,192,87471,1,8,0:0:0:0:
256,192,87525,1,8,0:0:0:0:
256,192,87578,1,8,0:0:0:0:
256,192,87739,1,4,0:0:0:0:
256,192,88060,1,6,0:0:0:0:
256,192,88380,1,4,0:0:0:0:
256,192,88701,1,6,0:0:0:0:
256,192,88862,1,4,0:0:0:0:
256,192,89022,1,8,0:0:0:0:
256,192,89102,1,8,0:0:0:0:
256,192,89183,1,8,0:0:0:0:
256,192,89343,1,0,0:0:0:0:
256,192,89423,1,0,0:0:0:0:
256,192,89503,1,8,0:0:0:0:
256,192,89664,1,0,0:0:0:0:
256,192,89744,1,8,0:0:0:0:
256,192,89824,1,0,0:0:0:0:
256,192,89985,1,8,0:0:0:0:
256,192,90145,1,8,0:0:0:0:
256,192,90225,1,0,0:0:0:0:
256,192,90305,1,8,0:0:0:0:
256,192,90466,1,8,0:0:0:0:
256,192,90626,1,0,0:0:0:0:
256,192,90707,1,0,0:0:0:0:
256,192,90787,1,8,0:0:0:0:
256,192,90947,1,8,0:0:0:0:
256,192,91027,1,8,0:0:0:0:
256,192,91108,1,0,0:0:0:0:
256,192,91188,1,0,0:0:0:0:
256,192,91268,1,8,0:0:0:0:
256,192,91428,1,0,0:0:0:0:
256,192,91509,1,0,0:0:0:0:
256,192,91589,1,0,0:0:0:0:
256,192,91669,1,0,0:0:0:0:
256,192,91749,1,8,0:0:0:0:
256,192,91830,1,8,0:0:0:0:
256,192,91910,1,8,0:0:0:0:
256,192,91990,1,8,0:0:0:0:
256,192,92070,1,0,0:0:0:0:
256,192,92231,1,0,0:0:0:0:
256,192,92311,1,0,0:0:0:0:
256,192,92391,1,8,0:0:0:0:
256,192,92551,1,0,0:0:0:0:
256,192,92712,2,0,L|416:192,4,140
256,192,94156,1,0,0:0:0:0:
256,192,94236,1,0,0:0:0:0:
256,192,94316,1,8,0:0:0:0:
256,192,94477,1,8,0:0:0:0:
256,192,94557,1,8,0:0:0:0:
256,192,94637,1,0,0:0:0:0:
256,192,94717,1,8,0:0:0:0:
256,192,94797,1,0,0:0:0:0:
256,192,94958,1,0,0:0:0:0:
256,192,95118,1,8,0:0:0:0:
256,192,95279,1,0,0:0:0:0:
256,192,95439,1,0,0:0:0:0:
256,192,95519,1,8,0:0:0:0:
256,192,95600,1,8,0:0:0:0:
256,192,95760,1,0,0:0:0:0:
256,192,95840,1,0,0:0:0:0:
256,192,95920,1,8,0:0:0:0:
256,192,96081,1,8,0:0:0:0:
256,192,96161,1,8,0:0:0:0:
256,192,96241,1,8,0:0:0:0:
256,192,96322,1,0,0:0:0:0:
256,192,96402,1,0,0:0:0:0:
256,192,96482,1,0,0:0:0:0:
256,192,96562,1,0,0:0:0:0:
256,192,96723,1,0,0:0:0:0:
256,192,96803,1,0,0:0:0:0:
256,192,96883,1,0,0:0:0:0:
256,192,97043,1,8,0:0:0:0:
256,192,97124,1,8,0:0:0:0:
256,192,97204,1,8,0:0:0:0:
256,192,97364,1,0,0:0:0:0:
256,192,97445,1,8,0:0:0:0:
256,192,97525,1,0,0:0:0:0:
256,192,97605,1,0,0:0:0:0:
256,192,97685,1,8,0:0:0:0:
256,192,97846,1,4,0:0:0:0:
256,192,98006,1,12,0:0:0:0:
256,192,98328,1,12,0:0:0:0:
256,192,98648,1,4,0:0:0:0:
256,192,98969,1,4,0:0:0:0:
256,192,99129,1,12,0:0:0:0:
256,192,99289,1,4,0:0:0:0:
256,192,99450,1,4,0:0:0:0:
256,192,99610,1,4,0:0:0:0:
256,192,99771,1,4,0:0:0:0:
256,192,99931,1,4,0:0:0:0:
256,192,100092,1,4,0:0:0:0:
256,192,100252,1,4,0:0:0:0:
256,192,100412,1,12,0:0:0:0:
256,192,100573,1,4,0:0:0:0:
256,192,100733,1,4,0:0:0:0:
256,192,100894,1,4,0:0:0:0:
256,192,101054,1,4,0:0:0:0:
256,192,101215,1,4,0:0:0:0:
256,192,101375,1,4,0:0:0:0:
256,192,101535,1,4,0:0:0:0:
256,192,101696,1,8,0:0:0:0:
256,192,101776,1,8,0:0:0:0:
256,192,101856,1,8,0:0:0:0:
256,192,101937,1,8,0:0:0:0:
256,192,102017,1,8,0:0:0:0:
256,192,102097,1,8,0:0:0:0:
256,192,102177,1,0,0:0:0:0:
256,192,102257,1,0,0:0:0:0:
256,192,102338,1,8,0:0:0:0:
256,192,102418,1,8,0:0:0:0:
256,192,102498,1,8,0:0:0:0:
256,192,102578,1,8,0:0:0:0:
256,192,102658,1,8,0:0:0:0:
256,192,102739,1,8,0:0:0:0:
256,192,102819,1,0,0:0:0:0:
256,192,102899,1,0,0:0:0:0:
256,192,102979,1,8,0:0:0:0:
256,192,103060,1,0,0:0:0:0:
256,192,103220,1,8,0:0:0:0:
256,192,103300,1,0,0:0:0:0:
256,192,103461,1,8,0:0:0:0:
256,192,103541,1,0,0:0:0:0:
256,192,103621,2,0,L|384:256,1,140
256,192,104584,1,8,0:0:0:0:
256,192,104744,1,8,0:0:0:0:
256,192,104824,1,8,0:0:0:0:
256,192,104904,1,0,0:0:0:0:
256,192,105065,1,8,0:0:0:0:
256,192,105145,1,8,0:0:0:0:
256,192,105225,1,0,0:0:0:0:
256,192,105386,1,0,0:0:0:0:
256,192,105546,1,0,0:0:0:0:
256,192,105626,1,8,0:0:0:0:
256,192,105707,1,0,0:0:0:0:
256,192,105867,1,8,0:0:0:0:
256,192,106027,1,0,0:0:0:0:
256,192,106188,1,0,0:0:0:0:
256,192,106268,1,0,0:0:0:0:
256,192,106348,1,8,0:0:0:0:
256,192,106428,1,8,0:0:0:0:
256,192,106509,1,0,0:0:0:0:
256,192,106589,1,0,0:0:0:0:
256,192,106669,1,8,0:0:0:0:
256,192,106749,1,8,0:0:0:0:
256,192,106830,1,0,0:0:0:0:
256,192,106990,1,0,0:0:0:0:
256,192,107070,1,0,0:0:0:0:
256,192,107150,1,8,0:0:0:0:
256,192,107311,1,0,0:0:0:0:
256,192,107391,1,8,0:0:0:0:
256,192,107471,1,0,0:0:0:0:
256,192,107632,1,8,0:0:0:0:
256,192,107712,1,8,0:0:0:0:
256,192,107792,1,0,0:0:0:0:
256,192,107953,1,0,0:0:0:0:
256,192,108113,1,4,0:0:0:0:
256,192,108273,1,12,0:0:0:0:
256,192,108434,1,0,0:0:0:0:
256,192,108594,1,12,0:0:0:0:
256,192,108755,1,0,0:0:0:0:
256,192,108915,1,0,0:0:0:0:
256,192,109076,1,8,0:0:0:0:
256,192,109236,1,0,0:0:0:0:
256,192,109396,1,12,0:0:0:0:
256,192,109557,1,0,0:0:0:0:
256,192,109637,1,0,0:0:0:0:
256,192,109717,1,0,0:0:0:0:
256,192,109878,1,8,0:0:0:0:
256,192,109958,1,8,0:0:0:0:
256,192,110038,1,0,0:0:0:0:
256,192,110199,1,0,0:0:0:0:
256,192,110279,1,0,0:0:0:0:
256,192,110359,1,8,0:0:0:0:
256,192,110439,1,8,0:0:0:0:
256,192,110519,1,0,0:0:0:0:
256,192,110680,1,8,0:0:0:0:
256,192,110840,1,0,0:0:0:0:
256,192,110920,1,0,0:0:0:0:
256,192,111001,1,8,0:0:0:0:
256,192,111161,1,8,0:0:0:0:
256,192,111322,1,0,0:0:0:0:
256,192,111402,1,8,0:0:0:0:
256,192,111482,1,0,0:0:0:0:
256,192,111562,1,0,0:0:0:0:
256,192,111642,1,8,0:0:0:0:
256,192,111803,1,0,0:0:0:0:
256,192,111963,1,8,0:0:0:0:
256,192,112043,1,8,0:0:0:0:
256,192,112124,1,8,0:0:0:0:
256,192,112204,1,8,0:0:0:0:
256,192,112284,1,0,0:0:0:0:
256,192,112364,1,0,0:0:0:0:
256,192,112445,1,0,0:0:0:0:
256,192,112525,1,0,0:0:0:0:
256,192,112605,1,8,0:0:0:0:
256,192,112685,1,0,0:0:0:0:
256,192,112765,1,8,0:0:0:0:
256,192,112846,1,0,0:0:0:0:
256,192,112926,1,8,0:0:0:0:
256,192,113086,1,0,0:0:0:0:
256,192,113247,2,0,L|416:192,3,140
256,192,114370,1,0,0:0:0:0:
256,192,114530,1,0,0:0:0:0:
256,192,114691,1,0,0:0:0:0:
256,192,114851,1,0,0:0:0:0:
256,192,115011,1,0,0:0:0:0:
256,192,115172,1,0,0:0:0:0:
256,192,115332,1,8,0:0:0:0:
256,192,115493,1,0,0:0:0:0:
256,192,115653,1,0,0:0:0:0:
256,192,115814,1,0,0:0:0:0:
256,192,115974,1,0,0:0:0:0:
256,192,116134,1,0,0:0:0:0:
256,192,116295,1,8,0:0:0:0:
256,192,116455,1,0,0:0:0:0:
256,192,116616,1,8,0:0:0:0:
256,192,116776,1,0,0:0:0:0:
256,192,116937,1,0,0:0:0:0:
256,192,117097,1,0,0:0:0:0:
256,192,117257,1,0,0:0:0:0:
256,192,117418,1,0,0:0:0:0:
256,192,117578,1,0,0:0:0:0:
256,192,117739,1,0,0:0:0:0:
256,192,117899,1,8,0:0:0:0:
256,192,118060,1,0,0:0:0:0:
256,192,118220,1,0,0:0:0:0:
256,192,118380,1,0,0:0:0:0:
256,192,118541,1,0,0:0:0:0:
256,192,118701,1,8,0:0:0:0:
256,192,118862,1,0,0:0:0:0:
256,192,119022,1,8,0:0:0:0:
256,192,119183,1,8,0:0:0:0:
256,192,119343,1,0,0:0:0:0:
256,192,119503,1,8,0:0:0:0:
256,192,119664,1,0,0:0:0:0:
256,192,119744,1,0,0:0:0:0:
256,192,119824,1,0,0:0:0:0:
256,192,119904,1,0,0:0:0:0:
256,192,119985,1,0,0:0:0:0:
256,192,120065,1,0,0:0:0:0:
256,192,120145,1,0,0:0:0:0:
256,192,120225,1,0,0:0:0:0:
256,192,120305,1,8,0:0:0:0:
256,192,120386,1,8,0:0:0:0:
256,192,120466,1,8,0:0:0:0:
256,192,120546,1,8,0:0:0:0:
256,192,120626,1,8,0:0:0:0:
256,192,120707,1,8,0:0:0:0:
256,192,120787,1,8,0:0:0:0:
256,192,120867,1,8,0:0:0:0:
256,192,120947,1,0,0:0:0:0:
256,192,121027,1,0,0:0:0:0:
256,192,121108,1,0,0:0:0:0:
256,192,121188,1,0,0:0:0:0:
256,192,121268,1,0,0:0:0:0:
256,192,121348,1,0,0:0:0:0:
256,192,121428,1,0,0:0:0:0:
256,192,121509,1,0,0:0:0:0:
256,192,121589,1,8,0:0:0:0:
256,192,121669,1,8,0:0:0:0:
256,192,121749,1,8,0:0:0:0:
256,192,121830,1,8,0:0:0:0:
256,192,121910,1,8,0:0:0:0:
256,192,121990,1,8,0:0:0:0:
256,192,122070,1,8,0:0:0:0:
256,192,122150,1,8,0:0:0:0:
256,192,122231,1,0,0:0:0:0:
256,192,122311,1,0,0:0:0:0:
256,192,122391,1,8,0:0:0:0:
256,192,122471,1,0,0:0:0:0:
256,192,122551,1,8,0:0:0:0:
256,192,122632,1,8,0:0:0:0:
256,192,122712,1,0,0:0:0:0:
256,192,122792,1,8,0:0:0:0:
256,192,122872,1,0,0:0:0:0:
256,192,122953,1,0,0:0:0:0:
256,192,123033,1,8,0:0:0:0:
256,192,123113,1,0,0:0:0:0:
256,192,123193,1,8,0:0:0:0:
256,192,123273,1,8,0:0:0:0:
256,192,123354,1,0,0:0:0:0:
256,192,123434,1,8,0:0:0:0:
256,192,123514,1,0,0:0:0:0:
256,192,123594,1,0,0:0:0:0:
256,192,123675,1,8,0:0:0:0:
256,192,123755,1,0,0:0:0:0:
256,192,123835,1,8,0:0:0:0:
256,192,123915,1,8,0:0:0:0:
256,192,123995,1,0,0:0:0:0:
256,192,124076,1,8,0:0:0:0:
256,192,124156,1,8,0:0:0:0:
256,192,124236,1,0,0:0:0:0:
256,192,124316,1,8,0:0:0:0:
256,192,124397,1,0,0:0:0:0:
256,192,124477,1,8,0:0:0:0:
256,192,124557,1,8,0:0:0:0:
256,192,124637,1,0,0:0:0:0:
256,192,124717,1,8,0:0:0:0:
256,192,124798,1,0,0:0:0:0:
