osu file format v14

[General]
AudioFilename: audio.mp3
AudioLeadIn: 0
PreviewTime: 75721
Countdown: 0
SampleSet: Soft
StackLeniency: 0.7
Mode: 3
LetterboxInBreaks: 0
SpecialStyle: 0
WidescreenStoryboard: 0

[Editor]
DistanceSpacing: 0.5
BeatDivisor: 2
GridSize: 32
TimelineZoom: 0.3999999

[Metadata]
Title:Remilia ~Kyuuketsuki no Tame no Kyousoukyoku
TitleUnicode:Remilia ~吸血鬼の為の協奏曲
Artist:Kucchi-
ArtistUnicode:くっちー
Creator:Garalulu
Version:Beginner
Source:BMS
Tags:Wonki jakads Reba - R e b a - Lass BOF2009 THE BMS OF FIGHTERS 2009 - revolutionary battles - おとなのらくがきちょう PIANO CONCERTO ZUN Touhou Project 東方紅魔郷 ~ the Embodiment of Scarlet Devil Virkato Wakhmaninov
BeatmapID:1378752
BeatmapSetID:636567

[Difficulty]
HPDrainRate:7
CircleSize:7
OverallDifficulty:7
ApproachRate:10
SliderMultiplier:1.4
SliderTickRate:1

[Events]
//Background and Video events
0,0,"remilia.jpg",0,0
//Break Periods
//Storyboard Layer 0 (Background)
//Storyboard Layer 1 (Fail)
//Storyboard Layer 2 (Pass)
//Storyboard Layer 3 (Foreground)
//Storyboard Sound Samples

[TimingPoints]
510,410.958904109589,4,2,1,60,1,0
510,-80.2197802197802,4,2,1,60,0,0
3797,500,4,2,1,60,1,0
3797,-65.9340659340659,4,2,1,60,0,0
19797,923.076923076923,4,2,1,60,1,0
19797,-35.7142857142857,4,2,1,60,0,0
22566,1090.90909090909,4,2,1,60,1,0
22566,-30.2197802197802,4,2,1,60,0,0
23657,324.324324324324,4,2,1,60,1,0
23657,-101.648351648352,4,2,1,60,0,0
35333,410.958904109589,4,2,1,60,1,0
35333,-80.2197802197802,4,2,1,60,0,0
38210,338.983050847458,4,2,1,60,1,0
38210,-97.2527472527471,4,2,1,60,0,0
38548,338.983050847458,4,2,1,60,1,0
38548,-97.2527472527471,4,2,1,60,0,0
49396,329.67032967033,4,2,1,60,1,0
49396,-99.9999999999999,4,2,1,60,0,0
58627,333.333333333333,4,2,1,60,1,0
58627,-98.901098901099,4,2,1,60,0,0
59960,-99.009900990099,4,2,1,60,0,1
73293,352.941176470588,4,2,1,60,1,0
73293,-93.4065934065935,4,2,1,60,0,0
75058,329.67032967033,4,2,1,60,1,0
75058,-99.9999999999999,4,2,1,60,0,0
75305,476.190476190476,4,2,1,60,1,0
75305,-69.2307692307693,4,2,1,60,0,0
75424,555.555555555556,4,2,1,60,1,0
75424,-59.3406593406593,4,2,1,60,0,0
75563,631.578947368421,4,2,1,60,1,0
75563,-52.1978021978022,4,2,1,60,0,0
75721,821.917808219178,4,2,1,60,1,0
75721,-40.1098901098901,4,2,1,60,0,0
76954,329.67032967033,4,2,1,60,1,0
76954,-99.9999999999999,4,2,1,60,0,0
86185,344.827586206897,4,2,1,60,1,0
86185,-95.6043956043955,4,2,1,60,0,0
87047,319.148936170213,4,2,1,60,1,0
87047,-103.296703296703,4,2,1,60,0,0
87525,319.148936170213,4,2,1,60,1,0
87525,-103.296703296703,4,2,1,60,0,1
97419,324.324324324324,4,2,1,60,1,0
97419,-101.648351648352,4,2,1,60,0,1
97743,324.324324324324,4,2,1,60,1,0
97743,-101.648351648352,4,2,1,60,0,0
106825,333.333333333333,4,2,1,60,1,0
106825,-98.901098901099,4,2,1,60,0,0
108158,410.958904109589,4,2,1,60,1,0
108158,-80.2197802197802,4,2,1,60,0,0
121309,365.853658536585,4,2,1,60,1,0
121309,-90.1098901098902,4,2,1,60,0,0
127162,352.941176470588,4,2,1,60,1,0
127162,-93.4065934065935,4,2,1,60,0,0
129986,346.820809248555,4,2,1,60,1,0
129986,-95.054945054945,4,2,1,60,0,0
134148,329.67032967033,4,2,1,60,1,0
134148,-99.9999999999999,4,2,1,60,0,1
142060,365.853658536585,4,2,1,60,1,0
142060,-90.1098901098902,4,2,1,60,0,0
144986,560.747663551402,4,2,1,60,1,0
144986,-58.7912087912088,4,2,1,60,0,0

[HitObjects]
36,192,510,128,0,3797:1:0:0:0:
475,192,510,128,0,3797:0:0:0:0:
256,192,2153,1,0,1:0:0:0:
256,192,2564,1,0,1:0:0:0:
256,192,3386,1,0,1:0:0:0:
256,192,3797,1,0,1:0:0:0:
182,192,5797,128,0,7797:1:0:0:0:
329,192,6297,1,0,0:0:0:0:
475,192,6797,1,0,0:0:0:0:
402,192,7297,1,0,1:0:0:0:
256,192,7547,1,0,0:0:0:0:
329,192,7797,128,0,9797:1:0:0:0:
182,192,8297,1,0,0:0:0:0:
36,192,8797,1,0,0:0:0:0:
109,192,9297,1,0,1:0:0:0:
256,192,9547,1,0,0:0:0:0:
182,192,9797,128,0,11797:1:0:0:0:
329,192,10297,1,0,0:0:0:0:
475,192,10797,1,0,0:0:0:0:
402,192,11297,1,0,1:0:0:0:
256,192,11547,1,0,0:0:0:0:
329,192,11797,128,0,13797:1:0:0:0:
182,192,12297,1,0,0:0:0:0:
36,192,13047,1,0,0:0:0:0:
109,192,13547,1,0,0:0:0:0:
475,192,13797,128,0,15797:1:0:0:0:
256,192,14297,1,0,0:0:0:0:
36,192,14297,1,0,0:0:0:0:
182,192,14797,1,0,0:0:0:0:
402,192,14797,1,0,0:0:0:0:
329,192,15297,1,0,1:0:0:0:
182,192,15547,1,0,0:0:0:0:
36,192,15797,128,0,17797:1:0:0:0:
256,192,16297,1,0,0:0:0:0:
475,192,16297,1,0,0:0:0:0:
109,192,16797,1,0,0:0:0:0:
329,192,16797,1,0,0:0:0:0:
182,192,17297,1,0,1:0:0:0:
256,192,17547,1,0,0:0:0:0:
329,192,17797,128,0,19797:1:0:0:0:
109,192,18297,1,0,0:0:0:0:
402,192,18297,1,0,0:0:0:0:
182,192,18797,1,0,0:0:0:0:
475,192,18797,1,0,0:0:0:0:
256,192,19297,1,0,1:0:0:0:
182,192,19547,1,0,0:0:0:0:
109,192,19797,1,0,0:0:0:0:
402,192,19797,1,0,1:0:0:0:
182,192,22566,128,0,23111:1:0:0:0:
329,192,23111,128,0,23656:1:0:0:0:
36,192,23656,128,0,24305:1:0:0:0:
182,192,23657,1,0,0:0:0:0:
329,192,24305,128,0,24954:1:0:0:0:
475,192,24305,1,0,0:0:0:0:
109,192,24954,1,0,0:0:0:0:
256,192,24954,128,0,25765:1:0:0:0:
475,192,25765,1,0,0:0:0:0:
36,192,25765,1,0,1:0:0:0:
182,192,25927,1,0,1:0:0:0:
109,192,26089,1,0,1:0:0:0:
475,192,26251,128,0,26900:1:0:0:0:
329,192,26251,1,0,0:0:0:0:
36,192,26900,1,0,0:0:0:0:
182,192,26900,128,0,27548:1:0:0:0:
256,192,27548,128,0,28359:1:0:0:0:
402,192,27548,1,0,0:0:0:0:
329,192,28359,1,0,0:0:0:0:
109,192,28359,1,0,1:0:0:0:
182,192,28521,1,0,1:0:0:0:
256,192,28684,1,0,1:0:0:0:
36,192,28846,128,0,30143:0:0:0:0:
402,192,28846,128,0,30143:1:0:0:0:
182,192,29494,1,0,0:0:0:0:
109,192,30143,128,0,31440:0:0:0:0:
475,192,30143,128,0,31440:1:0:0:0:
329,192,30792,1,0,0:0:0:0:
256,192,31440,128,0,32089:1:0:0:0:
36,192,31765,1,0,0:0:0:0:
475,192,31765,1,0,1:0:0:0:
329,192,32089,128,0,32738:1:0:0:0:
109,192,32413,1,0,0:0:0:0:
475,192,32738,1,0,1:0:0:0:
329,192,33062,1,0,1:0:0:0:
182,192,33386,1,0,0:0:0:0:
36,192,33386,128,0,34035:1:0:0:0:
329,192,33711,1,0,0:0:0:0:
475,192,34035,1,0,0:0:0:0:
109,192,34359,128,0,36976:1:0:0:0:
402,192,34359,128,0,36976:0:0:0:0:
36,192,38210,1,0,0:0:0:0:
182,192,38379,1,0,0:0:0:0:
329,192,38548,1,0,1:0:0:0:
475,192,38886,1,0,0:0:0:0:
256,192,39225,1,0,1:0:0:0:
402,192,39564,1,0,0:0:0:0:
182,192,39903,1,0,1:0:0:0:
256,192,40242,1,0,0:0:0:0:
329,192,40581,1,0,0:0:0:0:
475,192,40920,1,0,0:0:0:0:
402,192,41259,1,0,1:0:0:0:
256,192,41598,1,0,0:0:0:0:
329,192,41937,1,0,1:0:0:0:
182,192,42276,1,0,0:0:0:0:
36,192,42615,1,0,1:0:0:0:
182,192,42954,1,0,0:0:0:0:
329,192,43293,1,0,0:0:0:0:
402,192,43632,1,0,0:0:0:0:
182,192,43971,128,0,44310:1:0:0:0:
329,192,44310,128,0,44649:0:0:0:0:
182,192,44649,128,0,44988:0:0:0:0:
402,192,44988,128,0,45327:0:0:0:0:
36,192,45327,128,0,45666:1:0:0:0:
182,192,45666,128,0,46005:0:0:0:0:
329,192,46005,128,0,46344:0:0:0:0:
475,192,46344,128,0,46683:0:0:0:0:
256,192,46683,128,0,47022:1:0:0:0:
109,192,47022,128,0,47361:0:0:0:0:
329,192,47361,128,0,47700:1:0:0:0:
182,192,47700,128,0,48039:0:0:0:0:
36,192,48039,128,0,48378:1:0:0:0:
182,192,48378,128,0,48717:0:0:0:0:
329,192,48717,128,0,49056:1:0:0:0:
475,192,49056,128,0,49395:0:0:0:0:
256,192,49395,128,0,50714:1:0:0:0:
36,192,50385,128,0,50714:1:0:0:0:
329,192,50714,128,0,52033:1:0:0:0:
109,192,51703,128,0,52033:1:0:0:0:
475,192,52033,128,0,52692:1:0:0:0:
36,192,52692,128,0,53352:1:0:0:0:
329,192,53022,128,0,53352:1:0:0:0:
182,192,53352,128,0,53846:1:0:0:0:
402,192,53846,128,0,54341:1:0:0:0:
109,192,54341,128,0,54670:1:0:0:0:
256,192,54670,128,0,55165:1:0:0:0:
36,192,55165,128,0,55659:1:0:0:0:
329,192,55659,128,0,55989:1:0:0:0:
109,192,55989,128,0,56319:1:0:0:0:
256,192,56319,128,0,56648:1:0:0:0:
402,192,56648,128,0,56978:1:0:0:0:
36,192,56978,128,0,57308:1:0:0:0:
475,192,57308,128,0,57802:1:0:0:0:
109,192,57802,128,0,58297:1:0:0:0:
256,192,58297,128,0,58626:1:0:0:0:
402,192,58627,1,0,1:0:0:0:
182,192,58960,1,0,1:0:0:0:
475,192,59293,1,0,1:0:0:0:
109,192,59627,1,0,1:0:0:0:
256,192,59960,1,4,0:0:0:0:
475,192,59960,1,0,1:0:0:0:
182,192,60293,1,0,1:0:0:0:
402,192,60627,1,0,1:0:0:0:
36,192,60960,1,0,1:0:0:0:
256,192,61293,1,0,1:0:0:0:
329,192,61627,1,0,1:0:0:0:
402,192,61960,1,0,1:0:0:0:
475,192,62293,1,0,1:0:0:0:
256,192,62626,1,0,1:0:0:0:
329,192,62960,1,0,1:0:0:0:
109,192,63293,1,0,1:0:0:0:
475,192,63626,1,0,1:0:0:0:
182,192,63960,1,0,1:0:0:0:
329,192,64293,1,0,0:0:0:0:
109,192,64626,1,0,0:0:0:0:
402,192,64960,1,0,1:0:0:0:
36,192,65293,1,4,0:0:0:0:
475,192,65293,1,0,1:0:0:0:
256,192,65627,1,0,0:0:0:0:
402,192,65960,1,0,0:0:0:0:
109,192,66293,1,0,0:0:0:0:
475,192,66626,1,0,1:0:0:0:
329,192,66960,1,0,1:0:0:0:
182,192,67293,128,0,67960:1:0:0:0:
329,192,67626,128,0,67960:0:0:0:0:
256,192,67960,1,4,0:0:0:0:
475,192,67960,1,0,1:0:0:0:
182,192,68293,1,0,1:0:0:0:
402,192,68626,1,0,1:0:0:0:
36,192,68960,1,0,1:0:0:0:
256,192,69293,1,4,0:0:0:0:
475,192,69293,1,0,1:0:0:0:
182,192,69626,1,0,1:0:0:0:
329,192,69960,1,0,1:0:0:0:
109,192,70293,1,0,1:0:0:0:
256,192,70626,1,4,0:0:0:0:
36,192,70626,1,0,1:0:0:0:
329,192,70960,1,0,1:0:0:0:
402,192,71293,1,0,1:0:0:0:
256,192,71626,1,0,1:0:0:0:
109,192,71960,1,0,1:0:0:0:
109,192,72293,1,0,1:0:0:0:
402,192,72626,1,0,1:0:0:0:
402,192,72960,1,0,1:0:0:0:
256,192,73293,1,0,1:0:0:0:
475,192,74175,1,0,1:0:0:0:
329,192,74351,1,0,1:0:0:0:
182,192,74528,1,0,1:0:0:0:
36,192,74704,128,0,75721:1:0:0:0:
256,192,75721,128,0,76131:1:0:0:0:
329,192,76131,128,0,76542:1:0:0:0:
402,192,76542,128,0,76954:1:0:0:0:
475,192,76953,1,4,0:0:0:0:
182,192,76953,128,0,77613:1:0:0:0:
402,192,77283,1,0,1:0:0:0:
329,192,77613,128,0,78272:1:0:0:0:
109,192,77943,1,0,1:0:0:0:
256,192,78272,128,0,79591:1:0:0:0:
182,192,78602,1,0,1:0:0:0:
402,192,78932,1,0,0:0:0:0:
109,192,79261,1,0,1:0:0:0:
329,192,79591,128,0,80250:1:0:0:0:
36,192,79921,1,0,1:0:0:0:
182,192,80250,128,0,80910:1:0:0:0:
475,192,80580,1,0,1:0:0:0:
256,192,80910,128,0,82228:1:0:0:0:
329,192,81239,1,0,0:0:0:0:
109,192,81569,1,0,0:0:0:0:
402,192,81899,128,0,82228:1:0:0:0:
329,192,82228,128,0,83547:1:0:0:0:
36,192,82558,1,0,0:0:0:0:
182,192,82888,1,0,0:0:0:0:
475,192,83217,128,0,83547:1:0:0:0:
402,192,83547,128,0,84866:1:0:0:0:
256,192,83877,1,0,0:0:0:0:
109,192,84206,1,0,0:0:0:0:
182,192,84536,1,0,1:0:0:0:
256,192,84866,128,0,85525:1:0:0:0:
329,192,85195,1,0,1:0:0:0:
182,192,85525,128,0,86185:1:0:0:0:
256,192,85855,1,0,1:0:0:0:
109,192,86184,128,0,86874:1:0:0:0:
402,192,86184,128,0,86874:0:0:0:0:
256,192,86529,1,0,1:0:0:0:
36,192,87047,1,0,1:0:0:0:
182,192,87206,1,0,1:0:0:0:
329,192,87366,1,0,1:0:0:0:
475,192,87525,1,0,1:0:0:0:
109,192,87525,1,4,0:0:0:0:
329,192,87844,128,2,88482:0:0:0:0:
36,192,88163,128,2,88482:0:0:0:0:
182,192,88482,128,2,88801:0:0:0:0:
402,192,88801,1,2,0:0:0:0:
109,192,89120,128,2,89759:0:0:0:0:
402,192,89439,128,2,89759:0:0:0:0:
256,192,89759,128,2,90078:0:0:0:0:
36,192,90078,1,2,0:0:0:0:
475,192,90397,128,2,91035:0:0:0:0:
182,192,90716,128,2,91035:0:0:0:0:
329,192,91035,128,2,91354:0:0:0:0:
256,192,91354,128,2,92631:0:0:0:0:
475,192,91673,1,2,0:0:0:0:
329,192,91993,1,2,0:0:0:0:
109,192,92312,128,2,92631:0:0:0:0:
182,192,92631,128,2,93907:0:0:0:0:
475,192,92631,1,4,0:0:0:0:
402,192,92950,1,2,0:0:0:0:
256,192,93269,1,2,0:0:0:0:
36,192,93588,128,2,93907:0:0:0:0:
109,192,93907,128,2,95184:0:0:0:0:
329,192,94227,1,2,0:0:0:0:
182,192,94546,1,2,0:0:0:0:
402,192,94865,128,2,95184:0:0:0:0:
256,192,95184,128,2,95822:0:0:0:0:
36,192,95184,1,4,0:0:0:0:
182,192,95503,1,2,0:0:0:0:
329,192,95822,128,2,96461:0:0:0:0:
109,192,95822,1,4,0:0:0:0:
256,192,96142,1,2,0:0:0:0:
36,192,96461,1,0,0:0:0:0:
475,192,96461,1,0,0:0:0:0:
109,192,96461,128,0,97099:0:0:0:0:
402,192,96461,128,0,97099:1:0:0:0:
256,192,97099,128,0,97743:1:0:0:0:
182,192,97418,128,0,97743:0:0:0:0:
329,192,97418,128,0,97743:0:0:0:0:
109,192,97743,1,0,1:0:0:0:
402,192,97743,1,4,0:0:0:0:
256,192,98067,1,0,1:0:0:0:
182,192,98391,1,0,1:0:0:0:
402,192,98634,1,0,1:0:0:0:
329,192,98878,1,0,1:0:0:0:
109,192,99040,1,0,1:0:0:0:
256,192,99364,1,0,1:0:0:0:
329,192,99688,1,0,1:0:0:0:
109,192,99932,1,0,1:0:0:0:
182,192,100175,1,0,1:0:0:0:
475,192,100337,1,0,1:0:0:0:
329,192,100580,1,0,1:0:0:0:
256,192,100824,1,0,1:0:0:0:
36,192,100986,1,0,1:0:0:0:
182,192,101229,1,0,1:0:0:0:
256,192,101472,1,0,1:0:0:0:
402,192,101634,1,0,1:0:0:0:
36,192,101959,128,0,102283:1:0:0:0:
182,192,102283,128,0,102607:1:0:0:0:
329,192,102607,128,0,102932:1:0:0:0:
36,192,102932,1,4,0:0:0:0:
475,192,102932,1,0,1:0:0:0:
182,192,103256,1,0,1:0:0:0:
109,192,103580,1,4,0:0:0:0:
402,192,103580,1,0,1:0:0:0:
256,192,103824,1,0,1:0:0:0:
182,192,104067,1,0,1:0:0:0:
36,192,104229,1,0,1:0:0:0:
475,192,104229,1,4,0:0:0:0:
329,192,104553,1,0,1:0:0:0:
402,192,104878,1,4,0:0:0:0:
109,192,104878,1,0,1:0:0:0:
256,192,105121,1,0,1:0:0:0:
329,192,105364,1,0,1:0:0:0:
36,192,105526,1,4,0:0:0:0:
475,192,105526,1,0,1:0:0:0:
182,192,105770,1,0,1:0:0:0:
109,192,106013,1,0,1:0:0:0:
475,192,106175,1,0,1:0:0:0:
36,192,106175,1,4,0:0:0:0:
329,192,106418,1,0,1:0:0:0:
402,192,106661,1,0,1:0:0:0:
475,192,106824,1,4,0:0:0:0:
36,192,106825,1,0,1:0:0:0:
475,192,107325,1,4,0:0:0:0:
36,192,107325,1,0,1:0:0:0:
36,192,107825,1,0,1:0:0:0:
475,192,107825,1,4,0:0:0:0:
36,192,109801,1,0,1:0:0:0:
182,192,110007,1,0,0:0:0:0:
329,192,110212,1,0,0:0:0:0:
109,192,110623,1,0,1:0:0:0:
256,192,110829,1,0,0:0:0:0:
402,192,111034,1,0,0:0:0:0:
182,192,111445,1,0,0:0:0:0:
256,192,111651,1,0,0:0:0:0:
329,192,111856,1,0,0:0:0:0:
402,192,112062,1,0,0:0:0:0:
256,192,112267,1,0,0:0:0:0:
329,192,112473,1,0,0:0:0:0:
402,192,112678,1,0,1:0:0:0:
475,192,112884,1,0,0:0:0:0:
329,192,113089,1,0,1:0:0:0:
182,192,113294,1,0,0:0:0:0:
36,192,113500,1,0,0:0:0:0:
402,192,113911,1,0,1:0:0:0:
256,192,114116,1,0,0:0:0:0:
109,192,114322,1,0,0:0:0:0:
329,192,114733,1,0,0:0:0:0:
256,192,114938,1,0,0:0:0:0:
182,192,115144,1,0,0:0:0:0:
109,192,115349,1,0,0:0:0:0:
256,192,115555,1,0,0:0:0:0:
182,192,115760,1,0,0:0:0:0:
109,192,115966,1,0,1:0:0:0:
36,192,116171,1,0,1:0:0:0:
256,192,116377,1,0,1:0:0:0:
329,192,116582,1,0,0:0:0:0:
475,192,116788,1,0,0:0:0:0:
182,192,117199,1,0,1:0:0:0:
256,192,117404,1,0,0:0:0:0:
402,192,117610,1,0,0:0:0:0:
109,192,118021,1,0,0:0:0:0:
182,192,118226,1,0,0:0:0:0:
256,192,118431,1,0,0:0:0:0:
329,192,118637,1,0,0:0:0:0:
182,192,118842,1,0,0:0:0:0:
256,192,119048,1,0,0:0:0:0:
402,192,119253,1,0,1:0:0:0:
256,192,119664,1,0,1:0:0:0:
182,192,119870,1,0,1:0:0:0:
36,192,120075,1,0,1:0:0:0:
329,192,120486,1,0,0:0:0:0:
256,192,120692,1,0,0:0:0:0:
109,192,120897,1,0,0:0:0:0:
182,192,121103,1,0,0:0:0:0:
256,192,121308,128,0,122772:1:0:0:0:
329,192,122406,128,0,122589:1:0:0:0:
182,192,122589,128,0,122772:1:0:0:0:
36,192,122772,128,0,123321:1:0:0:0:
475,192,122772,128,4,123321:0:0:0:0:
256,192,123321,128,0,123504:1:0:0:0:
402,192,123504,128,0,123778:1:0:0:0:
182,192,123778,128,0,124052:1:0:0:0:
329,192,124052,128,0,125333:1:0:0:0:
36,192,124052,128,0,125333:0:0:0:0:
182,192,125333,128,0,125516:1:0:0:0:
475,192,125516,128,0,125699:1:0:0:0:
329,192,125699,128,0,126248:1:0:0:0:
256,192,126248,128,0,126430:1:0:0:0:
109,192,126430,128,0,126705:1:0:0:0:
475,192,126705,128,0,126979:1:0:0:0:
182,192,126979,128,0,128220:1:0:0:0:
402,192,126979,128,0,128220:0:0:0:0:
329,192,128220,128,0,128397:1:0:0:0:
36,192,128397,128,0,128573:1:0:0:0:
182,192,128573,128,0,129103:1:0:0:0:
402,192,129103,128,0,129279:1:0:0:0:
109,192,129279,128,0,129544:1:0:0:0:
329,192,129544,128,0,129809:1:0:0:0:
256,192,129809,128,0,131026:1:0:0:0:
36,192,129809,128,0,131026:0:0:0:0:
182,192,131026,128,0,131199:1:0:0:0:
329,192,131199,128,0,131373:1:0:0:0:
402,192,131373,128,0,131546:1:0:0:0:
256,192,131546,128,0,131720:1:0:0:0:
109,192,131720,128,0,131893:1:0:0:0:
182,192,131893,128,0,134148:0:0:0:0:
475,192,131893,128,0,134148:1:0:0:0:
329,192,132760,128,0,133107:0:0:0:0:
256,192,133107,128,0,133454:0:0:0:0:
109,192,133454,128,0,133801:0:0:0:0:
36,192,133801,128,0,134148:0:0:0:0:
256,192,134148,5,4,0:0:0:0:
402,192,134148,1,0,1:0:0:0:
329,192,134477,128,0,134807:0:0:0:0:
109,192,134807,1,0,1:0:0:0:
182,192,135137,128,0,135466:0:0:0:0:
402,192,135466,1,0,1:0:0:0:
256,192,135796,128,0,136126:0:0:0:0:
36,192,136126,1,0,1:0:0:0:
329,192,136455,128,0,136785:0:0:0:0:
109,192,136785,1,4,0:0:0:0:
402,192,136785,1,0,1:0:0:0:
256,192,137115,128,0,137444:0:0:0:0:
402,192,137444,1,4,0:0:0:0:
109,192,137444,1,0,1:0:0:0:
182,192,137774,128,0,138104:0:0:0:0:
109,192,138104,1,4,0:0:0:0:
402,192,138104,1,0,1:0:0:0:
256,192,138433,128,0,138763:0:0:0:0:
36,192,138763,128,4,139422:0:0:0:0:
475,192,138763,128,0,139422:1:0:0:0:
256,192,139093,128,0,139422:1:0:0:0:
329,192,139422,128,4,140082:0:0:0:0:
109,192,139752,128,4,140411:0:0:0:0:
402,192,140082,128,4,140741:0:0:0:0:
182,192,140411,128,4,141071:0:0:0:0:
329,192,140741,128,4,141400:0:0:0:0:
109,192,141071,128,4,141730:0:0:0:0:
402,192,141400,128,4,142060:0:0:0:0:
256,192,141730,128,4,142060:0:0:0:0:
109,192,142060,1,0,0:0:0:0:
36,192,142425,128,0,148350:1:0:0:0:
475,192,142425,128,0,148350:0:0:0:0:
182,192,148911,128,0,149471:1:0:0:0:
329,192,149191,128,0,149471:1:0:0:0:
256,192,149471,128,0,150313:1:0:0:0:
402,192,150313,128,0,150593:1:0:0:0:
109,192,150593,128,0,151154:1:0:0:0:
329,192,151154,128,0,151434:1:0:0:0:
182,192,151434,128,0,153397:1:0:0:0:
402,192,153397,128,0,153957:1:0:0:0:
256,192,153677,128,0,153957:1:0:0:0:
329,192,153957,128,0,154799:1:0:0:0:
109,192,154799,128,0,155079:1:0:0:0:
402,192,155079,128,0,155640:1:0:0:0:
182,192,155640,128,0,155920:1:0:0:0:
329,192,155920,128,0,157883:1:0:0:0:
109,192,157883,128,0,158443:1:0:0:0:
256,192,158163,128,0,158443:1:0:0:0:
182,192,158443,128,0,159285:1:0:0:0:
402,192,159285,128,0,159565:1:0:0:0:
36,192,159565,128,0,160126:1:0:0:0:
475,192,160126,128,0,160406:1:0:0:0:
256,192,160406,128,0,162369:1:0:0:0:
109,192,162369,128,0,162929:1:0:0:0:
402,192,162649,128,0,162929:1:0:0:0:
475,192,162929,128,0,163771:1:0:0:0:
256,192,163210,128,0,163771:1:0:0:0:
36,192,163490,128,0,163771:1:0:0:0:
109,192,163771,128,0,167275:0:0:0:0:
402,192,163771,128,0,167275:1:0:0:0:
