osu file format v14

[General]
AudioFilename: audio.mp3
AudioLeadIn: 0
PreviewTime: 75721
Countdown: 0
SampleSet: Soft
StackLeniency: 0.7
Mode: 3
LetterboxInBreaks: 0
SpecialStyle: 0
WidescreenStoryboard: 0

[Editor]
DistanceSpacing: 0.5
BeatDivisor: 6
GridSize: 32
TimelineZoom: 1.8

[Metadata]
Title:Remilia ~Kyuuketsuki no Tame no Kyousoukyoku
TitleUnicode:Remilia ~吸血鬼の為の協奏曲
Artist:Kucchi-
ArtistUnicode:くっちー
Creator:Garalulu
Version:Wonki's Hyper
Source:BMS
Tags:Wonki jakads Reba - R e b a - Lass BOF2009 THE BMS OF FIGHTERS 2009 - revolutionary battles - おとなのらくがきちょう PIANO CONCERTO ZUN Touhou Project 東方紅魔郷 ~ the Embodiment of Scarlet Devil Virkato Wakhmaninov
BeatmapID:1391969
BeatmapSetID:636567

[Difficulty]
HPDrainRate:7.5
CircleSize:7
OverallDifficulty:7.5
ApproachRate:10
SliderMultiplier:1.4
SliderTickRate:1

[Events]
//Background and Video events
0,0,"remilia.jpg",0,0
//Break Periods
//Storyboard Layer 0 (Background)
//Storyboard Layer 1 (Fail)
//Storyboard Layer 2 (Pass)
//Storyboard Layer 3 (Foreground)
//Storyboard Sound Samples

[TimingPoints]
510,410.958904109589,4,2,1,60,1,0
510,-80.2197802197802,4,2,1,60,0,0
3797,500,4,2,1,60,1,0
3797,-65.9340659340659,4,2,1,60,0,0
19797,923.076923076923,4,2,1,60,1,0
19797,-35.7142857142857,4,2,1,60,0,0
22566,1090.90909090909,4,2,1,60,1,0
22566,-30.2197802197802,4,2,1,60,0,0
23657,324.324324324324,4,2,1,60,1,0
23657,-101.648351648352,4,2,1,60,0,0
35333,410.958904109589,4,2,1,60,1,0
35333,-80.2197802197802,4,2,1,60,0,0
38210,338.983050847458,4,2,1,60,1,0
38210,-97.2527472527471,4,2,1,60,0,0
38548,338.983050847458,4,2,1,60,1,0
38548,-97.2527472527471,4,2,1,60,0,0
49396,329.67032967033,4,2,1,60,1,0
49396,-99.9999999999999,4,2,1,60,0,0
58627,333.333333333333,4,2,1,60,1,0
58627,-98.901098901099,4,2,1,60,0,0
59960,-99.009900990099,4,2,1,60,0,1
73293,352.941176470588,4,2,1,60,1,0
73293,-93.4065934065935,4,2,1,60,0,0
75058,329.67032967033,4,2,1,60,1,0
75058,-99.9999999999999,4,2,1,60,0,0
75305,476.190476190476,4,2,1,60,1,0
75305,-69.2307692307693,4,2,1,60,0,0
75424,555.555555555556,4,2,1,60,1,0
75424,-59.3406593406593,4,2,1,60,0,0
75563,631.578947368421,4,2,1,60,1,0
75563,-52.1978021978022,4,2,1,60,0,0
75721,821.917808219178,4,2,1,60,1,0
75721,-40.1098901098901,4,2,1,60,0,0
76954,329.67032967033,4,2,1,60,1,0
76954,-99.9999999999999,4,2,1,60,0,0
86185,344.827586206897,4,2,1,60,1,0
86185,-95.6043956043955,4,2,1,60,0,0
87047,319.148936170213,4,2,1,60,1,0
87047,-103.296703296703,4,2,1,60,0,0
87525,319.148936170213,4,2,1,60,1,0
87525,-103.296703296703,4,2,1,60,0,1
97419,324.324324324324,4,2,1,60,1,0
97419,-101.648351648352,4,2,1,60,0,1
97743,324.324324324324,4,2,1,60,1,0
97743,-101.648351648352,4,2,1,60,0,0
106825,333.333333333333,4,2,1,60,1,0
106825,-98.901098901099,4,2,1,60,0,0
108158,410.958904109589,4,2,1,60,1,0
108158,-80.2197802197802,4,2,1,60,0,0
121309,365.853658536585,4,2,1,60,1,0
121309,-90.1098901098902,4,2,1,60,0,0
127162,352.941176470588,4,2,1,60,1,0
127162,-93.4065934065935,4,2,1,60,0,0
129986,346.820809248555,4,2,1,60,1,0
129986,-95.054945054945,4,2,1,60,0,0
134148,329.67032967033,4,2,1,60,1,0
134148,-99.9999999999999,4,2,1,60,0,1
142060,365.853658536585,4,2,1,60,1,0
142060,-90.1098901098902,4,2,1,60,0,0
144986,560.747663551402,4,2,1,60,1,0
144986,-58.7912087912088,4,2,1,60,0,0

[HitObjects]
36,192,510,5,0,1:0:0:0:
475,192,510,1,0,0:0:0:0:
256,192,2153,1,0,1:0:0:0:
256,192,2564,1,0,1:0:0:0:
256,192,3386,1,0,1:0:0:0:
256,192,3797,1,0,1:0:0:0:
36,192,5797,128,0,7797:1:0:0:0:
329,192,6297,128,0,6797:0:0:0:0:
475,192,6797,128,0,7297:0:0:0:0:
402,192,7297,128,0,7547:1:0:0:0:
329,192,7547,1,0,0:0:0:0:
329,192,7797,1,0,0:0:0:0:
182,192,7797,128,0,9797:1:0:0:0:
475,192,8297,128,0,8797:0:0:0:0:
329,192,8797,128,0,9297:0:0:0:0:
402,192,9297,128,0,9547:1:0:0:0:
475,192,9547,1,0,0:0:0:0:
36,192,9797,128,0,11797:1:0:0:0:
475,192,9797,1,0,0:0:0:0:
329,192,10297,128,0,10797:0:0:0:0:
475,192,10797,128,0,11297:0:0:0:0:
402,192,11297,128,0,11547:1:0:0:0:
329,192,11547,1,0,0:0:0:0:
182,192,11797,128,0,13797:1:0:0:0:
329,192,11797,1,0,0:0:0:0:
475,192,12297,128,0,13047:0:0:0:0:
329,192,13047,128,0,13547:0:0:0:0:
475,192,13547,128,0,13797:0:0:0:0:
109,192,13797,128,0,15797:1:0:0:0:
256,192,14297,128,0,14797:0:0:0:0:
475,192,14797,128,0,15297:0:0:0:0:
402,192,15297,128,0,15547:1:0:0:0:
329,192,15547,1,0,0:0:0:0:
36,192,15797,128,0,17797:1:0:0:0:
329,192,15797,1,0,0:0:0:0:
256,192,16297,128,0,16797:0:0:0:0:
475,192,16797,128,0,17297:0:0:0:0:
402,192,17297,128,0,17547:1:0:0:0:
329,192,17547,1,0,0:0:0:0:
329,192,17797,1,0,0:0:0:0:
109,192,17797,128,0,19797:1:0:0:0:
475,192,18297,128,0,18797:0:0:0:0:
256,192,18797,128,0,19297:0:0:0:0:
329,192,19297,128,0,19547:1:0:0:0:
402,192,19547,1,0,0:0:0:0:
36,192,19797,128,0,22104:0:0:0:0:
475,192,19797,128,0,22104:0:0:0:0:
256,192,19797,128,0,22104:1:0:0:0:
109,192,22566,128,0,23111:1:0:0:0:
329,192,22566,128,0,23111:0:0:0:0:
182,192,23111,128,0,23656:1:0:0:0:
402,192,23111,128,0,23656:0:0:0:0:
475,192,23657,128,0,24305:1:0:0:0:
36,192,23657,1,0,0:0:0:0:
109,192,23738,1,0,0:0:0:0:
182,192,23819,1,0,0:0:0:0:
329,192,23981,1,0,0:0:0:0:
256,192,24062,1,0,0:0:0:0:
182,192,24143,1,0,0:0:0:0:
109,192,24224,1,0,0:0:0:0:
36,192,24305,128,0,24954:1:0:0:0:
402,192,24305,1,0,0:0:0:0:
329,192,24386,1,0,0:0:0:0:
256,192,24467,1,0,0:0:0:0:
182,192,24548,1,0,0:0:0:0:
475,192,24629,1,0,0:0:0:0:
402,192,24711,1,0,0:0:0:0:
329,192,24792,1,0,0:0:0:0:
256,192,24873,1,0,0:0:0:0:
475,192,24954,128,0,25765:1:0:0:0:
109,192,24954,1,0,0:0:0:0:
182,192,25035,1,0,0:0:0:0:
256,192,25116,1,0,0:0:0:0:
329,192,25197,1,0,0:0:0:0:
36,192,25278,1,0,0:0:0:0:
109,192,25359,1,0,0:0:0:0:
182,192,25440,1,0,0:0:0:0:
256,192,25521,1,0,0:0:0:0:
329,192,25602,1,0,0:0:0:0:
402,192,25684,1,0,0:0:0:0:
36,192,25765,1,0,0:0:0:0:
256,192,25765,1,0,1:0:0:0:
109,192,25927,1,0,0:0:0:0:
329,192,25927,1,0,1:0:0:0:
182,192,26089,1,0,0:0:0:0:
402,192,26089,1,0,1:0:0:0:
256,192,26251,1,0,0:0:0:0:
475,192,26251,128,0,26900:1:0:0:0:
182,192,26332,1,0,0:0:0:0:
109,192,26413,1,0,0:0:0:0:
36,192,26494,1,0,0:0:0:0:
329,192,26575,1,0,0:0:0:0:
256,192,26656,1,0,0:0:0:0:
182,192,26738,1,0,0:0:0:0:
109,192,26819,1,0,0:0:0:0:
36,192,26900,128,0,27548:1:0:0:0:
402,192,26900,1,0,0:0:0:0:
329,192,26981,1,0,0:0:0:0:
256,192,27062,1,0,0:0:0:0:
182,192,27143,1,0,0:0:0:0:
109,192,27224,1,0,0:0:0:0:
182,192,27305,1,0,0:0:0:0:
256,192,27386,1,0,0:0:0:0:
329,192,27467,1,0,0:0:0:0:
475,192,27548,128,0,28359:1:0:0:0:
402,192,27548,1,0,0:0:0:0:
256,192,27629,1,0,0:0:0:0:
109,192,27711,1,0,0:0:0:0:
329,192,27792,1,0,0:0:0:0:
182,192,27873,1,0,0:0:0:0:
36,192,27954,1,0,0:0:0:0:
109,192,28035,1,0,0:0:0:0:
182,192,28116,1,0,0:0:0:0:
256,192,28197,1,0,0:0:0:0:
329,192,28278,1,0,0:0:0:0:
402,192,28359,1,0,0:0:0:0:
182,192,28359,1,0,1:0:0:0:
329,192,28521,1,0,0:0:0:0:
109,192,28521,1,0,1:0:0:0:
256,192,28684,1,0,0:0:0:0:
36,192,28684,1,0,1:0:0:0:
182,192,28846,1,0,0:0:0:0:
475,192,28846,128,0,30143:1:0:0:0:
256,192,28927,1,0,0:0:0:0:
329,192,29008,1,0,0:0:0:0:
402,192,29089,1,0,0:0:0:0:
36,192,29170,1,0,0:0:0:0:
109,192,29251,1,0,0:0:0:0:
182,192,29332,1,0,0:0:0:0:
256,192,29413,1,0,0:0:0:0:
402,192,29494,1,0,0:0:0:0:
329,192,29575,1,0,0:0:0:0:
256,192,29656,1,0,0:0:0:0:
182,192,29738,1,0,0:0:0:0:
109,192,29819,1,0,0:0:0:0:
329,192,29900,1,0,0:0:0:0:
256,192,29981,1,0,0:0:0:0:
182,192,30062,1,0,0:0:0:0:
109,192,30143,1,0,0:0:0:0:
36,192,30143,128,0,31440:1:0:0:0:
402,192,30143,1,0,0:0:0:0:
329,192,30224,1,0,0:0:0:0:
256,192,30305,1,0,0:0:0:0:
182,192,30386,1,0,0:0:0:0:
256,192,30467,1,0,0:0:0:0:
329,192,30548,1,0,0:0:0:0:
402,192,30629,1,0,0:0:0:0:
475,192,30711,1,0,0:0:0:0:
109,192,30792,1,0,0:0:0:0:
182,192,30873,1,0,0:0:0:0:
256,192,30954,1,0,0:0:0:0:
329,192,31035,1,0,0:0:0:0:
402,192,31116,1,0,0:0:0:0:
256,192,31197,1,0,0:0:0:0:
475,192,31278,1,0,0:0:0:0:
329,192,31359,1,0,0:0:0:0:
109,192,31440,1,0,0:0:0:0:
402,192,31440,1,0,1:0:0:0:
182,192,31684,1,0,0:0:0:0:
329,192,31684,1,0,1:0:0:0:
182,192,31765,128,0,32089:0:0:0:0:
329,192,31765,128,0,32089:1:0:0:0:
36,192,32089,128,0,32738:1:0:0:0:
475,192,32089,1,0,0:0:0:0:
402,192,32170,1,0,0:0:0:0:
329,192,32251,1,0,0:0:0:0:
256,192,32332,1,0,0:0:0:0:
182,192,32413,1,0,0:0:0:0:
256,192,32494,1,0,0:0:0:0:
329,192,32575,1,0,0:0:0:0:
402,192,32656,1,0,0:0:0:0:
109,192,32738,128,0,33386:0:0:0:0:
475,192,32738,1,0,0:0:0:0:
182,192,32738,1,0,1:0:0:0:
256,192,32900,1,0,1:0:0:0:
402,192,32900,1,0,0:0:0:0:
329,192,33062,1,0,1:0:0:0:
36,192,33062,1,0,0:0:0:0:
256,192,33224,1,0,1:0:0:0:
475,192,33224,1,0,0:0:0:0:
182,192,33386,128,0,34035:1:0:0:0:
402,192,33386,1,0,0:0:0:0:
329,192,33467,1,0,0:0:0:0:
36,192,33548,1,0,0:0:0:0:
109,192,33629,1,0,0:0:0:0:
475,192,33711,1,0,0:0:0:0:
402,192,33792,1,0,0:0:0:0:
36,192,33873,1,0,0:0:0:0:
109,192,33954,1,0,0:0:0:0:
329,192,34035,1,0,0:0:0:0:
475,192,34035,1,0,0:0:0:0:
36,192,34359,128,0,36976:0:0:0:0:
475,192,34359,128,0,36976:0:0:0:0:
256,192,34359,128,0,36976:1:0:0:0:
182,192,38210,1,0,0:0:0:0:
329,192,38379,1,0,0:0:0:0:
475,192,38548,1,0,1:0:0:0:
36,192,38548,1,0,0:0:0:0:
182,192,38886,1,0,0:0:0:0:
109,192,39225,1,0,0:0:0:0:
402,192,39225,1,0,1:0:0:0:
256,192,39564,1,0,0:0:0:0:
182,192,39903,1,0,1:0:0:0:
475,192,39903,1,0,0:0:0:0:
256,192,40242,1,0,0:0:0:0:
329,192,40581,1,0,0:0:0:0:
402,192,40920,1,0,0:0:0:0:
256,192,41259,1,0,0:0:0:0:
36,192,41259,1,0,1:0:0:0:
182,192,41598,1,0,0:0:0:0:
109,192,41937,1,0,1:0:0:0:
329,192,41937,1,0,0:0:0:0:
256,192,42276,1,0,0:0:0:0:
182,192,42615,1,0,1:0:0:0:
402,192,42615,1,0,0:0:0:0:
329,192,42954,1,0,0:0:0:0:
256,192,43293,1,0,0:0:0:0:
182,192,43632,1,0,0:0:0:0:
109,192,43971,1,0,1:0:0:0:
475,192,43971,128,0,44310:0:0:0:0:
36,192,44310,128,0,44649:0:0:0:0:
329,192,44310,1,0,0:0:0:0:
402,192,44649,128,0,44988:0:0:0:0:
182,192,44649,1,0,0:0:0:0:
109,192,44988,128,0,45327:0:0:0:0:
475,192,44988,1,0,0:0:0:0:
329,192,45327,128,0,45666:0:0:0:0:
36,192,45327,1,0,1:0:0:0:
402,192,45666,128,0,46005:0:0:0:0:
256,192,45666,1,0,0:0:0:0:
475,192,46005,128,0,46344:0:0:0:0:
109,192,46005,1,0,0:0:0:0:
36,192,46344,128,0,46683:0:0:0:0:
329,192,46344,1,0,0:0:0:0:
256,192,46683,128,0,48039:0:0:0:0:
475,192,46683,1,0,1:0:0:0:
182,192,46683,1,0,0:0:0:0:
109,192,47022,1,0,0:0:0:0:
402,192,47135,1,0,0:0:0:0:
109,192,47248,1,0,0:0:0:0:
475,192,47361,1,0,0:0:0:0:
329,192,47361,1,0,1:0:0:0:
182,192,47700,1,0,0:0:0:0:
402,192,48039,1,0,0:0:0:0:
36,192,48039,128,0,49395:1:0:0:0:
182,192,48378,1,0,0:0:0:0:
475,192,48717,128,0,49395:1:0:0:0:
329,192,48717,1,0,0:0:0:0:
109,192,49056,1,0,0:0:0:0:
402,192,49395,1,0,0:0:0:0:
256,192,49396,128,0,50385:1:0:0:0:
109,192,49560,1,0,0:0:0:0:
475,192,49725,1,0,0:0:0:0:
182,192,49890,1,0,0:0:0:0:
36,192,50055,1,0,0:0:0:0:
402,192,50220,1,0,0:0:0:0:
329,192,50385,128,0,50714:1:0:0:0:
109,192,50385,1,0,0:0:0:0:
182,192,50549,1,0,0:0:0:0:
402,192,50714,128,0,51703:1:0:0:0:
256,192,50714,1,0,0:0:0:0:
36,192,50879,1,0,0:0:0:0:
329,192,51044,1,0,0:0:0:0:
109,192,51209,1,0,0:0:0:0:
182,192,51374,1,0,0:0:0:0:
256,192,51538,1,0,0:0:0:0:
329,192,51703,1,0,0:0:0:0:
36,192,51703,128,0,52033:1:0:0:0:
475,192,51868,1,0,0:0:0:0:
109,192,52033,128,0,52692:1:0:0:0:
256,192,52033,1,0,0:0:0:0:
402,192,52198,1,0,0:0:0:0:
182,192,52363,1,0,0:0:0:0:
329,192,52527,1,0,0:0:0:0:
182,192,52692,128,0,53022:1:0:0:0:
36,192,52692,1,0,0:0:0:0:
402,192,52857,1,0,0:0:0:0:
475,192,53022,128,0,53352:1:0:0:0:
36,192,53022,1,0,0:0:0:0:
256,192,53187,1,0,0:0:0:0:
182,192,53352,1,0,0:0:0:0:
402,192,53352,128,0,53846:1:0:0:0:
36,192,53516,1,0,0:0:0:0:
109,192,53681,1,0,0:0:0:0:
329,192,53846,128,0,54341:1:0:0:0:
182,192,53846,1,0,0:0:0:0:
475,192,54011,1,0,0:0:0:0:
109,192,54176,1,0,0:0:0:0:
402,192,54341,1,0,0:0:0:0:
256,192,54341,128,0,54670:1:0:0:0:
36,192,54505,1,0,0:0:0:0:
182,192,54670,128,0,55165:1:0:0:0:
475,192,54670,1,0,0:0:0:0:
329,192,54835,1,0,0:0:0:0:
36,192,55000,1,0,0:0:0:0:
475,192,55165,1,0,0:0:0:0:
109,192,55165,128,0,55659:1:0:0:0:
329,192,55330,1,0,0:0:0:0:
182,192,55494,1,0,0:0:0:0:
402,192,55659,128,0,55989:1:0:0:0:
36,192,55659,1,0,0:0:0:0:
329,192,55824,1,0,0:0:0:0:
36,192,55989,128,0,56319:0:0:0:0:
256,192,55989,128,0,56319:1:0:0:0:
109,192,56319,128,0,56648:0:0:0:0:
329,192,56319,128,0,56648:1:0:0:0:
182,192,56648,128,0,56978:0:0:0:0:
402,192,56648,128,0,56978:1:0:0:0:
256,192,56978,128,0,57308:1:0:0:0:
36,192,56978,128,0,57308:0:0:0:0:
402,192,57308,128,0,57802:1:0:0:0:
182,192,57308,128,0,57802:0:0:0:0:
256,192,57802,128,0,58297:1:0:0:0:
475,192,57802,128,0,58627:0:0:0:0:
36,192,58297,128,0,58627:1:0:0:0:
182,192,58626,1,0,1:0:0:0:
182,192,58738,1,0,0:0:0:0:
182,192,58849,1,0,0:0:0:0:
402,192,58960,1,0,1:0:0:0:
402,192,59071,1,0,0:0:0:0:
402,192,59182,1,0,0:0:0:0:
109,192,59293,1,0,1:0:0:0:
109,192,59404,1,0,1:0:0:0:
109,192,59515,1,0,1:0:0:0:
329,192,59627,1,0,1:0:0:0:
329,192,59738,1,0,1:0:0:0:
329,192,59849,1,0,1:0:0:0:
182,192,59960,1,0,0:0:0:0:
36,192,59960,1,4,0:0:0:0:
475,192,59960,1,0,1:0:0:0:
36,192,60071,1,0,0:0:0:0:
36,192,60182,1,0,0:0:0:0:
256,192,60293,1,0,1:0:0:0:
256,192,60404,1,0,0:0:0:0:
256,192,60515,1,0,0:0:0:0:
109,192,60627,1,0,1:0:0:0:
109,192,60738,1,0,1:0:0:0:
109,192,60849,1,0,1:0:0:0:
329,192,60960,1,0,1:0:0:0:
329,192,61071,1,0,1:0:0:0:
329,192,61182,1,0,1:0:0:0:
182,192,61293,1,0,1:0:0:0:
182,192,61404,1,0,1:0:0:0:
182,192,61515,1,0,1:0:0:0:
256,192,61627,1,0,1:0:0:0:
256,192,61738,1,0,1:0:0:0:
256,192,61849,1,0,1:0:0:0:
36,192,61960,1,0,1:0:0:0:
36,192,62071,1,0,0:0:0:0:
36,192,62182,1,0,0:0:0:0:
402,192,62293,1,0,1:0:0:0:
402,192,62404,1,0,0:0:0:0:
402,192,62515,1,0,0:0:0:0:
182,192,62626,1,0,1:0:0:0:
182,192,62738,1,0,0:0:0:0:
182,192,62849,1,0,0:0:0:0:
329,192,62960,1,0,1:0:0:0:
329,192,63071,1,0,0:0:0:0:
329,192,63182,1,0,0:0:0:0:
109,192,63293,1,0,1:0:0:0:
109,192,63404,1,0,1:0:0:0:
109,192,63515,1,0,1:0:0:0:
475,192,63626,1,0,1:0:0:0:
402,192,63682,1,0,0:0:0:0:
329,192,63738,1,0,0:0:0:0:
256,192,63793,1,0,0:0:0:0:
182,192,63849,1,0,0:0:0:0:
109,192,63904,1,0,0:0:0:0:
36,192,63960,1,0,1:0:0:0:
256,192,64071,1,0,0:0:0:0:
475,192,64182,1,0,0:0:0:0:
109,192,64293,1,0,0:0:0:0:
256,192,64404,1,0,0:0:0:0:
402,192,64515,1,0,1:0:0:0:
182,192,64626,1,0,0:0:0:0:
256,192,64738,1,0,1:0:0:0:
329,192,64849,1,0,0:0:0:0:
36,192,64960,1,0,1:0:0:0:
256,192,65071,1,0,1:0:0:0:
475,192,65182,1,0,1:0:0:0:
109,192,65293,1,4,0:0:0:0:
36,192,65293,1,0,1:0:0:0:
256,192,65404,1,0,0:0:0:0:
109,192,65515,1,0,1:0:0:0:
329,192,65626,1,0,0:0:0:0:
182,192,65738,1,0,1:0:0:0:
329,192,65849,1,0,0:0:0:0:
256,192,65960,1,0,0:0:0:0:
402,192,66071,1,0,0:0:0:0:
256,192,66182,1,0,1:0:0:0:
475,192,66293,1,0,0:0:0:0:
329,192,66404,1,0,0:0:0:0:
475,192,66515,1,0,0:0:0:0:
36,192,66626,1,0,1:0:0:0:
182,192,66738,1,0,1:0:0:0:
182,192,66849,1,0,1:0:0:0:
109,192,66960,1,0,1:0:0:0:
256,192,67071,1,0,1:0:0:0:
256,192,67182,1,0,1:0:0:0:
182,192,67293,1,0,1:0:0:0:
256,192,67349,1,0,0:0:0:0:
329,192,67404,1,0,0:0:0:0:
402,192,67460,1,0,0:0:0:0:
475,192,67515,1,0,0:0:0:0:
36,192,67571,1,0,0:0:0:0:
109,192,67626,1,0,0:0:0:0:
182,192,67682,1,0,0:0:0:0:
256,192,67738,1,0,0:0:0:0:
329,192,67793,1,0,0:0:0:0:
402,192,67849,1,0,0:0:0:0:
475,192,67904,1,0,0:0:0:0:
109,192,67960,1,0,1:0:0:0:
36,192,67960,1,4,0:0:0:0:
329,192,68071,1,0,1:0:0:0:
329,192,68182,1,0,1:0:0:0:
182,192,68293,1,0,1:0:0:0:
402,192,68404,1,0,1:0:0:0:
402,192,68515,1,0,1:0:0:0:
256,192,68626,1,0,1:0:0:0:
475,192,68738,1,0,1:0:0:0:
475,192,68849,1,0,1:0:0:0:
182,192,68960,1,0,1:0:0:0:
329,192,69071,1,0,1:0:0:0:
329,192,69182,1,0,1:0:0:0:
109,192,69293,1,0,1:0:0:0:
36,192,69293,1,4,0:0:0:0:
402,192,69404,1,0,1:0:0:0:
402,192,69515,1,0,1:0:0:0:
182,192,69626,1,0,1:0:0:0:
475,192,69738,1,0,1:0:0:0:
475,192,69849,1,0,1:0:0:0:
329,192,69960,1,0,1:0:0:0:
109,192,70071,1,0,1:0:0:0:
109,192,70182,1,0,1:0:0:0:
402,192,70293,1,0,1:0:0:0:
36,192,70404,1,0,1:0:0:0:
36,192,70515,1,0,1:0:0:0:
256,192,70626,1,0,1:0:0:0:
475,192,70626,1,4,0:0:0:0:
182,192,70738,1,0,1:0:0:0:
109,192,70849,1,0,1:0:0:0:
329,192,70960,1,0,1:0:0:0:
256,192,71071,1,0,1:0:0:0:
182,192,71182,1,0,1:0:0:0:
402,192,71293,1,0,0:0:0:0:
109,192,71293,1,0,1:0:0:0:
182,192,71626,1,0,1:0:0:0:
329,192,71626,1,0,0:0:0:0:
109,192,71960,1,0,1:0:0:0:
402,192,71960,1,0,0:0:0:0:
256,192,71960,1,0,0:0:0:0:
109,192,72293,1,0,1:0:0:0:
402,192,72293,1,0,0:0:0:0:
256,192,72293,1,0,0:0:0:0:
475,192,72626,1,0,1:0:0:0:
329,192,72738,1,0,1:0:0:0:
475,192,72849,1,0,1:0:0:0:
36,192,72960,1,0,1:0:0:0:
182,192,73071,1,0,1:0:0:0:
36,192,73182,1,0,1:0:0:0:
475,192,73293,1,0,1:0:0:0:
256,192,73293,1,0,0:0:0:0:
475,192,74175,1,0,1:0:0:0:
329,192,74351,1,0,1:0:0:0:
182,192,74528,1,0,1:0:0:0:
475,192,74704,1,0,1:0:0:0:
402,192,74793,1,0,1:0:0:0:
329,192,74881,1,0,1:0:0:0:
256,192,74969,1,0,1:0:0:0:
182,192,75057,1,0,1:0:0:0:
109,192,75140,1,0,1:0:0:0:
36,192,75222,1,0,1:0:0:0:
475,192,75305,1,0,1:0:0:0:
329,192,75424,1,0,1:0:0:0:
182,192,75563,1,0,1:0:0:0:
36,192,75721,128,0,76131:1:0:0:0:
256,192,75721,128,0,76131:0:0:0:0:
109,192,76131,128,0,76542:1:0:0:0:
329,192,76131,128,0,76542:0:0:0:0:
182,192,76542,128,0,76953:1:0:0:0:
402,192,76542,128,0,76954:0:0:0:0:
475,192,76954,128,0,78272:0:0:0:0:
256,192,76954,1,0,1:0:0:0:
36,192,76954,1,4,0:0:0:0:
256,192,77118,1,0,1:0:0:0:
36,192,77118,1,0,0:0:0:0:
36,192,77283,1,0,1:0:0:0:
109,192,77366,1,0,0:0:0:0:
182,192,77448,1,0,0:0:0:0:
256,192,77530,1,0,0:0:0:0:
329,192,77613,1,0,1:0:0:0:
36,192,77613,1,0,0:0:0:0:
329,192,77778,1,0,1:0:0:0:
36,192,77778,1,0,0:0:0:0:
109,192,77860,1,0,0:0:0:0:
182,192,77943,1,0,1:0:0:0:
256,192,78025,1,0,0:0:0:0:
182,192,78107,1,0,0:0:0:0:
109,192,78190,1,0,0:0:0:0:
256,192,78272,128,0,79591:0:0:0:0:
36,192,78272,1,0,1:0:0:0:
402,192,78272,1,0,0:0:0:0:
402,192,78437,1,0,0:0:0:0:
36,192,78437,1,0,1:0:0:0:
36,192,78602,1,0,1:0:0:0:
109,192,78684,1,0,0:0:0:0:
182,192,78767,1,0,0:0:0:0:
329,192,78849,1,0,0:0:0:0:
475,192,78932,1,0,1:0:0:0:
402,192,79014,1,0,0:0:0:0:
329,192,79096,1,0,0:0:0:0:
109,192,79179,1,0,0:0:0:0:
182,192,79261,1,0,1:0:0:0:
329,192,79344,1,0,0:0:0:0:
402,192,79426,1,0,0:0:0:0:
475,192,79508,1,0,0:0:0:0:
36,192,79591,128,0,80910:0:0:0:0:
182,192,79591,1,0,0:0:0:0:
329,192,79591,1,0,1:0:0:0:
182,192,79756,1,0,0:0:0:0:
329,192,79756,1,0,1:0:0:0:
329,192,79921,1,0,1:0:0:0:
402,192,80003,1,0,0:0:0:0:
475,192,80085,1,0,0:0:0:0:
109,192,80168,1,0,0:0:0:0:
182,192,80250,1,0,1:0:0:0:
402,192,80250,1,0,0:0:0:0:
402,192,80415,1,0,0:0:0:0:
182,192,80415,1,0,1:0:0:0:
329,192,80497,1,0,0:0:0:0:
182,192,80580,1,0,1:0:0:0:
256,192,80662,1,0,0:0:0:0:
329,192,80745,1,0,0:0:0:0:
402,192,80827,1,0,0:0:0:0:
256,192,80910,128,0,81734:0:0:0:0:
475,192,80910,1,0,1:0:0:0:
109,192,80910,1,0,0:0:0:0:
475,192,81239,1,0,1:0:0:0:
402,192,81322,1,0,0:0:0:0:
329,192,81404,1,0,0:0:0:0:
36,192,81486,1,0,0:0:0:0:
109,192,81569,1,0,1:0:0:0:
182,192,81651,1,0,0:0:0:0:
329,192,81734,1,0,0:0:0:0:
402,192,81899,128,0,82063:1:0:0:0:
475,192,82063,128,0,82228:1:0:0:0:
36,192,82228,128,0,83217:0:0:0:0:
182,192,82228,1,0,0:0:0:0:
329,192,82228,1,0,1:0:0:0:
182,192,82393,1,0,0:0:0:0:
329,192,82393,1,0,1:0:0:0:
329,192,82558,1,0,1:0:0:0:
256,192,82640,1,0,0:0:0:0:
182,192,82723,1,0,0:0:0:0:
109,192,82805,1,0,0:0:0:0:
475,192,82888,1,0,1:0:0:0:
402,192,82970,1,0,0:0:0:0:
329,192,83052,1,0,0:0:0:0:
256,192,83135,1,0,0:0:0:0:
182,192,83217,128,0,83382:1:0:0:0:
329,192,83382,128,0,83547:1:0:0:0:
475,192,83547,128,0,84371:0:0:0:0:
36,192,83547,1,0,0:0:0:0:
182,192,83547,1,0,1:0:0:0:
36,192,83712,1,0,0:0:0:0:
182,192,83712,1,0,1:0:0:0:
182,192,83877,1,0,1:0:0:0:
256,192,83959,1,0,0:0:0:0:
329,192,84041,1,0,0:0:0:0:
402,192,84124,1,0,0:0:0:0:
36,192,84206,1,0,1:0:0:0:
109,192,84289,1,0,0:0:0:0:
182,192,84371,1,0,0:0:0:0:
402,192,84371,1,0,0:0:0:0:
329,192,84454,1,0,0:0:0:0:
109,192,84536,1,0,0:0:0:0:
475,192,84536,1,0,1:0:0:0:
402,192,84701,1,0,0:0:0:0:
36,192,84701,1,0,0:0:0:0:
329,192,84866,1,0,1:0:0:0:
182,192,84948,1,0,0:0:0:0:
329,192,85030,1,0,0:0:0:0:
402,192,85113,1,0,0:0:0:0:
475,192,85195,1,0,1:0:0:0:
182,192,85278,1,0,0:0:0:0:
109,192,85360,1,0,0:0:0:0:
36,192,85443,1,0,0:0:0:0:
329,192,85525,1,0,1:0:0:0:
256,192,85607,1,0,0:0:0:0:
182,192,85690,1,0,0:0:0:0:
109,192,85772,1,0,0:0:0:0:
402,192,85855,1,0,1:0:0:0:
329,192,85937,1,0,0:0:0:0:
256,192,86019,1,0,0:0:0:0:
329,192,86102,1,0,0:0:0:0:
402,192,86184,1,0,0:0:0:0:
36,192,86185,1,0,1:0:0:0:
182,192,86271,1,0,0:0:0:0:
109,192,86357,1,0,0:0:0:0:
475,192,86357,1,0,0:0:0:0:
329,192,86443,1,0,0:0:0:0:
402,192,86529,1,0,1:0:0:0:
36,192,86529,1,0,0:0:0:0:
182,192,86616,1,0,0:0:0:0:
109,192,86702,1,0,0:0:0:0:
475,192,86702,1,0,0:0:0:0:
329,192,86788,1,0,0:0:0:0:
402,192,86874,1,0,0:0:0:0:
36,192,86874,1,0,1:0:0:0:
109,192,87047,1,0,1:0:0:0:
329,192,87047,1,0,0:0:0:0:
182,192,87206,1,0,1:0:0:0:
402,192,87206,1,0,0:0:0:0:
256,192,87366,1,0,1:0:0:0:
475,192,87366,1,0,0:0:0:0:
329,192,87525,1,0,1:0:0:0:
36,192,87525,1,4,0:0:0:0:
329,192,87684,1,0,1:0:0:0:
36,192,87684,1,2,0:0:0:0:
109,192,87844,1,2,0:0:0:0:
182,192,87923,1,0,0:0:0:0:
256,192,88003,1,2,0:0:0:0:
329,192,88083,1,2,0:0:0:0:
402,192,88163,1,2,0:0:0:0:
36,192,88163,1,0,1:0:0:0:
36,192,88322,1,2,0:0:0:0:
402,192,88322,1,0,0:0:0:0:
109,192,88402,1,2,0:0:0:0:
182,192,88482,1,2,0:0:0:0:
256,192,88562,1,2,0:0:0:0:
329,192,88642,1,2,0:0:0:0:
256,192,88721,1,2,0:0:0:0:
182,192,88801,1,2,0:0:0:0:
475,192,88801,1,0,1:0:0:0:
182,192,88961,1,2,0:0:0:0:
475,192,88961,1,0,1:0:0:0:
36,192,89120,1,2,0:0:0:0:
109,192,89200,1,0,0:0:0:0:
182,192,89280,1,2,0:0:0:0:
329,192,89360,1,2,0:0:0:0:
402,192,89439,1,2,0:0:0:0:
475,192,89519,1,0,0:0:0:0:
182,192,89599,1,2,0:0:0:0:
109,192,89679,1,2,0:0:0:0:
36,192,89759,1,2,0:0:0:0:
475,192,89838,1,2,0:0:0:0:
402,192,89918,1,2,0:0:0:0:
329,192,89998,1,2,0:0:0:0:
256,192,90078,1,2,0:0:0:0:
36,192,90078,1,0,1:0:0:0:
256,192,90237,1,2,0:0:0:0:
36,192,90237,1,0,1:0:0:0:
329,192,90317,1,2,0:0:0:0:
402,192,90397,1,2,0:0:0:0:
109,192,90477,1,0,0:0:0:0:
182,192,90556,1,2,0:0:0:0:
256,192,90636,1,2,0:0:0:0:
329,192,90716,1,2,0:0:0:0:
36,192,90716,1,0,1:0:0:0:
36,192,90876,1,0,0:0:0:0:
329,192,90876,1,2,0:0:0:0:
256,192,90955,1,2,0:0:0:0:
182,192,91035,1,2,0:0:0:0:
109,192,91115,1,2,0:0:0:0:
402,192,91195,1,2,0:0:0:0:
329,192,91275,1,2,0:0:0:0:
256,192,91354,1,2,0:0:0:0:
36,192,91354,1,0,1:0:0:0:
109,192,91673,1,0,1:0:0:0:
475,192,91673,1,0,0:0:0:0:
402,192,91753,1,0,0:0:0:0:
329,192,91833,1,2,0:0:0:0:
256,192,91913,1,2,0:0:0:0:
475,192,91993,1,2,0:0:0:0:
329,192,92072,1,2,0:0:0:0:
182,192,92152,1,2,0:0:0:0:
36,192,92312,1,2,0:0:0:0:
256,192,92312,1,0,1:0:0:0:
329,192,92471,1,0,1:0:0:0:
109,192,92471,1,2,0:0:0:0:
182,192,92631,1,2,0:0:0:0:
402,192,92631,1,0,1:0:0:0:
475,192,92631,1,4,0:0:0:0:
182,192,92790,1,2,0:0:0:0:
329,192,92950,1,2,0:0:0:0:
256,192,93030,1,0,0:0:0:0:
182,192,93110,1,2,0:0:0:0:
109,192,93189,1,2,0:0:0:0:
402,192,93269,1,2,0:0:0:0:
329,192,93349,1,0,0:0:0:0:
256,192,93429,1,2,0:0:0:0:
182,192,93509,1,2,0:0:0:0:
475,192,93588,1,0,1:0:0:0:
109,192,93588,1,2,0:0:0:0:
36,192,93748,1,0,1:0:0:0:
402,192,93748,1,2,0:0:0:0:
329,192,93907,1,2,0:0:0:0:
182,192,93907,1,0,1:0:0:0:
182,192,94067,1,2,0:0:0:0:
256,192,94227,1,2,0:0:0:0:
329,192,94306,1,0,0:0:0:0:
402,192,94386,1,2,0:0:0:0:
475,192,94466,1,2,0:0:0:0:
182,192,94546,1,2,0:0:0:0:
109,192,94626,1,0,0:0:0:0:
329,192,94705,1,2,0:0:0:0:
36,192,94705,1,0,1:0:0:0:
256,192,94785,1,2,0:0:0:0:
182,192,94865,1,2,0:0:0:0:
475,192,94865,1,0,1:0:0:0:
402,192,95025,1,2,0:0:0:0:
109,192,95025,1,0,1:0:0:0:
329,192,95184,1,2,0:0:0:0:
36,192,95184,1,4,0:0:0:0:
256,192,95184,1,0,1:0:0:0:
109,192,95264,1,2,0:0:0:0:
182,192,95344,1,2,0:0:0:0:
256,192,95423,1,2,0:0:0:0:
329,192,95503,1,2,0:0:0:0:
109,192,95583,1,2,0:0:0:0:
182,192,95663,1,2,0:0:0:0:
256,192,95743,1,2,0:0:0:0:
36,192,95822,1,4,0:0:0:0:
329,192,95822,1,2,0:0:0:0:
475,192,95902,1,0,0:0:0:0:
256,192,95982,1,0,0:0:0:0:
402,192,96062,1,0,0:0:0:0:
182,192,96142,1,0,0:0:0:0:
329,192,96221,1,0,0:0:0:0:
109,192,96301,1,0,0:0:0:0:
256,192,96381,1,0,0:0:0:0:
36,192,96461,1,0,0:0:0:0:
475,192,96461,1,0,1:0:0:0:
182,192,96540,1,0,0:0:0:0:
329,192,96540,1,0,1:0:0:0:
182,192,96700,1,0,0:0:0:0:
329,192,96700,1,0,1:0:0:0:
182,192,96860,1,0,0:0:0:0:
329,192,96860,1,0,1:0:0:0:
182,192,97019,1,0,0:0:0:0:
329,192,97019,1,0,1:0:0:0:
36,192,97099,128,0,97743:0:0:0:0:
475,192,97099,128,0,97743:1:0:0:0:
256,192,97743,128,0,99040:0:0:0:0:
109,192,97743,1,4,0:0:0:0:
402,192,97743,1,0,1:0:0:0:
329,192,97905,1,0,1:0:0:0:
402,192,98067,1,0,1:0:0:0:
329,192,98229,1,0,1:0:0:0:
36,192,98391,1,0,1:0:0:0:
475,192,98634,128,0,98878:1:0:0:0:
402,192,98878,128,0,99040:1:0:0:0:
36,192,99040,128,0,100337:0:0:0:0:
182,192,99040,1,0,1:0:0:0:
109,192,99202,1,0,1:0:0:0:
182,192,99364,1,0,1:0:0:0:
109,192,99526,1,0,1:0:0:0:
402,192,99688,1,0,1:0:0:0:
329,192,99932,128,0,100175:1:0:0:0:
182,192,100175,128,0,100337:1:0:0:0:
475,192,100337,128,0,101634:0:0:0:0:
256,192,100337,1,0,0:0:0:0:
402,192,100337,1,0,1:0:0:0:
182,192,100580,1,0,0:0:0:0:
329,192,100580,1,0,1:0:0:0:
109,192,100824,1,0,0:0:0:0:
256,192,100824,1,0,1:0:0:0:
329,192,100986,1,0,1:0:0:0:
402,192,100986,1,0,0:0:0:0:
256,192,101229,1,0,0:0:0:0:
182,192,101229,1,0,1:0:0:0:
109,192,101472,1,0,0:0:0:0:
36,192,101472,1,0,1:0:0:0:
256,192,101634,128,0,102770:1:0:0:0:
36,192,101959,1,0,1:0:0:0:
182,192,102040,1,0,0:0:0:0:
329,192,102121,1,0,0:0:0:0:
475,192,102202,1,0,0:0:0:0:
109,192,102283,1,0,1:0:0:0:
402,192,102364,1,0,0:0:0:0:
182,192,102445,1,0,0:0:0:0:
329,192,102526,1,0,0:0:0:0:
36,192,102607,1,0,0:0:0:0:
109,192,102607,1,0,1:0:0:0:
402,192,102770,1,0,1:0:0:0:
475,192,102770,1,0,0:0:0:0:
256,192,102932,128,0,104229:1:0:0:0:
109,192,102932,1,4,0:0:0:0:
182,192,103094,1,0,1:0:0:0:
109,192,103256,1,0,1:0:0:0:
182,192,103418,1,0,1:0:0:0:
475,192,103580,1,4,0:0:0:0:
329,192,103580,1,0,0:0:0:0:
36,192,103824,128,0,104067:1:0:0:0:
109,192,104067,128,0,104229:1:0:0:0:
475,192,104229,128,0,105526:1:0:0:0:
329,192,104229,1,4,0:0:0:0:
402,192,104391,1,0,1:0:0:0:
329,192,104553,1,0,1:0:0:0:
402,192,104715,1,0,1:0:0:0:
182,192,104878,1,4,0:0:0:0:
36,192,104878,1,0,0:0:0:0:
256,192,105121,128,0,105364:1:0:0:0:
182,192,105364,128,0,105526:1:0:0:0:
36,192,105526,128,0,106825:0:0:0:0:
329,192,105526,1,0,1:0:0:0:
402,192,105526,1,4,0:0:0:0:
256,192,105770,1,0,1:0:0:0:
329,192,105770,1,0,0:0:0:0:
256,192,106013,1,0,0:0:0:0:
182,192,106013,1,0,1:0:0:0:
329,192,106175,1,4,0:0:0:0:
475,192,106175,1,0,1:0:0:0:
402,192,106418,1,0,1:0:0:0:
256,192,106418,1,0,0:0:0:0:
329,192,106661,1,0,1:0:0:0:
182,192,106661,1,0,0:0:0:0:
256,192,106824,128,0,107825:0:0:0:0:
402,192,106825,1,0,1:0:0:0:
109,192,106825,1,4,0:0:0:0:
109,192,107325,1,4,0:0:0:0:
402,192,107325,1,0,1:0:0:0:
402,192,107825,1,0,1:0:0:0:
109,192,107825,1,4,0:0:0:0:
182,192,109390,1,0,1:0:0:0:
475,192,109596,1,0,1:0:0:0:
109,192,109801,1,0,1:0:0:0:
402,192,110007,1,0,0:0:0:0:
329,192,110212,1,0,0:0:0:0:
256,192,110418,1,0,1:0:0:0:
182,192,110623,1,0,1:0:0:0:
329,192,110829,1,0,0:0:0:0:
109,192,110931,1,0,1:0:0:0:
256,192,111034,1,0,0:0:0:0:
182,192,111240,1,0,1:0:0:0:
329,192,111445,1,0,0:0:0:0:
109,192,111651,1,0,0:0:0:0:
402,192,111856,1,0,0:0:0:0:
182,192,112062,1,0,0:0:0:0:
475,192,112267,1,0,0:0:0:0:
256,192,112473,1,0,0:0:0:0:
182,192,112678,1,0,1:0:0:0:
109,192,112884,1,0,1:0:0:0:
36,192,113089,1,0,1:0:0:0:
182,192,113294,1,0,0:0:0:0:
329,192,113500,1,0,0:0:0:0:
475,192,113705,1,0,1:0:0:0:
109,192,113911,1,0,1:0:0:0:
256,192,114116,1,0,0:0:0:0:
36,192,114219,1,0,1:0:0:0:
402,192,114322,1,0,0:0:0:0:
182,192,114527,1,0,1:0:0:0:
109,192,114733,1,0,0:0:0:0:
402,192,114938,1,0,0:0:0:0:
329,192,115144,1,0,0:0:0:0:
256,192,115349,1,0,0:0:0:0:
182,192,115555,1,0,0:0:0:0:
256,192,115760,1,0,0:0:0:0:
329,192,115966,1,0,1:0:0:0:
402,192,116171,1,0,1:0:0:0:
109,192,116377,1,0,1:0:0:0:
475,192,116582,1,0,0:0:0:0:
182,192,116788,1,0,0:0:0:0:
402,192,116993,1,0,1:0:0:0:
36,192,117199,1,0,1:0:0:0:
329,192,117404,1,0,0:0:0:0:
109,192,117507,1,0,1:0:0:0:
402,192,117610,1,0,0:0:0:0:
182,192,117815,1,0,1:0:0:0:
256,192,118021,1,0,0:0:0:0:
329,192,118226,1,0,0:0:0:0:
109,192,118431,1,0,0:0:0:0:
256,192,118637,1,0,0:0:0:0:
402,192,118842,1,0,0:0:0:0:
256,192,119048,1,0,0:0:0:0:
109,192,119253,1,0,1:0:0:0:
402,192,119459,1,0,1:0:0:0:
329,192,119664,1,0,1:0:0:0:
256,192,119870,1,0,1:0:0:0:
475,192,120075,1,0,1:0:0:0:
329,192,120281,1,0,1:0:0:0:
182,192,120486,1,0,0:0:0:0:
256,192,120692,1,0,0:0:0:0:
329,192,120897,1,0,0:0:0:0:
402,192,121103,1,0,0:0:0:0:
475,192,121308,1,0,1:0:0:0:
36,192,121309,1,0,0:0:0:0:
182,192,121400,1,0,0:0:0:0:
329,192,121491,1,0,0:0:0:0:
475,192,121583,1,0,0:0:0:0:
329,192,121674,1,0,0:0:0:0:
182,192,121766,1,0,0:0:0:0:
36,192,121857,1,0,0:0:0:0:
182,192,121949,1,0,0:0:0:0:
329,192,122040,1,0,0:0:0:0:
475,192,122132,1,0,0:0:0:0:
329,192,122223,1,0,0:0:0:0:
182,192,122315,1,0,0:0:0:0:
36,192,122406,1,0,1:0:0:0:
182,192,122498,1,0,0:0:0:0:
329,192,122589,1,0,1:0:0:0:
475,192,122680,1,0,0:0:0:0:
36,192,122772,1,0,1:0:0:0:
256,192,122772,1,4,0:0:0:0:
109,192,122955,1,0,0:0:0:0:
329,192,122955,1,0,0:0:0:0:
182,192,123138,1,0,0:0:0:0:
402,192,123138,1,0,0:0:0:0:
256,192,123321,1,0,1:0:0:0:
475,192,123321,1,0,0:0:0:0:
109,192,123504,1,0,1:0:0:0:
329,192,123595,1,0,0:0:0:0:
36,192,123687,1,0,0:0:0:0:
329,192,123778,1,0,1:0:0:0:
109,192,123869,1,0,0:0:0:0:
329,192,123961,1,0,0:0:0:0:
36,192,124052,1,0,1:0:0:0:
256,192,124235,1,0,0:0:0:0:
475,192,124327,1,0,0:0:0:0:
329,192,124510,1,0,0:0:0:0:
109,192,124601,1,0,0:0:0:0:
402,192,124693,1,0,0:0:0:0:
182,192,124876,1,0,0:0:0:0:
329,192,124967,1,0,0:0:0:0:
475,192,125059,1,0,0:0:0:0:
256,192,125241,1,0,0:0:0:0:
36,192,125333,1,0,1:0:0:0:
402,192,125424,1,0,0:0:0:0:
109,192,125516,1,0,1:0:0:0:
329,192,125607,1,0,0:0:0:0:
182,192,125699,1,0,1:0:0:0:
182,192,125790,1,0,0:0:0:0:
329,192,125882,1,0,0:0:0:0:
329,192,125973,1,0,0:0:0:0:
182,192,126065,1,0,0:0:0:0:
36,192,126156,1,0,0:0:0:0:
402,192,126248,1,0,1:0:0:0:
182,192,126339,1,0,0:0:0:0:
329,192,126430,1,0,1:0:0:0:
475,192,126430,1,0,0:0:0:0:
256,192,126705,1,0,1:0:0:0:
36,192,126705,1,0,0:0:0:0:
109,192,126979,1,0,1:0:0:0:
402,192,126979,1,0,0:0:0:0:
329,192,127071,1,0,0:0:0:0:
256,192,127162,1,0,0:0:0:0:
109,192,127250,1,0,0:0:0:0:
402,192,127338,1,0,0:0:0:0:
256,192,127426,1,0,0:0:0:0:
109,192,127514,1,0,0:0:0:0:
329,192,127691,1,0,0:0:0:0:
109,192,127867,1,0,0:0:0:0:
182,192,127956,1,0,0:0:0:0:
256,192,128044,1,0,0:0:0:0:
329,192,128132,1,0,0:0:0:0:
402,192,128220,1,0,1:0:0:0:
36,192,128220,1,0,0:0:0:0:
182,192,128397,1,0,1:0:0:0:
256,192,128485,1,0,0:0:0:0:
329,192,128573,1,0,0:0:0:0:
475,192,128573,1,0,1:0:0:0:
109,192,128750,1,0,0:0:0:0:
329,192,128750,1,0,0:0:0:0:
182,192,128838,1,0,0:0:0:0:
256,192,128926,1,0,0:0:0:0:
36,192,128926,1,0,0:0:0:0:
329,192,129014,1,0,0:0:0:0:
402,192,129103,1,0,1:0:0:0:
475,192,129103,1,0,0:0:0:0:
182,192,129191,1,0,0:0:0:0:
329,192,129279,1,0,1:0:0:0:
402,192,129279,1,0,0:0:0:0:
109,192,129367,1,0,0:0:0:0:
256,192,129456,1,0,0:0:0:0:
402,192,129544,1,0,1:0:0:0:
109,192,129632,1,0,0:0:0:0:
182,192,129720,1,0,0:0:0:0:
256,192,129809,1,0,1:0:0:0:
329,192,129897,1,0,0:0:0:0:
36,192,129986,1,0,0:0:0:0:
109,192,130072,1,0,0:0:0:0:
182,192,130159,1,0,0:0:0:0:
256,192,130246,1,0,0:0:0:0:
329,192,130332,1,0,0:0:0:0:
475,192,130506,1,0,0:0:0:0:
402,192,130592,1,0,0:0:0:0:
329,192,130679,1,0,0:0:0:0:
256,192,130766,1,0,0:0:0:0:
182,192,130853,1,0,0:0:0:0:
109,192,130939,1,0,0:0:0:0:
182,192,131026,1,0,1:0:0:0:
256,192,131113,1,0,0:0:0:0:
329,192,131199,1,0,1:0:0:0:
402,192,131286,1,0,0:0:0:0:
475,192,131373,1,0,1:0:0:0:
36,192,131373,1,0,0:0:0:0:
182,192,131459,1,0,0:0:0:0:
109,192,131546,1,0,1:0:0:0:
402,192,131546,1,0,0:0:0:0:
329,192,131633,1,0,0:0:0:0:
36,192,131720,1,0,1:0:0:0:
475,192,131720,1,0,0:0:0:0:
182,192,131806,1,0,0:0:0:0:
109,192,131893,1,0,0:0:0:0:
329,192,131893,1,0,1:0:0:0:
182,192,132066,1,0,0:0:0:0:
36,192,132066,1,0,0:0:0:0:
402,192,132153,1,0,0:0:0:0:
109,192,132240,1,0,0:0:0:0:
256,192,132240,1,0,0:0:0:0:
475,192,132327,1,0,0:0:0:0:
329,192,132413,1,0,0:0:0:0:
182,192,132413,1,0,0:0:0:0:
402,192,132587,1,0,0:0:0:0:
256,192,132673,1,0,0:0:0:0:
109,192,132760,1,0,0:0:0:0:
182,192,132847,1,0,0:0:0:0:
256,192,132933,1,0,0:0:0:0:
329,192,133020,1,0,0:0:0:0:
402,192,133107,1,0,0:0:0:0:
109,192,133280,1,0,0:0:0:0:
182,192,133367,1,0,0:0:0:0:
256,192,133454,1,0,0:0:0:0:
329,192,133512,1,0,0:0:0:0:
402,192,133569,1,0,0:0:0:0:
475,192,133627,1,0,0:0:0:0:
256,192,133685,1,0,0:0:0:0:
182,192,133743,1,0,0:0:0:0:
109,192,133801,1,0,0:0:0:0:
36,192,133858,1,0,0:0:0:0:
329,192,133916,1,0,0:0:0:0:
256,192,133974,1,0,0:0:0:0:
182,192,134032,1,0,0:0:0:0:
109,192,134090,1,0,0:0:0:0:
475,192,134147,1,0,1:0:0:0:
36,192,134148,1,4,0:0:0:0:
36,192,134312,1,0,0:0:0:0:
475,192,134312,1,0,1:0:0:0:
182,192,134477,1,0,0:0:0:0:
256,192,134560,1,0,0:0:0:0:
329,192,134642,1,0,0:0:0:0:
402,192,134724,1,0,0:0:0:0:
36,192,134807,1,0,1:0:0:0:
475,192,134807,1,0,0:0:0:0:
475,192,134972,1,0,0:0:0:0:
36,192,134972,1,0,1:0:0:0:
329,192,135137,1,0,0:0:0:0:
256,192,135219,1,0,0:0:0:0:
182,192,135301,1,0,0:0:0:0:
109,192,135384,1,0,0:0:0:0:
36,192,135466,1,0,0:0:0:0:
475,192,135466,1,0,1:0:0:0:
36,192,135631,1,0,0:0:0:0:
475,192,135631,1,0,1:0:0:0:
182,192,135796,1,0,0:0:0:0:
329,192,135878,1,0,0:0:0:0:
109,192,135961,1,0,0:0:0:0:
402,192,136043,1,0,0:0:0:0:
475,192,136126,1,0,0:0:0:0:
256,192,136126,1,0,1:0:0:0:
36,192,136126,1,0,0:0:0:0:
475,192,136290,1,0,0:0:0:0:
36,192,136290,1,0,0:0:0:0:
256,192,136290,1,0,1:0:0:0:
402,192,136455,1,0,0:0:0:0:
256,192,136538,1,0,0:0:0:0:
109,192,136620,1,0,0:0:0:0:
329,192,136702,1,0,0:0:0:0:
36,192,136785,1,4,0:0:0:0:
475,192,136785,1,0,1:0:0:0:
475,192,136950,1,0,1:0:0:0:
36,192,136950,1,0,0:0:0:0:
475,192,137115,1,0,0:0:0:0:
109,192,137169,1,0,0:0:0:0:
182,192,137224,1,0,0:0:0:0:
256,192,137279,1,0,0:0:0:0:
329,192,137334,1,0,0:0:0:0:
402,192,137389,1,0,0:0:0:0:
475,192,137444,1,4,0:0:0:0:
36,192,137444,1,0,1:0:0:0:
475,192,137609,1,0,0:0:0:0:
36,192,137609,1,0,1:0:0:0:
36,192,137774,1,0,0:0:0:0:
402,192,137829,1,0,0:0:0:0:
329,192,137884,1,0,0:0:0:0:
256,192,137939,1,0,0:0:0:0:
182,192,137994,1,0,0:0:0:0:
109,192,138049,1,0,0:0:0:0:
36,192,138104,1,4,0:0:0:0:
475,192,138104,1,0,1:0:0:0:
36,192,138268,1,0,0:0:0:0:
475,192,138268,1,0,1:0:0:0:
256,192,138433,1,0,0:0:0:0:
329,192,138488,1,0,0:0:0:0:
402,192,138543,1,0,0:0:0:0:
109,192,138598,1,0,0:0:0:0:
182,192,138653,1,0,0:0:0:0:
256,192,138708,1,0,0:0:0:0:
402,192,138763,1,4,0:0:0:0:
402,192,138873,1,0,1:0:0:0:
402,192,138983,1,0,1:0:0:0:
36,192,139093,1,0,1:0:0:0:
36,192,139202,1,0,1:0:0:0:
36,192,139312,1,0,1:0:0:0:
329,192,139422,1,4,0:0:0:0:
329,192,139532,1,0,1:0:0:0:
329,192,139642,1,0,1:0:0:0:
109,192,139752,1,4,0:0:0:0:
109,192,139862,1,0,1:0:0:0:
109,192,139972,1,0,1:0:0:0:
256,192,140082,1,4,0:0:0:0:
256,192,140191,1,0,1:0:0:0:
256,192,140301,1,0,1:0:0:0:
402,192,140411,1,4,0:0:0:0:
402,192,140521,1,0,1:0:0:0:
402,192,140631,1,0,1:0:0:0:
182,192,140741,1,4,0:0:0:0:
182,192,140851,1,0,1:0:0:0:
182,192,140961,1,0,1:0:0:0:
475,192,141071,1,4,0:0:0:0:
475,192,141180,1,0,1:0:0:0:
475,192,141290,1,0,1:0:0:0:
36,192,141400,1,4,0:0:0:0:
36,192,141510,1,0,1:0:0:0:
36,192,141620,1,0,1:0:0:0:
256,192,141730,1,4,0:0:0:0:
256,192,141840,1,0,1:0:0:0:
256,192,141950,1,0,1:0:0:0:
36,192,142060,1,0,0:0:0:0:
475,192,142060,1,0,0:0:0:0:
256,192,142425,128,0,148350:1:0:0:0:
109,192,149471,1,0,1:0:0:0:
182,192,149752,1,0,0:0:0:0:
256,192,150032,1,0,0:0:0:0:
329,192,150593,1,0,1:0:0:0:
109,192,150873,1,0,0:0:0:0:
402,192,151154,1,0,1:0:0:0:
182,192,151714,1,0,0:0:0:0:
256,192,151995,1,0,0:0:0:0:
329,192,152275,1,0,0:0:0:0:
402,192,152556,1,0,0:0:0:0:
36,192,152836,1,0,0:0:0:0:
182,192,153116,1,0,0:0:0:0:
329,192,153397,1,0,1:0:0:0:
475,192,153677,1,0,1:0:0:0:
402,192,153957,1,0,1:0:0:0:
329,192,154238,1,0,0:0:0:0:
256,192,154518,1,0,0:0:0:0:
402,192,155079,1,0,1:0:0:0:
256,192,155359,1,0,0:0:0:0:
109,192,155640,1,0,1:0:0:0:
402,192,156200,1,0,0:0:0:0:
329,192,156481,1,0,0:0:0:0:
256,192,156761,1,0,0:0:0:0:
182,192,157042,1,0,0:0:0:0:
256,192,157322,1,0,0:0:0:0:
182,192,157602,1,0,0:0:0:0:
109,192,157883,1,0,1:0:0:0:
36,192,158163,1,0,1:0:0:0:
182,192,158443,1,0,1:0:0:0:
475,192,158724,1,0,0:0:0:0:
109,192,159004,1,0,0:0:0:0:
329,192,159565,1,0,1:0:0:0:
109,192,159845,1,0,0:0:0:0:
402,192,160126,1,0,1:0:0:0:
182,192,160686,1,0,0:0:0:0:
402,192,160967,1,0,0:0:0:0:
36,192,161247,1,0,0:0:0:0:
329,192,161528,1,0,0:0:0:0:
109,192,161808,1,0,0:0:0:0:
182,192,162088,1,0,0:0:0:0:
256,192,162369,1,0,1:0:0:0:
329,192,162649,1,0,1:0:0:0:
36,192,162929,1,0,1:0:0:0:
182,192,163210,1,0,1:0:0:0:
402,192,163490,1,0,1:0:0:0:
329,192,164051,1,0,0:0:0:0:
182,192,164331,1,0,0:0:0:0:
36,192,164612,1,0,0:0:0:0:
329,192,164892,1,0,0:0:0:0:
475,192,165172,1,0,0:0:0:0:
256,192,165453,1,0,0:0:0:0:
36,192,165733,1,0,0:0:0:0:
182,192,166014,1,0,0:0:0:0:
329,192,166294,1,0,0:0:0:0:
475,192,166434,1,0,0:0:0:0:
402,192,166574,1,0,0:0:0:0:
329,192,166714,1,0,0:0:0:0:
256,192,166855,5,0,0:0:0:0:
182,192,166995,1,0,0:0:0:0:
109,192,167135,1,0,0:0:0:0:
36,192,167275,5,0,0:0:0:0:
